  0
SECTION
  2
HEADER
  9
$ACADVER
  1
AC1015
  9
$ACADMAINTVER
 70
    20
  9
$DWGCODEPAGE
  3
ANSI_1252
  9
$INSBASE
 10
0.0
 20
0.0
 30
0.0
  9
$EXTMIN
 10
120.9167362812821
 20
-39.13881555869787
 30
0.0
  9
$EXTMAX
 10
241.2191310642925
 20
116.5466365134331
 30
25.0
  9
$LIMMIN
 10
-24.57006915212435
 20
-51.49463909391098
  9
$LIMMAX
 10
97.81579333692576
 20
108.4285321762899
  9
$ORTHOMODE
 70
     1
  9
$REGENMODE
 70
     1
  9
$FILLMODE
 70
     1
  9
$QTEXTMODE
 70
     0
  9
$MIRRTEXT
 70
     1
  9
$LTSCALE
 40
4.0
  9
$ATTMODE
 70
     1
  9
$TEXTSIZE
 40
1.5
  9
$TRACEWID
 40
0.05
  9
$TEXTSTYLE
  7
ROMAND
  9
$CLAYER
  8
DIM
  9
$CELTYPE
  6
BYLAYER
  9
$CECOLOR
 62
   256
  9
$CELTSCALE
 40
1.0
  9
$DISPSILH
 70
     0
  9
$DIMSCALE
 40
1.0
  9
$DIMASZ
 40
1.5
  9
$DIMEXO
 40
0.75
  9
$DIMDLI
 40
0.38
  9
$DIMRND
 40
0.0
  9
$DIMDLE
 40
0.0
  9
$DIMEXE
 40
1.5
  9
$DIMTP
 40
0.0
  9
$DIMTM
 40
0.0
  9
$DIMTXT
 40
0.18
  9
$DIMCEN
 40
-1.5
  9
$DIMTSZ
 40
0.0
  9
$DIMTOL
 70
     0
  9
$DIMLIM
 70
     0
  9
$DIMTIH
 70
     1
  9
$DIMTOH
 70
     1
  9
$DIMSE1
 70
     0
  9
$DIMSE2
 70
     0
  9
$DIMTAD
 70
     0
  9
$DIMZIN
 70
     0
  9
$DIMBLK
  1

  9
$DIMASO
 70
     1
  9
$DIMSHO
 70
     1
  9
$DIMPOST
  1

  9
$DIMAPOST
  1

  9
$DIMALT
 70
     0
  9
$DIMALTD
 70
     2
  9
$DIMALTF
 40
25.4
  9
$DIMLFAC
 40
1.0
  9
$DIMTOFL
 70
     0
  9
$DIMTVP
 40
0.0
  9
$DIMTIX
 70
     1
  9
$DIMSOXD
 70
     0
  9
$DIMSAH
 70
     0
  9
$DIMBLK1
  1

  9
$DIMBLK2
  1

  9
$DIMSTYLE
  2
STANDARD
  9
$DIMCLRD
 70
     0
  9
$DIMCLRE
 70
     0
  9
$DIMCLRT
 70
     0
  9
$DIMTFAC
 40
1.0
  9
$DIMGAP
 40
0.75
  9
$DIMJUST
 70
     0
  9
$DIMSD1
 70
     0
  9
$DIMSD2
 70
     0
  9
$DIMTOLJ
 70
     1
  9
$DIMTZIN
 70
     0
  9
$DIMALTZ
 70
     0
  9
$DIMALTTZ
 70
     0
  9
$DIMUPT
 70
     0
  9
$DIMDEC
 70
     2
  9
$DIMTDEC
 70
     4
  9
$DIMALTU
 70
     2
  9
$DIMALTTD
 70
     2
  9
$DIMTXSTY
  7
ROMAND
  9
$DIMAUNIT
 70
     0
  9
$DIMADEC
 70
     0
  9
$DIMALTRND
 40
0.0
  9
$DIMAZIN
 70
     0
  9
$DIMDSEP
 70
    46
  9
$DIMATFIT
 70
     0
  9
$DIMFRAC
 70
     0
  9
$DIMLDRBLK
  1

  9
$DIMLUNIT
 70
     2
  9
$DIMLWD
 70
    -2
  9
$DIMLWE
 70
    -2
  9
$DIMTMOVE
 70
     0
  9
$LUNITS
 70
     2
  9
$LUPREC
 70
     3
  9
$SKETCHINC
 40
0.1
  9
$FILLETRAD
 40
0.0
  9
$AUNITS
 70
     0
  9
$AUPREC
 70
     0
  9
$MENU
  1
acad
  9
$ELEVATION
 40
0.0
  9
$PELEVATION
 40
0.0
  9
$THICKNESS
 40
20.0
  9
$LIMCHECK
 70
     0
  9
$CHAMFERA
 40
0.025
  9
$CHAMFERB
 40
0.025
  9
$CHAMFERC
 40
0.0
  9
$CHAMFERD
 40
0.0
  9
$SKPOLY
 70
     0
  9
$TDCREATE
 40
2449609.390435070
  9
$TDUCREATE
 40
2449609.598768403
  9
$TDUPDATE
 40
2453159.559338808
  9
$TDUUPDATE
 40
2453159.767672141
  9
$TDINDWG
 40
0.2485989120
  9
$TDUSRTIMER
 40
0.2485989120
  9
$USRTIMER
 70
     1
  9
$ANGBASE
 50
0.0
  9
$ANGDIR
 70
     0
  9
$PDMODE
 70
     0
  9
$PDSIZE
 40
0.0
  9
$PLINEWID
 40
0.25
  9
$SPLFRAME
 70
     0
  9
$SPLINETYPE
 70
     6
  9
$SPLINESEGS
 70
    20
  9
$HANDSEED
  5
3921
  9
$SURFTAB1
 70
     6
  9
$SURFTAB2
 70
     6
  9
$SURFTYPE
 70
     6
  9
$SURFU
 70
     6
  9
$SURFV
 70
     6
  9
$UCSBASE
  2

  9
$UCSNAME
  2

  9
$UCSORG
 10
0.0
 20
0.0
 30
0.0
  9
$UCSXDIR
 10
1.0
 20
0.0
 30
0.0
  9
$UCSYDIR
 10
0.0
 20
1.0
 30
0.0
  9
$UCSORTHOREF
  2

  9
$UCSORTHOVIEW
 70
     0
  9
$UCSORGTOP
 10
0.0
 20
0.0
 30
0.0
  9
$UCSORGBOTTOM
 10
0.0
 20
0.0
 30
0.0
  9
$UCSORGLEFT
 10
0.0
 20
0.0
 30
0.0
  9
$UCSORGRIGHT
 10
0.0
 20
0.0
 30
0.0
  9
$UCSORGFRONT
 10
0.0
 20
0.0
 30
0.0
  9
$UCSORGBACK
 10
0.0
 20
0.0
 30
0.0
  9
$PUCSBASE
  2

  9
$PUCSNAME
  2

  9
$PUCSORG
 10
0.0
 20
0.0
 30
0.0
  9
$PUCSXDIR
 10
1.0
 20
0.0
 30
0.0
  9
$PUCSYDIR
 10
0.0
 20
1.0
 30
0.0
  9
$PUCSORTHOREF
  2

  9
$PUCSORTHOVIEW
 70
     0
  9
$PUCSORGTOP
 10
0.0
 20
0.0
 30
0.0
  9
$PUCSORGBOTTOM
 10
0.0
 20
0.0
 30
0.0
  9
$PUCSORGLEFT
 10
0.0
 20
0.0
 30
0.0
  9
$PUCSORGRIGHT
 10
0.0
 20
0.0
 30
0.0
  9
$PUCSORGFRONT
 10
0.0
 20
0.0
 30
0.0
  9
$PUCSORGBACK
 10
0.0
 20
0.0
 30
0.0
  9
$USERI1
 70
     0
  9
$USERI2
 70
     0
  9
$USERI3
 70
     0
  9
$USERI4
 70
     0
  9
$USERI5
 70
     0
  9
$USERR1
 40
0.0
  9
$USERR2
 40
0.0
  9
$USERR3
 40
0.0
  9
$USERR4
 40
0.0
  9
$USERR5
 40
0.0
  9
$WORLDVIEW
 70
     1
  9
$SHADEDGE
 70
     3
  9
$SHADEDIF
 70
    70
  9
$TILEMODE
 70
     1
  9
$MAXACTVP
 70
    16
  9
$PINSBASE
 10
0.0
 20
0.0
 30
0.0
  9
$PLIMCHECK
 70
     0
  9
$PEXTMIN
 10
1.000000000000000E+20
 20
1.000000000000000E+20
 30
1.000000000000000E+20
  9
$PEXTMAX
 10
-1.000000000000000E+20
 20
-1.000000000000000E+20
 30
-1.000000000000000E+20
  9
$PLIMMIN
 10
0.0
 20
0.0
  9
$PLIMMAX
 10
12.0
 20
9.0
  9
$UNITMODE
 70
     0
  9
$VISRETAIN
 70
     0
  9
$PLINEGEN
 70
     0
  9
$PSLTSCALE
 70
     1
  9
$TREEDEPTH
 70
  3020
  9
$CMLSTYLE
  2
STANDARD
  9
$CMLJUST
 70
     0
  9
$CMLSCALE
 40
1.0
  9
$PROXYGRAPHICS
 70
     1
  9
$MEASUREMENT
 70
     0
  9
$CELWEIGHT
370
    -1
  9
$ENDCAPS
280
     0
  9
$JOINSTYLE
280
     0
  9
$LWDISPLAY
290
     0
  9
$INSUNITS
 70
     0
  9
$HYPERLINKBASE
  1

  9
$STYLESHEET
  1
JIM.ctb
  9
$XEDIT
290
     1
  9
$CEPSNTYPE
380
     0
  9
$PSTYLEMODE
290
     1
  9
$FINGERPRINTGUID
  2
{8CD2E557-467E-41F5-8B4C-073882EB924F}
  9
$VERSIONGUID
  2
{6AAF2C3B-C159-4342-9C7C-A4DB39EFD6A0}
  9
$EXTNAMES
290
     1
  9
$PSVPSCALE
 40
0.0
  9
$OLESTARTUP
290
     0
  0
ENDSEC
  0
SECTION
  2
CLASSES
  0
CLASS
  1
DICTIONARYVAR
  2
AcDbDictionaryVar
  3
ObjectDBX Classes
 90
        0
280
     0
281
     0
  0
CLASS
  1
ACDBDICTIONARYWDFLT
  2
AcDbDictionaryWithDefault
  3
ObjectDBX Classes
 90
        0
280
     0
281
     0
  0
CLASS
  1
ACDBPLACEHOLDER
  2
AcDbPlaceHolder
  3
ObjectDBX Classes
 90
        0
280
     0
281
     0
  0
CLASS
  1
LAYOUT
  2
AcDbLayout
  3
ObjectDBX Classes
 90
        0
280
     0
281
     0
  0
ENDSEC
  0
SECTION
  2
TABLES
  0
TABLE
  2
VPORT
  5
8
330
0
100
AcDbSymbolTable
 70
     2
  0
VPORT
  5
3919
330
8
100
AcDbSymbolTableRecord
100
AcDbViewportTableRecord
  2
*Active
 70
     0
 10
0.0
 20
0.0
 11
1.0
 21
1.0
 12
181.0664898662796
 22
38.70795798842422
 13
0.0
 23
0.0
 14
2.0
 24
2.0
 15
20.0
 25
20.0
 16
0.0
 26
0.0
 36
1.0
 17
0.0
 27
0.0
 37
0.0
 40
157.4967526463095
 41
1.934362934362934
 42
50.0
 43
0.0
 44
0.0
 50
0.0
 51
0.0
 71
     0
 72
 20000
 73
     1
 74
     0
 75
     0
 76
     0
 77
     0
 78
     1
281
     0
 65
     1
110
0.0
120
0.0
130
0.0
111
1.0
121
0.0
131
0.0
112
0.0
122
1.0
132
0.0
 79
     0
146
0.0
  0
ENDTAB
  0
TABLE
  2
LTYPE
  5
5
330
0
100
AcDbSymbolTable
 70
     5
  0
LTYPE
  5
11
330
5
100
AcDbSymbolTableRecord
100
AcDbLinetypeTableRecord
  2
BYBLOCK
 70
     0
  3

 72
    65
 73
     0
 40
0.0
  0
LTYPE
  5
12
330
5
100
AcDbSymbolTableRecord
100
AcDbLinetypeTableRecord
  2
BYLAYER
 70
     0
  3

 72
    65
 73
     0
 40
0.0
  0
LTYPE
  5
13
330
5
100
AcDbSymbolTableRecord
100
AcDbLinetypeTableRecord
  2
CONTINUOUS
 70
     0
  3
Solid line
 72
    65
 73
     0
 40
0.0
  0
LTYPE
  5
37
330
5
100
AcDbSymbolTableRecord
100
AcDbLinetypeTableRecord
  2
CENTER
 70
     0
  3
____ _ ____ _ ____ _ ____ _ ____ _ ____ _ ____ 
 72
    65
 73
     4
 40
2.0
 49
1.25
 74
     0
 49
-0.25
 74
     0
 49
0.25
 74
     0
 49
-0.25
 74
     0
  0
LTYPE
  5
38
330
5
100
AcDbSymbolTableRecord
100
AcDbLinetypeTableRecord
  2
HIDDEN
 70
     0
  3
__ __ __ __ __ __ __ __ __ __ __ __ __ __ __ __
 72
    65
 73
     2
 40
0.375
 49
0.25
 74
     0
 49
-0.125
 74
     0
  0
LTYPE
  5
371E
330
5
100
AcDbSymbolTableRecord
100
AcDbLinetypeTableRecord
  2
CENTER2
 70
     0
  3
Center (.5x) ___ _ ___ _ ___ _ ___ _ ___ _ ___
 72
    65
 73
     4
 40
1.125
 49
0.75
 74
     0
 49
-0.125
 74
     0
 49
0.125
 74
     0
 49
-0.125
 74
     0
  0
LTYPE
  5
371F
330
5
100
AcDbSymbolTableRecord
100
AcDbLinetypeTableRecord
  2
HIDDEN2
 70
     0
  3
Hidden (.5x) _ _ _ _ _ _ _ _ _ _ _ _ _ _ _ _ _
 72
    65
 73
     2
 40
0.1875
 49
0.125
 74
     0
 49
-0.0625
 74
     0
  0
ENDTAB
  0
TABLE
  2
LAYER
  5
2
330
0
100
AcDbSymbolTable
 70
     8
  0
LAYER
  5
E
330
2
100
AcDbSymbolTableRecord
100
AcDbLayerTableRecord
  2
0
 70
     0
 62
     7
  6
CONTINUOUS
370
    -3
390
36A3
  0
LAYER
  5
3B
330
2
100
AcDbSymbolTableRecord
100
AcDbLayerTableRecord
  2
OBJECT
 70
     0
 62
     2
  6
CONTINUOUS
370
    -3
390
36A3
  0
LAYER
  5
3C
330
2
100
AcDbSymbolTableRecord
100
AcDbLayerTableRecord
  2
DIM
 70
     0
 62
     6
  6
CONTINUOUS
370
    -3
390
36A3
  0
LAYER
  5
3D
330
2
100
AcDbSymbolTableRecord
100
AcDbLayerTableRecord
  2
HIDDEN
 70
     0
 62
     1
  6
HIDDEN
370
    -3
390
36A3
  0
LAYER
  5
3E
330
2
100
AcDbSymbolTableRecord
100
AcDbLayerTableRecord
  2
CENTER
 70
     0
 62
     3
  6
CENTER
370
    -3
390
36A3
  0
LAYER
  5
3F
330
2
100
AcDbSymbolTableRecord
100
AcDbLayerTableRecord
  2
DEFPOINTS
 70
     0
 62
     7
  6
CONTINUOUS
290
     0
370
    -3
390
36A3
  0
LAYER
  5
40
330
2
100
AcDbSymbolTableRecord
100
AcDbLayerTableRecord
  2
BORDER
 70
     0
 62
     5
  6
CONTINUOUS
370
    -3
390
36A3
  0
LAYER
  5
13BC
330
2
100
AcDbSymbolTableRecord
100
AcDbLayerTableRecord
  2
LIMITS
 70
     0
 62
     7
  6
CONTINUOUS
370
    -3
390
36A3
  0
ENDTAB
  0
TABLE
  2
STYLE
  5
3
330
0
100
AcDbSymbolTable
 70
     5
  0
STYLE
  5
F
330
3
100
AcDbSymbolTableRecord
100
AcDbTextStyleTableRecord
  2
STANDARD
 70
     0
 40
0.0
 41
1.0
 50
0.0
 71
     0
 42
0.2
  3
txt
  4

  0
STYLE
  5
32
330
3
100
AcDbSymbolTableRecord
100
AcDbTextStyleTableRecord
  2
ROMANS
 70
     0
 40
1.5
 41
1.0
 50
0.0
 71
     0
 42
1.5
  3
ROMANS.SHX
  4

  0
STYLE
  5
34
330
3
100
AcDbSymbolTableRecord
100
AcDbTextStyleTableRecord
  2
ROMAND
 70
     0
 40
1.5
 41
1.0
 50
0.0
 71
     0
 42
1.5
  3
ROMAND.SHX
  4

  0
STYLE
  5
35
330
3
100
AcDbSymbolTableRecord
100
AcDbTextStyleTableRecord
  2
ROMANC
 70
     0
 40
0.0531
 41
1.0
 50
0.0
 71
     0
 42
0.0531
  3
romanc
  4

  0
STYLE
  5
13BD
330
3
100
AcDbSymbolTableRecord
100
AcDbTextStyleTableRecord
  2
COUNTRYBLUEPRINT
 70
     0
 40
0.0610591471661814
 41
1.0
 50
0.0
 71
     0
 42
0.0610591471661814
  3
cobt____.pfb
  4

  0
ENDTAB
  0
TABLE
  2
VIEW
  5
6
330
0
100
AcDbSymbolTable
 70
     0
  0
ENDTAB
  0
TABLE
  2
UCS
  5
7
330
0
100
AcDbSymbolTable
 70
     0
  0
ENDTAB
  0
TABLE
  2
APPID
  5
9
330
0
100
AcDbSymbolTable
 70
     1
  0
APPID
  5
10
330
9
100
AcDbSymbolTableRecord
100
AcDbRegAppTableRecord
  2
ACAD
 70
     0
  0
ENDTAB
  0
TABLE
  2
DIMSTYLE
  5
A
330
0
100
AcDbSymbolTable
 70
     1
100
AcDbDimStyleTable
 71
     1
340
127D
  0
DIMSTYLE
105
127D
102
{ACAD_REACTORS
330
28CB
330
290B
330
2A81
330
36F9
330
3755
330
1177
330
1176
330
1175
330
1173
330
FC0
330
38A9
330
38D7
102
}
330
A
100
AcDbSymbolTableRecord
100
AcDbDimStyleTableRecord
  2
STANDARD
 70
     0
340
F
  0
ENDTAB
  0
TABLE
  2
BLOCK_RECORD
  5
1
330
0
100
AcDbSymbolTable
 70
    16
  0
BLOCK_RECORD
  5
17
330
1
100
AcDbSymbolTableRecord
100
AcDbBlockTableRecord
  2
*MODEL_SPACE
340
36A8
  0
BLOCK_RECORD
  5
14
330
1
100
AcDbSymbolTableRecord
100
AcDbBlockTableRecord
  2
*PAPER_SPACE
340
36A9
  0
BLOCK_RECORD
  5
28BE
330
1
100
AcDbSymbolTableRecord
100
AcDbBlockTableRecord
  2
*D0
340
0
  0
BLOCK_RECORD
  5
28FE
330
1
100
AcDbSymbolTableRecord
100
AcDbBlockTableRecord
  2
*D1
340
0
  0
BLOCK_RECORD
  5
2A74
330
1
100
AcDbSymbolTableRecord
100
AcDbBlockTableRecord
  2
*D2
340
0
  0
BLOCK_RECORD
  5
36B0
330
1
100
AcDbSymbolTableRecord
100
AcDbBlockTableRecord
  2
INS7
340
0
  0
BLOCK_RECORD
  5
36FA
330
1
100
AcDbSymbolTableRecord
100
AcDbBlockTableRecord
  2
*D5
340
0
  0
BLOCK_RECORD
  5
3756
330
1
100
AcDbSymbolTableRecord
100
AcDbBlockTableRecord
  2
*D6
340
0
  0
BLOCK_RECORD
  5
3840
330
1
100
AcDbSymbolTableRecord
100
AcDbBlockTableRecord
  2
*D8
340
0
  0
BLOCK_RECORD
  5
384D
330
1
100
AcDbSymbolTableRecord
100
AcDbBlockTableRecord
  2
*D9
340
0
  0
BLOCK_RECORD
  5
385A
330
1
100
AcDbSymbolTableRecord
100
AcDbBlockTableRecord
  2
*D10
340
0
  0
BLOCK_RECORD
  5
3867
330
1
100
AcDbSymbolTableRecord
100
AcDbBlockTableRecord
  2
*D11
340
0
  0
BLOCK_RECORD
  5
3874
330
1
100
AcDbSymbolTableRecord
100
AcDbBlockTableRecord
  2
*D12
340
0
  0
BLOCK_RECORD
  5
38AA
330
1
100
AcDbSymbolTableRecord
100
AcDbBlockTableRecord
  2
*D14
340
0
  0
BLOCK_RECORD
  5
38D8
330
1
100
AcDbSymbolTableRecord
100
AcDbBlockTableRecord
  2
*D15
340
0
  0
ENDTAB
  0
ENDSEC
  0
SECTION
  2
BLOCKS
  0
BLOCK
  5
43
330
17
100
AcDbEntity
  8
0
 62
     6
100
AcDbBlockBegin
  2
*MODEL_SPACE
 70
     0
 10
0.0
 20
0.0
 30
0.0
  3
*MODEL_SPACE
  1

  0
ENDBLK
  5
44
330
17
100
AcDbEntity
  8
0
 62
     6
100
AcDbBlockEnd
  0
BLOCK
  5
41
330
14
100
AcDbEntity
 67
     1
  8
0
 62
     6
100
AcDbBlockBegin
  2
*PAPER_SPACE
 70
     0
 10
0.0
 20
0.0
 30
0.0
  3
*PAPER_SPACE
  1

  0
ENDBLK
  5
42
330
14
100
AcDbEntity
 67
     1
  8
0
 62
     6
100
AcDbBlockEnd
  0
BLOCK
  5
28D7
330
28BE
100
AcDbEntity
  8
0
100
AcDbBlockBegin
  2
*D0
 70
     1
 10
0.0
 20
0.0
 30
0.0
  3
*D0
  1

  0
LINE
  5
3836
330
28BE
100
AcDbEntity
  8
DIM
 62
     0
370
    -2
100
AcDbLine
 10
184.3455010761674
 20
93.54796534875672
 30
0.0
 11
184.3455010761674
 21
101.744950577704
 31
0.0
  0
LINE
  5
3837
330
28BE
100
AcDbEntity
  8
DIM
 62
     0
370
    -2
100
AcDbLine
 10
190.8455010761681
 20
86.2338068852483
 30
0.0
 11
190.8455010761681
 21
101.744950577704
 31
0.0
  0
LINE
  5
3838
330
28BE
100
AcDbEntity
  8
DIM
 62
     0
370
    -2
100
AcDbLine
 10
182.8455010761674
 20
100.244950577704
 30
0.0
 11
181.3455010761675
 21
100.244950577704
 31
0.0
  0
LINE
  5
3839
330
28BE
100
AcDbEntity
  8
DIM
 62
     0
370
    -2
100
AcDbLine
 10
192.3455010761681
 20
100.244950577704
 30
0.0
 11
195.6312153618824
 21
100.244950577704
 31
0.0
  0
SOLID
  5
383A
330
28BE
100
AcDbEntity
  8
DIM
 62
     0
100
AcDbTrace
 10
182.8455010761674
 20
100.494950577704
 30
0.0
 11
182.8455010761674
 21
99.99495057770406
 31
0.0
 12
184.3455010761674
 22
100.244950577704
 32
0.0
 13
184.3455010761674
 23
100.244950577704
 33
0.0
  0
SOLID
  5
383B
330
28BE
100
AcDbEntity
  8
DIM
 62
     0
100
AcDbTrace
 10
192.3455010761681
 20
100.494950577704
 30
0.0
 11
192.3455010761681
 21
99.99495057770406
 31
0.0
 12
190.8455010761681
 22
100.244950577704
 32
0.0
 13
190.8455010761681
 23
100.244950577704
 33
0.0
  0
MTEXT
  5
383C
330
28BE
100
AcDbEntity
  8
DIM
 62
     0
100
AcDbMText
 10
196.8812153618824
 20
100.244950577704
 30
0.0
 40
1.5
 41
0.0
 71
     5
 72
     1
  1
\A1;H
  7
ROMAND
 73
     1
 44
1.0
1001
ACAD
1000
MTEXTBEGIN
1070
    73
1070
     1
1070
    44
1040
1.0
1070
    74
1070
     0
1000
MTEXTEND
  0
POINT
  5
383D
330
28BE
100
AcDbEntity
  8
DEFPOINTS
 62
     0
100
AcDbPoint
 10
184.3455010761674
 20
92.79796534875673
 30
0.0
  0
POINT
  5
383E
330
28BE
100
AcDbEntity
  8
DEFPOINTS
 62
     0
100
AcDbPoint
 10
190.8455010761681
 20
85.48380688524831
 30
0.0
  0
POINT
  5
383F
330
28BE
100
AcDbEntity
  8
DEFPOINTS
 62
     0
100
AcDbPoint
 10
190.8455010761681
 20
100.244950577704
 30
0.0
  0
ENDBLK
  5
28E2
330
28BE
100
AcDbEntity
  8
0
100
AcDbBlockEnd
  0
BLOCK
  5
28FF
330
28FE
100
AcDbEntity
  8
0
100
AcDbBlockBegin
  2
*D1
 70
     1
 10
0.0
 20
0.0
 30
0.0
  3
*D1
  1

  0
LINE
  5
382C
330
28FE
100
AcDbEntity
  8
DIM
 62
     0
370
    -2
100
AcDbLine
 10
184.3455010761674
 20
93.54796534875672
 30
0.0
 11
184.3455010761674
 21
107.7951984825385
 31
0.0
  0
LINE
  5
382D
330
28FE
100
AcDbEntity
  8
DIM
 62
     0
370
    -2
100
AcDbLine
 10
171.0955010761674
 20
87.54796534875673
 30
0.0
 11
171.0955010761674
 21
107.7951984825385
 31
0.0
  0
LINE
  5
382E
330
28FE
100
AcDbEntity
  8
DIM
 62
     0
370
    -2
100
AcDbLine
 10
182.8455010761674
 20
106.2951984825385
 30
0.0
 11
181.3990725047388
 21
106.2951984825385
 31
0.0
  0
LINE
  5
382F
330
28FE
100
AcDbEntity
  8
DIM
 62
     0
370
    -2
100
AcDbLine
 10
172.5955010761675
 20
106.2951984825385
 30
0.0
 11
174.041929647596
 21
106.2951984825385
 31
0.0
  0
SOLID
  5
3830
330
28FE
100
AcDbEntity
  8
DIM
 62
     0
100
AcDbTrace
 10
182.8455010761674
 20
106.5451984825385
 30
0.0
 11
182.8455010761674
 21
106.0451984825385
 31
0.0
 12
184.3455010761674
 22
106.2951984825385
 32
0.0
 13
184.3455010761674
 23
106.2951984825385
 33
0.0
  0
SOLID
  5
3831
330
28FE
100
AcDbEntity
  8
DIM
 62
     0
100
AcDbTrace
 10
172.5955010761675
 20
106.5451984825385
 30
0.0
 11
172.5955010761675
 21
106.0451984825385
 31
0.0
 12
171.0955010761674
 22
106.2951984825385
 32
0.0
 13
171.0955010761674
 23
106.2951984825385
 33
0.0
  0
MTEXT
  5
3832
330
28FE
100
AcDbEntity
  8
DIM
 62
     0
100
AcDbMText
 10
177.7205010761674
 20
106.2951984825385
 30
0.0
 40
1.5
 41
0.0
 71
     5
 72
     1
  1
\A1;13.25
  7
ROMAND
 73
     1
 44
1.0
1001
ACAD
1000
MTEXTBEGIN
1070
    73
1070
     1
1070
    44
1040
1.0
1070
    74
1070
     0
1000
MTEXTEND
  0
POINT
  5
3833
330
28FE
100
AcDbEntity
  8
DEFPOINTS
 62
     0
100
AcDbPoint
 10
184.3455010761674
 20
92.79796534875673
 30
0.0
  0
POINT
  5
3834
330
28FE
100
AcDbEntity
  8
DEFPOINTS
 62
     0
100
AcDbPoint
 10
171.0955010761674
 20
86.79796534875674
 30
0.0
  0
POINT
  5
3835
330
28FE
100
AcDbEntity
  8
DEFPOINTS
 62
     0
100
AcDbPoint
 10
171.0955010761674
 20
106.2951984825385
 30
0.0
  0
ENDBLK
  5
290A
330
28FE
100
AcDbEntity
  8
0
100
AcDbBlockEnd
  0
BLOCK
  5
2A75
330
2A74
100
AcDbEntity
  8
0
100
AcDbBlockBegin
  2
*D2
 70
     1
 10
0.0
 20
0.0
 30
0.0
  3
*D2
  1

  0
LINE
  5
3822
330
2A74
100
AcDbEntity
  8
DIM
 62
     0
370
    -2
100
AcDbLine
 10
184.3455010761674
 20
39.95802369349411
 30
0.0
 11
184.3455010761674
 21
43.33920223633874
 31
0.0
  0
LINE
  5
3823
330
2A74
100
AcDbEntity
  8
DIM
 62
     0
370
    -2
100
AcDbLine
 10
177.8455010761673
 20
33.86565868280235
 30
0.0
 11
177.8455010761673
 21
43.33920223633874
 31
0.0
  0
LINE
  5
3824
330
2A74
100
AcDbEntity
  8
DIM
 62
     0
370
    -2
100
AcDbLine
 10
185.8455010761674
 20
41.83920223633873
 30
0.0
 11
187.3455010761674
 21
41.83920223633873
 31
0.0
  0
LINE
  5
3825
330
2A74
100
AcDbEntity
  8
DIM
 62
     0
370
    -2
100
AcDbLine
 10
176.3455010761673
 20
41.83920223633873
 30
0.0
 11
174.8455010761673
 21
41.83920223633873
 31
0.0
  0
SOLID
  5
3826
330
2A74
100
AcDbEntity
  8
DIM
 62
     0
100
AcDbTrace
 10
185.8455010761674
 20
42.08920223633874
 30
0.0
 11
185.8455010761674
 21
41.58920223633873
 31
0.0
 12
184.3455010761674
 22
41.83920223633873
 32
0.0
 13
184.3455010761674
 23
41.83920223633873
 33
0.0
  0
SOLID
  5
3827
330
2A74
100
AcDbEntity
  8
DIM
 62
     0
100
AcDbTrace
 10
176.3455010761673
 20
42.08920223633874
 30
0.0
 11
176.3455010761673
 21
41.58920223633873
 31
0.0
 12
177.8455010761673
 22
41.83920223633873
 32
0.0
 13
177.8455010761673
 23
41.83920223633873
 33
0.0
  0
MTEXT
  5
3828
330
2A74
100
AcDbEntity
  8
DIM
 62
     0
100
AcDbMText
 10
181.0955010761674
 20
41.83920223633873
 30
0.0
 40
1.5
 41
0.0
 71
     5
 72
     1
  1
\A1;H
  7
ROMAND
 73
     1
 44
1.0
1001
ACAD
1000
MTEXTBEGIN
1070
    73
1070
     1
1070
    44
1040
1.0
1070
    74
1070
     0
1000
MTEXTEND
  0
POINT
  5
3829
330
2A74
100
AcDbEntity
  8
DEFPOINTS
 62
     0
100
AcDbPoint
 10
184.3455010761674
 20
39.20802369349411
 30
0.0
  0
POINT
  5
382A
330
2A74
100
AcDbEntity
  8
DEFPOINTS
 62
     0
100
AcDbPoint
 10
177.8455010761673
 20
33.11565868280235
 30
0.0
  0
POINT
  5
382B
330
2A74
100
AcDbEntity
  8
DEFPOINTS
 62
     0
100
AcDbPoint
 10
177.8455010761673
 20
41.83920223633873
 30
0.0
  0
ENDBLK
  5
2A80
330
2A74
100
AcDbEntity
  8
0
100
AcDbBlockEnd
  0
BLOCK
  5
36C3
330
36B0
100
AcDbEntity
  8
0
100
AcDbBlockBegin
  2
INS7
 70
     0
 10
0.0
 20
0.0
 30
0.0
  3
INS7
  1

  0
LINE
  5
36B1
330
36B0
100
AcDbEntity
  8
CENTER
370
     0
100
AcDbLine
 10
-3.607228445997179
 20
-0.0000000000002274
 30
0.0
 11
3.607228445997179
 21
-0.0000000000002274
 31
0.0
  0
CIRCLE
  5
36B2
330
36B0
100
AcDbEntity
  8
OBJECT
370
     0
100
AcDbCircle
 10
0.0
 20
0.0
 30
0.0
 40
3.5
  0
CIRCLE
  5
36B3
330
36B0
100
AcDbEntity
  8
HIDDEN
370
     0
100
AcDbCircle
 10
0.0
 20
0.0
 30
0.0
 40
2.6
  0
CIRCLE
  5
36B4
330
36B0
100
AcDbEntity
  8
HIDDEN
370
     0
100
AcDbCircle
 10
0.0
 20
0.0
 30
0.0
 40
0.427375
  0
CIRCLE
  5
36B5
330
36B0
100
AcDbEntity
  8
HIDDEN
370
     0
100
AcDbCircle
 10
0.0
 20
0.0
 30
0.0
 40
0.5785407454339492
  0
LWPOLYLINE
  5
36B6
330
36B0
100
AcDbEntity
  8
OBJECT
370
     0
100
AcDbPolyline
 90
        6
 70
     1
 43
0.0
 10
-1.825680409826418
 20
0.2534447512159659
 10
-1.972006805165847
 20
-0.0000000000002274
 10
-1.825680409826418
 20
-0.2534447512168754
 10
-1.533027619147333
 20
-0.2534447512168754
 10
-1.386701223808131
 20
-0.0000000000002274
 10
-1.53302761914756
 20
0.2534447512159659
  0
CIRCLE
  5
36B7
330
36B0
100
AcDbEntity
  8
OBJECT
370
     0
100
AcDbCircle
 10
-1.679354014486989
 20
-0.0000000000002274
 30
0.0
 40
0.1625
  0
LINE
  5
36B8
330
36B0
100
AcDbEntity
  8
CENTER
370
     0
100
AcDbLine
 10
0.0000000000002274
 20
-3.607228445997634
 30
0.0
 11
0.0000000000002274
 21
3.607228445996724
 31
0.0
  0
LWPOLYLINE
  5
36B9
330
36B0
100
AcDbEntity
  8
OBJECT
370
     0
100
AcDbPolyline
 90
        6
 70
     1
 43
0.0
 10
-0.2534447512164206
 20
-1.825680409826645
 10
0.0000000000002274
 20
-1.972006805166302
 10
0.253444751216648
 20
-1.825680409826645
 10
0.253444751216648
 20
-1.533027619147787
 10
0.0
 20
-1.386701223808131
 10
-0.2534447512164206
 20
-1.533027619147787
  0
CIRCLE
  5
36BA
330
36B0
100
AcDbEntity
  8
OBJECT
370
     0
100
AcDbCircle
 10
-0.0000000000002274
 20
-1.679354014487444
 30
0.0
 40
0.1625
  0
CIRCLE
  5
36BB
330
36B0
100
AcDbEntity
  8
OBJECT
370
     0
100
AcDbCircle
 10
-2.165514517383826
 20
-2.165514517383826
 30
0.0
 40
0.28125
  0
CIRCLE
  5
36BC
330
36B0
100
AcDbEntity
  8
OBJECT
370
     0
100
AcDbCircle
 10
0.0
 20
1.679354014487216
 30
0.0
 40
0.1625
  0
LWPOLYLINE
  5
36BD
330
36B0
100
AcDbEntity
  8
OBJECT
370
     0
100
AcDbPolyline
 90
        6
 70
     1
 43
0.0
 10
0.253444751216648
 20
1.82568040982619
 10
0.0
 20
1.972006805165847
 10
-0.2534447512164206
 20
1.82568040982619
 10
-0.2534447512164206
 20
1.533027619147333
 10
0.0000000000002274
 20
1.386701223807676
 10
0.2534447512168754
 20
1.533027619147333
  0
CIRCLE
  5
36BE
330
36B0
100
AcDbEntity
  8
OBJECT
370
     0
100
AcDbCircle
 10
-2.165514517383826
 20
2.165514517383826
 30
0.0
 40
0.28125
  0
LWPOLYLINE
  5
36BF
330
36B0
100
AcDbEntity
  8
OBJECT
370
     0
100
AcDbPolyline
 90
        6
 70
     1
 43
0.0
 10
1.825680409826645
 20
-0.2534447512168754
 10
1.972006805165847
 20
-0.0000000000002274
 10
1.825680409826645
 20
0.2534447512164206
 10
1.533027619147787
 20
0.2534447512164206
 10
1.386701223808131
 20
-0.0000000000002274
 10
1.53302761914756
 20
-0.2534447512168754
  0
CIRCLE
  5
36C0
330
36B0
100
AcDbEntity
  8
OBJECT
370
     0
100
AcDbCircle
 10
1.679354014486989
 20
-0.0000000000002274
 30
0.0
 40
0.1625
  0
CIRCLE
  5
36C1
330
36B0
100
AcDbEntity
  8
OBJECT
370
     0
100
AcDbCircle
 10
2.165514517383599
 20
-2.165514517384053
 30
0.0
 40
0.28125
  0
CIRCLE
  5
36C2
330
36B0
100
AcDbEntity
  8
OBJECT
370
     0
100
AcDbCircle
 10
2.165514517384053
 20
2.165514517383144
 30
0.0
 40
0.28125
  0
ENDBLK
  5
36C4
330
36B0
100
AcDbEntity
  8
0
100
AcDbBlockEnd
  0
BLOCK
  5
3705
330
36FA
100
AcDbEntity
  8
0
100
AcDbBlockBegin
  2
*D5
 70
     1
 10
0.0
 20
0.0
 30
0.0
  3
*D5
  1

  0
LINE
  5
380E
330
36FA
100
AcDbEntity
  8
DIM
 62
     0
370
    -2
100
AcDbLine
 10
199.0955010761674
 20
23.80522515482419
 30
0.0
 11
204.746193840176
 21
23.80522515482418
 31
0.0
  0
LINE
  5
380F
330
36FA
100
AcDbEntity
  8
DIM
 62
     0
370
    -2
100
AcDbLine
 10
194.8438426126591
 20
27.80522515482442
 30
0.0
 11
204.746193840176
 21
27.80522515482442
 31
0.0
  0
LINE
  5
3810
330
36FA
100
AcDbEntity
  8
DIM
 62
     0
370
    -2
100
AcDbLine
 10
203.246193840176
 20
22.30522515482419
 30
0.0
 11
203.246193840176
 21
20.80522515482419
 31
0.0
  0
LINE
  5
3811
330
36FA
100
AcDbEntity
  8
DIM
 62
     0
370
    -2
100
AcDbLine
 10
203.246193840176
 20
29.30522515482442
 30
0.0
 11
203.246193840176
 21
30.80522515482441
 31
0.0
  0
SOLID
  5
3812
330
36FA
100
AcDbEntity
  8
DIM
 62
     0
100
AcDbTrace
 10
202.996193840176
 20
22.30522515482419
 30
0.0
 11
203.496193840176
 21
22.30522515482419
 31
0.0
 12
203.246193840176
 22
23.80522515482418
 32
0.0
 13
203.246193840176
 23
23.80522515482418
 33
0.0
  0
SOLID
  5
3813
330
36FA
100
AcDbEntity
  8
DIM
 62
     0
100
AcDbTrace
 10
202.996193840176
 20
29.30522515482442
 30
0.0
 11
203.496193840176
 21
29.30522515482442
 31
0.0
 12
203.246193840176
 22
27.80522515482442
 32
0.0
 13
203.246193840176
 23
27.80522515482442
 33
0.0
  0
MTEXT
  5
3814
330
36FA
100
AcDbEntity
  8
DIM
 62
     0
100
AcDbMText
 10
203.246193840176
 20
25.80522515482433
 30
0.0
 40
1.5
 41
0.0
 71
     5
 72
     1
  1
\A1;4.00
  7
ROMAND
 73
     1
 44
1.0
1001
ACAD
1000
MTEXTBEGIN
1070
    73
1070
     1
1070
    44
1040
1.0
1070
    74
1070
     0
1000
MTEXTEND
  0
POINT
  5
3815
330
36FA
100
AcDbEntity
  8
DEFPOINTS
 62
     0
100
AcDbPoint
 10
198.3455010761674
 20
23.80522515482419
 30
0.0
  0
POINT
  5
3816
330
36FA
100
AcDbEntity
  8
DEFPOINTS
 62
     0
100
AcDbPoint
 10
194.0938426126591
 20
27.80522515482442
 30
0.0
  0
POINT
  5
3817
330
36FA
100
AcDbEntity
  8
DEFPOINTS
 62
     0
100
AcDbPoint
 10
203.246193840176
 20
27.80522515482442
 30
0.0
  0
ENDBLK
  5
3706
330
36FA
100
AcDbEntity
  8
0
100
AcDbBlockEnd
  0
BLOCK
  5
3761
330
3756
100
AcDbEntity
  8
0
100
AcDbBlockBegin
  2
*D6
 70
     1
 10
0.0
 20
0.0
 30
0.0
  3
*D6
  1

  0
LINE
  5
3804
330
3756
100
AcDbEntity
  8
DIM
 62
     0
370
    -2
100
AcDbLine
 10
166.0955010761674
 20
23.80522515482419
 30
0.0
 11
164.2014690869826
 21
23.80522515482419
 31
0.0
  0
LINE
  5
3805
330
3756
100
AcDbEntity
  8
DIM
 62
     0
370
    -2
100
AcDbLine
 10
175.4098553447486
 20
19.80522515482442
 30
0.0
 11
164.2014690869826
 21
19.80522515482442
 31
0.0
  0
LINE
  5
3806
330
3756
100
AcDbEntity
  8
DIM
 62
     0
370
    -2
100
AcDbLine
 10
165.7014690869827
 20
25.30522515482419
 30
0.0
 11
165.7014690869827
 21
26.80522515482419
 31
0.0
  0
LINE
  5
3807
330
3756
100
AcDbEntity
  8
DIM
 62
     0
370
    -2
100
AcDbLine
 10
165.7014690869827
 20
18.30522515482442
 30
0.0
 11
165.7014690869827
 21
16.80522515482442
 31
0.0
  0
SOLID
  5
3808
330
3756
100
AcDbEntity
  8
DIM
 62
     0
100
AcDbTrace
 10
165.4514690869827
 20
25.30522515482419
 30
0.0
 11
165.9514690869827
 21
25.30522515482419
 31
0.0
 12
165.7014690869827
 22
23.80522515482419
 32
0.0
 13
165.7014690869827
 23
23.80522515482419
 33
0.0
  0
SOLID
  5
3809
330
3756
100
AcDbEntity
  8
DIM
 62
     0
100
AcDbTrace
 10
165.4514690869827
 20
18.30522515482442
 30
0.0
 11
165.9514690869827
 21
18.30522515482442
 31
0.0
 12
165.7014690869827
 22
19.80522515482442
 32
0.0
 13
165.7014690869827
 23
19.80522515482442
 33
0.0
  0
MTEXT
  5
380A
330
3756
100
AcDbEntity
  8
DIM
 62
     0
100
AcDbMText
 10
165.7014690869827
 20
21.80522515482433
 30
0.0
 40
1.5
 41
0.0
 71
     5
 72
     1
  1
\A1;4.00
  7
ROMAND
 73
     1
 44
1.0
1001
ACAD
1000
MTEXTBEGIN
1070
    73
1070
     1
1070
    44
1040
1.0
1070
    74
1070
     0
1000
MTEXTEND
  0
POINT
  5
380B
330
3756
100
AcDbEntity
  8
DEFPOINTS
 62
     0
100
AcDbPoint
 10
166.8455010761674
 20
23.80522515482419
 30
0.0
  0
POINT
  5
380C
330
3756
100
AcDbEntity
  8
DEFPOINTS
 62
     0
100
AcDbPoint
 10
176.1598553447486
 20
19.80522515482442
 30
0.0
  0
POINT
  5
380D
330
3756
100
AcDbEntity
  8
DEFPOINTS
 62
     0
100
AcDbPoint
 10
165.7014690869827
 20
19.80522515482442
 30
0.0
  0
ENDBLK
  5
3762
330
3756
100
AcDbEntity
  8
0
100
AcDbBlockEnd
  0
BLOCK
  5
384B
330
3840
100
AcDbEntity
  8
0
100
AcDbBlockBegin
  2
*D8
 70
     1
 10
0.0
 20
0.0
 30
0.0
  3
*D8
  1

  0
LINE
  5
3841
330
3840
100
AcDbEntity
  8
DIM
 62
     0
370
    -2
100
AcDbLine
 10
172.3455010761674
 20
66.04796534875672
 30
0.0
 11
172.3455010761674
 21
58.27395028978691
 31
0.0
  0
LINE
  5
3842
330
3840
100
AcDbEntity
  8
DIM
 62
     0
370
    -2
100
AcDbLine
 10
196.3455010761674
 20
66.04796534875672
 30
0.0
 11
196.3455010761674
 21
58.27395028978691
 31
0.0
  0
LINE
  5
3843
330
3840
100
AcDbEntity
  8
DIM
 62
     0
370
    -2
100
AcDbLine
 10
173.8455010761675
 20
59.77395028978691
 30
0.0
 11
181.7740725047389
 21
59.77395028978691
 31
0.0
  0
LINE
  5
3844
330
3840
100
AcDbEntity
  8
DIM
 62
     0
370
    -2
100
AcDbLine
 10
194.8455010761674
 20
59.77395028978691
 30
0.0
 11
186.916929647596
 21
59.77395028978691
 31
0.0
  0
SOLID
  5
3845
330
3840
100
AcDbEntity
  8
DIM
 62
     0
100
AcDbTrace
 10
173.8455010761675
 20
60.02395028978691
 30
0.0
 11
173.8455010761675
 21
59.52395028978691
 31
0.0
 12
172.3455010761674
 22
59.77395028978691
 32
0.0
 13
172.3455010761674
 23
59.77395028978691
 33
0.0
  0
SOLID
  5
3846
330
3840
100
AcDbEntity
  8
DIM
 62
     0
100
AcDbTrace
 10
194.8455010761674
 20
60.02395028978691
 30
0.0
 11
194.8455010761674
 21
59.52395028978691
 31
0.0
 12
196.3455010761674
 22
59.77395028978691
 32
0.0
 13
196.3455010761674
 23
59.77395028978691
 33
0.0
  0
MTEXT
  5
3847
330
3840
100
AcDbEntity
  8
DIM
 62
     0
100
AcDbMText
 10
184.3455010761674
 20
59.77395028978691
 30
0.0
 40
1.5
 41
0.0
 71
     5
 72
     1
  1
\A1;24"
  7
ROMAND
 73
     1
 44
1.0
1001
ACAD
1000
MTEXTBEGIN
1070
    73
1070
     1
1070
    44
1040
1.0
1070
    74
1070
     0
1000
MTEXTEND
  0
POINT
  5
3848
330
3840
100
AcDbEntity
  8
DEFPOINTS
 62
     0
100
AcDbPoint
 10
172.3455010761674
 20
66.79796534875672
 30
0.0
  0
POINT
  5
3849
330
3840
100
AcDbEntity
  8
DEFPOINTS
 62
     0
100
AcDbPoint
 10
196.3455010761674
 20
66.79796534875672
 30
0.0
  0
POINT
  5
384A
330
3840
100
AcDbEntity
  8
DEFPOINTS
 62
     0
100
AcDbPoint
 10
196.3455010761674
 20
59.77395028978691
 30
0.0
  0
ENDBLK
  5
384C
330
3840
100
AcDbEntity
  8
0
100
AcDbBlockEnd
  0
BLOCK
  5
3858
330
384D
100
AcDbEntity
  8
0
100
AcDbBlockBegin
  2
*D9
 70
     1
 10
0.0
 20
0.0
 30
0.0
  3
*D9
  1

  0
LINE
  5
384E
330
384D
100
AcDbEntity
  8
DIM
 62
     0
370
    -2
100
AcDbLine
 10
170.3455010761674
 20
64.04796534875671
 30
0.0
 11
170.3455010761674
 21
54.01126193498644
 31
0.0
  0
LINE
  5
384F
330
384D
100
AcDbEntity
  8
DIM
 62
     0
370
    -2
100
AcDbLine
 10
198.3455010761674
 20
64.04796534875671
 30
0.0
 11
198.3455010761674
 21
54.01126193498644
 31
0.0
  0
LINE
  5
3850
330
384D
100
AcDbEntity
  8
DIM
 62
     0
370
    -2
100
AcDbLine
 10
171.8455010761674
 20
55.51126193498643
 30
0.0
 11
181.7740725047389
 21
55.51126193498643
 31
0.0
  0
LINE
  5
3851
330
384D
100
AcDbEntity
  8
DIM
 62
     0
370
    -2
100
AcDbLine
 10
196.8455010761674
 20
55.51126193498643
 30
0.0
 11
186.916929647596
 21
55.51126193498643
 31
0.0
  0
SOLID
  5
3852
330
384D
100
AcDbEntity
  8
DIM
 62
     0
100
AcDbTrace
 10
171.8455010761674
 20
55.76126193498644
 30
0.0
 11
171.8455010761674
 21
55.26126193498644
 31
0.0
 12
170.3455010761674
 22
55.51126193498643
 32
0.0
 13
170.3455010761674
 23
55.51126193498643
 33
0.0
  0
SOLID
  5
3853
330
384D
100
AcDbEntity
  8
DIM
 62
     0
100
AcDbTrace
 10
196.8455010761674
 20
55.76126193498644
 30
0.0
 11
196.8455010761674
 21
55.26126193498644
 31
0.0
 12
198.3455010761674
 22
55.51126193498643
 32
0.0
 13
198.3455010761674
 23
55.51126193498643
 33
0.0
  0
MTEXT
  5
3854
330
384D
100
AcDbEntity
  8
DIM
 62
     0
100
AcDbMText
 10
184.3455010761674
 20
55.51126193498643
 30
0.0
 40
1.5
 41
0.0
 71
     5
 72
     1
  1
\A1;28"
  7
ROMAND
 73
     1
 44
1.0
1001
ACAD
1000
MTEXTBEGIN
1070
    73
1070
     1
1070
    44
1040
1.0
1070
    74
1070
     0
1000
MTEXTEND
  0
POINT
  5
3855
330
384D
100
AcDbEntity
  8
DEFPOINTS
 62
     0
100
AcDbPoint
 10
170.3455010761674
 20
64.79796534875672
 30
0.0
  0
POINT
  5
3856
330
384D
100
AcDbEntity
  8
DEFPOINTS
 62
     0
100
AcDbPoint
 10
198.3455010761674
 20
64.79796534875672
 30
0.0
  0
POINT
  5
3857
330
384D
100
AcDbEntity
  8
DEFPOINTS
 62
     0
100
AcDbPoint
 10
198.3455010761674
 20
55.51126193498643
 30
0.0
  0
ENDBLK
  5
3859
330
384D
100
AcDbEntity
  8
0
100
AcDbBlockEnd
  0
BLOCK
  5
3865
330
385A
100
AcDbEntity
  8
0
100
AcDbBlockBegin
  2
*D10
 70
     1
 10
0.0
 20
0.0
 30
0.0
  3
*D10
  1

  0
LINE
  5
385B
330
385A
100
AcDbEntity
  8
DIM
 62
     0
370
    -2
100
AcDbLine
 10
199.0955010761674
 20
92.79796534875671
 30
0.0
 11
220.5478091450254
 21
92.79796534875671
 31
0.0
  0
LINE
  5
385C
330
385A
100
AcDbEntity
  8
DIM
 62
     0
370
    -2
100
AcDbLine
 10
199.0955010761674
 20
64.79796534875672
 30
0.0
 11
220.5478091450254
 21
64.79796534875672
 31
0.0
  0
LINE
  5
385D
330
385A
100
AcDbEntity
  8
DIM
 62
     0
370
    -2
100
AcDbLine
 10
219.0478091450254
 20
91.29796534875671
 30
0.0
 11
219.0478091450254
 21
80.44082249161386
 31
0.0
  0
LINE
  5
385E
330
385A
100
AcDbEntity
  8
DIM
 62
     0
370
    -2
100
AcDbLine
 10
219.0478091450254
 20
66.29796534875672
 30
0.0
 11
219.0478091450254
 21
77.15510820589958
 31
0.0
  0
SOLID
  5
385F
330
385A
100
AcDbEntity
  8
DIM
 62
     0
100
AcDbTrace
 10
218.7978091450254
 20
91.29796534875671
 30
0.0
 11
219.2978091450254
 21
91.29796534875671
 31
0.0
 12
219.0478091450254
 22
92.79796534875671
 32
0.0
 13
219.0478091450254
 23
92.79796534875671
 33
0.0
  0
SOLID
  5
3860
330
385A
100
AcDbEntity
  8
DIM
 62
     0
100
AcDbTrace
 10
218.7978091450254
 20
66.29796534875672
 30
0.0
 11
219.2978091450254
 21
66.29796534875672
 31
0.0
 12
219.0478091450254
 22
64.79796534875672
 32
0.0
 13
219.0478091450254
 23
64.79796534875672
 33
0.0
  0
MTEXT
  5
3861
330
385A
100
AcDbEntity
  8
DIM
 62
     0
100
AcDbMText
 10
219.0478091450254
 20
78.79796534875675
 30
0.0
 40
1.5
 41
0.0
 71
     5
 72
     1
  1
\A1;28"
  7
ROMAND
 73
     1
 44
1.0
1001
ACAD
1000
MTEXTBEGIN
1070
    73
1070
     1
1070
    44
1040
1.0
1070
    74
1070
     0
1000
MTEXTEND
  0
POINT
  5
3862
330
385A
100
AcDbEntity
  8
DEFPOINTS
 62
     0
100
AcDbPoint
 10
198.3455010761674
 20
92.79796534875671
 30
0.0
  0
POINT
  5
3863
330
385A
100
AcDbEntity
  8
DEFPOINTS
 62
     0
100
AcDbPoint
 10
198.3455010761674
 20
64.79796534875672
 30
0.0
  0
POINT
  5
3864
330
385A
100
AcDbEntity
  8
DEFPOINTS
 62
     0
100
AcDbPoint
 10
219.0478091450254
 20
64.79796534875672
 30
0.0
  0
ENDBLK
  5
3866
330
385A
100
AcDbEntity
  8
0
100
AcDbBlockEnd
  0
BLOCK
  5
3872
330
3867
100
AcDbEntity
  8
0
100
AcDbBlockBegin
  2
*D11
 70
     1
 10
0.0
 20
0.0
 30
0.0
  3
*D11
  1

  0
LINE
  5
3868
330
3867
100
AcDbEntity
  8
DIM
 62
     0
370
    -2
100
AcDbLine
 10
187.0955010761674
 20
88.79796534875673
 30
0.0
 11
211.6569025830861
 21
88.79796534875673
 31
0.0
  0
LINE
  5
3869
330
3867
100
AcDbEntity
  8
DIM
 62
     0
370
    -2
100
AcDbLine
 10
200.5955010761675
 20
78.79796534875672
 30
0.0
 11
211.6569025830861
 21
78.79796534875672
 31
0.0
  0
LINE
  5
386A
330
3867
100
AcDbEntity
  8
DIM
 62
     0
370
    -2
100
AcDbLine
 10
210.1569025830861
 20
87.29796534875672
 30
0.0
 11
210.1569025830861
 21
85.29796534875673
 31
0.0
  0
LINE
  5
386B
330
3867
100
AcDbEntity
  8
DIM
 62
     0
370
    -2
100
AcDbLine
 10
210.1569025830861
 20
80.29796534875671
 30
0.0
 11
210.1569025830861
 21
82.29796534875672
 31
0.0
  0
SOLID
  5
386C
330
3867
100
AcDbEntity
  8
DIM
 62
     0
100
AcDbTrace
 10
209.9069025830861
 20
87.29796534875672
 30
0.0
 11
210.4069025830861
 21
87.29796534875672
 31
0.0
 12
210.1569025830861
 22
88.79796534875673
 32
0.0
 13
210.1569025830861
 23
88.79796534875673
 33
0.0
  0
SOLID
  5
386D
330
3867
100
AcDbEntity
  8
DIM
 62
     0
100
AcDbTrace
 10
209.9069025830861
 20
80.29796534875671
 30
0.0
 11
210.4069025830861
 21
80.29796534875671
 31
0.0
 12
210.1569025830861
 22
78.79796534875672
 32
0.0
 13
210.1569025830861
 23
78.79796534875672
 33
0.0
  0
MTEXT
  5
386E
330
3867
100
AcDbEntity
  8
DIM
 62
     0
100
AcDbMText
 10
210.1569025830861
 20
83.79796534875676
 30
0.0
 40
1.5
 41
0.0
 71
     5
 72
     1
  1
\A1;10.00
  7
ROMAND
 73
     1
 44
1.0
1001
ACAD
1000
MTEXTBEGIN
1070
    73
1070
     1
1070
    44
1040
1.0
1070
    74
1070
     0
1000
MTEXTEND
  0
POINT
  5
386F
330
3867
100
AcDbEntity
  8
DEFPOINTS
 62
     0
100
AcDbPoint
 10
186.3455010761675
 20
88.79796534875673
 30
0.0
  0
POINT
  5
3870
330
3867
100
AcDbEntity
  8
DEFPOINTS
 62
     0
100
AcDbPoint
 10
199.8455010761674
 20
78.79796534875672
 30
0.0
  0
POINT
  5
3871
330
3867
100
AcDbEntity
  8
DEFPOINTS
 62
     0
100
AcDbPoint
 10
210.1569025830861
 20
78.79796534875672
 30
0.0
  0
ENDBLK
  5
3873
330
3867
100
AcDbEntity
  8
0
100
AcDbBlockEnd
  0
BLOCK
  5
387F
330
3874
100
AcDbEntity
  8
0
100
AcDbBlockBegin
  2
*D12
 70
     1
 10
0.0
 20
0.0
 30
0.0
  3
*D12
  1

  0
LINE
  5
3875
330
3874
100
AcDbEntity
  8
DIM
 62
     0
370
    -2
100
AcDbLine
 10
187.0955010761674
 20
33.80522515482418
 30
0.0
 11
211.6569025830861
 21
33.80522515482418
 31
0.0
  0
LINE
  5
3876
330
3874
100
AcDbEntity
  8
DIM
 62
     0
370
    -2
100
AcDbLine
 10
200.5955010761675
 20
23.80522515482418
 30
0.0
 11
211.6569025830861
 21
23.80522515482418
 31
0.0
  0
LINE
  5
3877
330
3874
100
AcDbEntity
  8
DIM
 62
     0
370
    -2
100
AcDbLine
 10
210.1569025830861
 20
32.30522515482418
 30
0.0
 11
210.1569025830861
 21
30.30522515482418
 31
0.0
  0
LINE
  5
3878
330
3874
100
AcDbEntity
  8
DIM
 62
     0
370
    -2
100
AcDbLine
 10
210.1569025830861
 20
25.30522515482418
 30
0.0
 11
210.1569025830861
 21
27.30522515482418
 31
0.0
  0
SOLID
  5
3879
330
3874
100
AcDbEntity
  8
DIM
 62
     0
100
AcDbTrace
 10
209.9069025830861
 20
32.30522515482418
 30
0.0
 11
210.4069025830861
 21
32.30522515482418
 31
0.0
 12
210.1569025830861
 22
33.80522515482418
 32
0.0
 13
210.1569025830861
 23
33.80522515482418
 33
0.0
  0
SOLID
  5
387A
330
3874
100
AcDbEntity
  8
DIM
 62
     0
100
AcDbTrace
 10
209.9069025830861
 20
25.30522515482418
 30
0.0
 11
210.4069025830861
 21
25.30522515482418
 31
0.0
 12
210.1569025830861
 22
23.80522515482418
 32
0.0
 13
210.1569025830861
 23
23.80522515482418
 33
0.0
  0
MTEXT
  5
387B
330
3874
100
AcDbEntity
  8
DIM
 62
     0
100
AcDbMText
 10
210.1569025830861
 20
28.80522515482422
 30
0.0
 40
1.5
 41
0.0
 71
     5
 72
     1
  1
\A1;10.00
  7
ROMAND
 73
     1
 44
1.0
1001
ACAD
1000
MTEXTBEGIN
1070
    73
1070
     1
1070
    44
1040
1.0
1070
    74
1070
     0
1000
MTEXTEND
  0
POINT
  5
387C
330
3874
100
AcDbEntity
  8
DEFPOINTS
 62
     0
100
AcDbPoint
 10
186.3455010761675
 20
33.80522515482418
 30
0.0
  0
POINT
  5
387D
330
3874
100
AcDbEntity
  8
DEFPOINTS
 62
     0
100
AcDbPoint
 10
199.8455010761674
 20
23.80522515482418
 30
0.0
  0
POINT
  5
387E
330
3874
100
AcDbEntity
  8
DEFPOINTS
 62
     0
100
AcDbPoint
 10
210.1569025830861
 20
23.80522515482418
 30
0.0
  0
ENDBLK
  5
3880
330
3874
100
AcDbEntity
  8
0
100
AcDbBlockEnd
  0
BLOCK
  5
38B5
330
38AA
100
AcDbEntity
  8
0
100
AcDbBlockBegin
  2
*D14
 70
     1
 10
0.0
 20
0.0
 30
0.0
  3
*D14
  1

  0
LINE
  5
38B7
330
38AA
100
AcDbEntity
  8
DIM
 62
     0
370
    -2
100
AcDbLine
 10
188.6973794610474
 20
14.38939140424383
 30
0.0
 11
204.7284369155635
 21
14.38939140424382
 31
0.0
  0
LINE
  5
38B8
330
38AA
100
AcDbEntity
  8
DIM
 62
     0
370
    -2
100
AcDbLine
 10
199.8455010761674
 20
23.80522515482419
 30
0.0
 11
204.7284369155635
 21
23.80522515482418
 31
0.0
  0
LINE
  5
38B9
330
38AA
100
AcDbEntity
  8
DIM
 62
     0
370
    -2
100
AcDbLine
 10
203.2284369155635
 20
15.88939140424382
 30
0.0
 11
203.2284369155635
 21
17.597308279534
 31
0.0
  0
LINE
  5
38BA
330
38AA
100
AcDbEntity
  8
DIM
 62
     0
370
    -2
100
AcDbLine
 10
203.2284369155635
 20
22.30522515482419
 30
0.0
 11
203.2284369155635
 21
20.59730827953401
 31
0.0
  0
SOLID
  5
38BB
330
38AA
100
AcDbEntity
  8
DIM
 62
     0
100
AcDbTrace
 10
202.9784369155635
 20
15.88939140424382
 30
0.0
 11
203.4784369155635
 21
15.88939140424382
 31
0.0
 12
203.2284369155635
 22
14.38939140424382
 32
0.0
 13
203.2284369155635
 23
14.38939140424382
 33
0.0
  0
SOLID
  5
38BC
330
38AA
100
AcDbEntity
  8
DIM
 62
     0
100
AcDbTrace
 10
202.9784369155635
 20
22.30522515482419
 30
0.0
 11
203.4784369155635
 21
22.30522515482419
 31
0.0
 12
203.2284369155635
 22
23.80522515482418
 32
0.0
 13
203.2284369155635
 23
23.80522515482418
 33
0.0
  0
MTEXT
  5
38BD
330
38AA
100
AcDbEntity
  8
DIM
 62
     0
100
AcDbMText
 10
203.2284369155635
 20
19.09730827953404
 30
0.0
 40
1.5
 41
0.0
 71
     5
 72
     1
  1
\A1;9.42
  7
ROMAND
 73
     1
 44
1.0
1001
ACAD
1000
MTEXTBEGIN
1070
    73
1070
     1
1070
    44
1040
1.0
1070
    74
1070
     0
1000
MTEXTEND
  0
POINT
  5
38BE
330
38AA
100
AcDbEntity
  8
DEFPOINTS
 62
     0
100
AcDbPoint
 10
187.9473794610474
 20
14.38939140424383
 30
0.0
  0
POINT
  5
38BF
330
38AA
100
AcDbEntity
  8
DEFPOINTS
 62
     0
100
AcDbPoint
 10
199.0955010761674
 20
23.80522515482419
 30
0.0
  0
POINT
  5
38C0
330
38AA
100
AcDbEntity
  8
DEFPOINTS
 62
     0
100
AcDbPoint
 10
203.2284369155635
 20
23.80522515482418
 30
0.0
  0
ENDBLK
  5
38B6
330
38AA
100
AcDbEntity
  8
0
100
AcDbBlockEnd
  0
BLOCK
  5
38E3
330
38D8
100
AcDbEntity
  8
0
100
AcDbBlockBegin
  2
*D15
 70
     1
 10
0.0
 20
0.0
 30
0.0
  3
*D15
  1

  0
LINE
  5
38D9
330
38D8
100
AcDbEntity
  8
DIM
 62
     0
370
    -2
100
AcDbLine
 10
188.6979992515172
 20
69.38213159817639
 30
0.0
 11
211.6604284716549
 21
69.38213159817639
 31
0.0
  0
LINE
  5
38DA
330
38D8
100
AcDbEntity
  8
DIM
 62
     0
370
    -2
100
AcDbLine
 10
199.0955010761674
 20
78.79796534875673
 30
0.0
 11
211.6604284716549
 21
78.79796534875673
 31
0.0
  0
LINE
  5
38DB
330
38D8
100
AcDbEntity
  8
DIM
 62
     0
370
    -2
100
AcDbLine
 10
210.1604284716549
 20
70.88213159817638
 30
0.0
 11
210.1604284716549
 21
72.59004847346655
 31
0.0
  0
LINE
  5
38DC
330
38D8
100
AcDbEntity
  8
DIM
 62
     0
370
    -2
100
AcDbLine
 10
210.1604284716549
 20
77.29796534875673
 30
0.0
 11
210.1604284716549
 21
75.59004847346655
 31
0.0
  0
SOLID
  5
38DD
330
38D8
100
AcDbEntity
  8
DIM
 62
     0
100
AcDbTrace
 10
209.9104284716549
 20
70.88213159817638
 30
0.0
 11
210.4104284716549
 21
70.88213159817638
 31
0.0
 12
210.1604284716549
 22
69.38213159817639
 32
0.0
 13
210.1604284716549
 23
69.38213159817639
 33
0.0
  0
SOLID
  5
38DE
330
38D8
100
AcDbEntity
  8
DIM
 62
     0
100
AcDbTrace
 10
209.9104284716549
 20
77.29796534875673
 30
0.0
 11
210.4104284716549
 21
77.29796534875673
 31
0.0
 12
210.1604284716549
 22
78.79796534875673
 32
0.0
 13
210.1604284716549
 23
78.79796534875673
 33
0.0
  0
MTEXT
  5
38DF
330
38D8
100
AcDbEntity
  8
DIM
 62
     0
100
AcDbMText
 10
210.1604284716549
 20
74.09004847346658
 30
0.0
 40
1.5
 41
0.0
 71
     5
 72
     1
  1
\A1;9.42
  7
ROMAND
 73
     1
 44
1.0
1001
ACAD
1000
MTEXTBEGIN
1070
    73
1070
     1
1070
    44
1040
1.0
1070
    74
1070
     0
1000
MTEXTEND
  0
POINT
  5
38E0
330
38D8
100
AcDbEntity
  8
DEFPOINTS
 62
     0
100
AcDbPoint
 10
187.9479992515172
 20
69.38213159817639
 30
0.0
  0
POINT
  5
38E1
330
38D8
100
AcDbEntity
  8
DEFPOINTS
 62
     0
100
AcDbPoint
 10
198.3455010761674
 20
78.79796534875673
 30
0.0
  0
POINT
  5
38E2
330
38D8
100
AcDbEntity
  8
DEFPOINTS
 62
     0
100
AcDbPoint
 10
210.1604284716549
 20
78.79796534875673
 30
0.0
  0
ENDBLK
  5
38E4
330
38D8
100
AcDbEntity
  8
0
100
AcDbBlockEnd
  0
ENDSEC
  0
SECTION
  2
ENTITIES
  0
TEXT
  5
9B9
330
17
100
AcDbEntity
  8
0
  6
ByBlock
 62
     0
100
AcDbText
 10
137.7710144755873
 20
144.4653125240909
 30
0.0
 40
1.5
  1
   
  7
ROMANS
 72
     1
 11
140.0210144755874
 21
145.2153125240909
 31
0.0
100
AcDbText
 73
     2
  0
TEXT
  5
9BB
330
17
100
AcDbEntity
  8
0
  6
ByBlock
 62
     0
100
AcDbText
 10
105.1363264358898
 20
196.25
 30
0.0
 40
1.5
  1
  
  7
ROMANS
 72
     1
 11
106.6363264358898
 21
197.0
 31
0.0
100
AcDbText
 73
     2
  0
TEXT
  5
9BC
330
17
100
AcDbEntity
  8
0
  6
ByBlock
 62
     0
100
AcDbText
 10
105.1176904351394
 20
187.25
 30
0.0
 40
1.5
  1
  
  7
ROMANS
 72
     1
 11
106.6176904351395
 21
188.0
 31
0.0
100
AcDbText
 73
     2
  0
TEXT
  5
9BD
330
17
100
AcDbEntity
  8
0
  6
ByBlock
 62
     0
100
AcDbText
 10
64.36540328915461
 20
158.7662919881312
 30
0.0
 40
1.5
  1
  
  7
ROMANS
 72
     1
 11
65.86540328915461
 21
159.5162919881312
 31
0.0
100
AcDbText
 73
     2
  0
CIRCLE
  5
9BE
330
17
100
AcDbEntity
  8
HIDDEN
 62
     1
100
AcDbCircle
 39
20.0
 10
184.3455010761674
 20
23.80522515482418
 30
0.0
 40
12.0
  0
CIRCLE
  5
9BF
330
17
100
AcDbEntity
  8
OBJECT
 62
     2
100
AcDbCircle
 39
20.0
 10
184.3455010761674
 20
23.80522515482418
 30
0.0
 40
14.0
  0
CIRCLE
  5
9C0
330
17
100
AcDbEntity
  8
CENTER
 62
     3
100
AcDbCircle
 39
20.0
 10
184.3455010761674
 20
23.80522515482418
 30
0.0
 40
13.25
  0
LWPOLYLINE
  5
9C7
330
17
100
AcDbEntity
  8
OBJECT
 62
     2
100
AcDbPolyline
 90
        6
 70
     1
 43
0.0
 39
20.0
 10
190.7830010761675
 20
12.43864173015343
 10
190.7830010761675
 20
12.22213537920733
 10
190.9705010761675
 20
12.11388220373428
 10
191.1580010761675
 20
12.22213537920731
 10
191.1580010761675
 20
12.43864173015343
 10
190.9705010761675
 20
12.54689490562647
  0
LWPOLYLINE
  5
9CF
330
17
100
AcDbEntity
  8
OBJECT
 62
     2
100
AcDbPolyline
 90
        6
 70
     1
 43
0.0
 39
20.0
 10
197.4080010761674
 20
23.69697197935112
 10
197.5955010761675
 20
23.58871880387809
 10
197.7830010761675
 20
23.69697197935114
 10
197.7830010761675
 20
23.91347833029725
 10
197.5955010761675
 20
24.02173150577029
 10
197.4080010761675
 20
23.91347833029725
  0
LWPOLYLINE
  5
9D7
330
17
100
AcDbEntity
  8
OBJECT
 62
     2
100
AcDbPolyline
 90
        6
 70
     1
 43
0.0
 39
20.0
 10
190.9705010761675
 20
35.0635554040219
 10
191.1580010761675
 20
35.17180857949494
 10
191.1580010761675
 20
35.38831493044106
 10
190.9705010761675
 20
35.49656810591411
 10
190.7830010761675
 20
35.38831493044107
 10
190.7830010761674
 20
35.17180857949492
  0
LWPOLYLINE
  5
9DF
330
17
100
AcDbEntity
  8
OBJECT
 62
     2
100
AcDbPolyline
 90
        6
 70
     1
 43
0.0
 39
20.0
 10
177.9080010761675
 20
35.17180857949494
 10
177.9080010761675
 20
35.38831493044106
 10
177.7205010761675
 20
35.49656810591411
 10
177.5330010761675
 20
35.38831493044107
 10
177.5330010761675
 20
35.17180857949495
 10
177.7205010761675
 20
35.0635554040219
  0
LWPOLYLINE
  5
9E7
330
17
100
AcDbEntity
  8
OBJECT
 62
     2
100
AcDbPolyline
 90
        6
 70
     1
 43
0.0
 39
20.0
 10
171.2830010761675
 20
23.91347833029724
 10
171.0955010761675
 20
24.02173150577032
 10
170.9080010761675
 20
23.91347833029725
 10
170.9080010761675
 20
23.69697197935114
 10
171.0955010761675
 20
23.58871880387808
 10
171.2830010761675
 20
23.69697197935115
  0
LWPOLYLINE
  5
9EF
330
17
100
AcDbEntity
  8
OBJECT
 62
     2
100
AcDbPolyline
 90
        6
 70
     1
 43
0.0
 39
20.0
 10
177.7205010761674
 20
12.54689490562649
 10
177.5330010761675
 20
12.43864173015345
 10
177.5330010761674
 20
12.2221353792073
 10
177.7205010761675
 20
12.11388220373428
 10
177.9080010761674
 20
12.22213537920731
 10
177.9080010761675
 20
12.43864173015343
  0
TEXT
  5
A05
330
17
100
AcDbEntity
  8
DIM
 62
     6
100
AcDbText
 10
199.3835636267421
 20
78.79735103258095
 30
0.0
 40
1.125
  1
C
  7
ROMANS
100
AcDbText
  0
TEXT
  5
A06
330
17
100
AcDbEntity
  8
DIM
 62
     6
100
AcDbText
 10
199.7819492739279
 20
78.16962953143629
 30
0.0
 40
1.125
  1
L
  7
ROMANS
100
AcDbText
  0
TEXT
  5
A07
330
17
100
AcDbEntity
  8
DIM
 62
     6
100
AcDbText
 10
199.3835636267421
 20
23.76433366892841
 30
0.0
 40
1.125
  1
C
  7
ROMANS
100
AcDbText
  0
TEXT
  5
A08
330
17
100
AcDbEntity
  8
DIM
 62
     6
100
AcDbText
 10
199.7819492739279
 20
23.13661216778375
 30
0.0
 40
1.125
  1
L
  7
ROMANS
100
AcDbText
  0
TEXT
  5
A09
330
17
100
AcDbEntity
  8
DIM
 62
     6
100
AcDbText
 10
183.75332936554
 20
62.11459002016784
 30
0.0
 40
1.125
  1
C
  7
ROMANS
100
AcDbText
  0
TEXT
  5
A0A
330
17
100
AcDbEntity
  8
DIM
 62
     6
100
AcDbText
 10
184.1517150127258
 20
61.48686851902318
 30
0.0
 40
1.125
  1
L
  7
ROMANS
100
AcDbText
  0
TEXT
  5
A0B
330
17
100
AcDbEntity
  8
DIM
 62
     6
100
AcDbText
 10
184.1517150127258
 20
6.549630288813958
 30
0.0
 40
1.125
  1
L
  7
ROMANS
100
AcDbText
  0
TEXT
  5
A0C
330
17
100
AcDbEntity
  8
DIM
 62
     6
100
AcDbText
 10
183.75332936554
 20
7.17735178995862
 30
0.0
 40
1.125
  1
C
  7
ROMANS
100
AcDbText
  0
TEXT
  5
A35
330
17
100
AcDbEntity
  8
DIM
 62
     6
100
AcDbText
 10
207.2910327938469
 20
47.83396341237106
 30
0.0
 40
1.5
  1
A
  7
ROMANS
 11
207.2910327938469
 21
48.58396341237106
 31
0.0
100
AcDbText
 73
     2
  0
CIRCLE
  5
A36
330
17
100
AcDbEntity
  8
DIM
 62
     6
100
AcDbCircle
 39
20.0
 10
207.96853169037
 20
48.48238610576142
 30
0.0
 40
1.186877323363652
  0
CIRCLE
  5
A37
330
17
100
AcDbEntity
  8
DIM
 62
     6
100
AcDbCircle
 39
20.0
 10
207.96853169037
 20
11.06855643222799
 30
0.0
 40
1.186877323363652
  0
TEXT
  5
A38
330
17
100
AcDbEntity
  8
DIM
 62
     6
100
AcDbText
 10
207.2159444682184
 20
10.29513306852898
 30
0.0
 40
1.5
  1
B
  7
ROMANS
 11
207.2159444682184
 21
11.04513306852898
 31
0.0
100
AcDbText
 73
     2
  0
SOLID
  5
A39
330
17
100
AcDbEntity
  8
DIM
 62
     6
100
AcDbTrace
 10
196.1292383622745
 20
13.70402233357068
 30
0.0
 11
196.3850660032884
 21
14.13361774566591
 31
0.0
 12
194.9683659464957
 22
14.68630296265994
 32
0.0
 13
194.9683659464957
 23
14.68630296265994
 33
0.0
  0
LINE
  5
A3A
330
17
100
AcDbEntity
  8
DIM
 62
     6
100
AcDbLine
 10
196.2571521827814
 20
13.9188200396183
 30
0.0
 11
204.2903505748703
 21
11.06391705590891
 31
0.0
  0
LINE
  5
A3B
330
17
100
AcDbEntity
  8
DIM
 62
     6
100
AcDbLine
 10
204.2910327938468
 20
11.06391832635637
 30
0.0
 11
206.7816543670064
 21
11.06855643222799
 31
0.0
  0
LINE
  5
A3D
330
17
100
AcDbEntity
  8
DIM
 62
     6
100
AcDbLine
 10
164.3999693584881
 20
5.494507345935019
 30
0.0
 11
162.8999693584881
 21
5.494507345935019
 31
0.0
  0
CIRCLE
  5
A3E
330
17
100
AcDbEntity
  8
DIM
 62
     6
100
AcDbCircle
 39
20.0
 10
160.7224704619649
 20
5.645200967623523
 30
0.0
 40
1.186877323363652
  0
TEXT
  5
A3F
330
17
100
AcDbEntity
  8
DIM
 62
     6
100
AcDbText
 10
178.6296786843809
 20
18.46741290891251
 30
0.0
 40
1.5
  1
~
 50
310.6345056119128
  7
ROMANS
100
AcDbText
  0
TEXT
  5
A41
330
17
100
AcDbEntity
  8
DIM
 62
     6
100
AcDbText
 10
160.0498243709114
 20
4.871777603924513
 30
0.0
 40
1.5
  1
D
  7
ROMANS
 11
160.0498243709114
 21
5.621777603924513
 31
0.0
100
AcDbText
 73
     2
  0
LINE
  5
A42
330
17
100
AcDbEntity
  8
DIM
 62
     6
100
AcDbLine
 10
163.944558962145
 20
59.9272594451115
 30
0.0
 11
162.444558962145
 21
59.9272594451115
 31
0.0
  0
TEXT
  5
A4B
330
17
100
AcDbEntity
  8
0
  6
ByBlock
 62
     0
100
AcDbText
 10
1645.80308770023
 20
1700.549558418939
 30
0.0
 40
18.0
  1
   
  7
ROMANS
 72
     1
 11
1672.80308770023
 21
1709.549558418939
 31
0.0
100
AcDbText
 73
     2
  0
TEXT
  5
A4C
330
17
100
AcDbEntity
  8
0
  6
ByBlock
 62
     0
100
AcDbText
 10
1254.186831223859
 20
2321.965808129848
 30
0.0
 40
18.0
  1
  
  7
ROMANS
 72
     1
 11
1272.186831223859
 21
2330.965808129848
 31
0.0
100
AcDbText
 73
     2
  0
TEXT
  5
A4D
330
17
100
AcDbEntity
  8
0
  6
ByBlock
 62
     0
100
AcDbText
 10
1253.963199214855
 20
2213.965808129848
 30
0.0
 40
18.0
  1
  
  7
ROMANS
 72
     1
 11
1271.963199214855
 21
2222.965808129848
 31
0.0
100
AcDbText
 73
     2
  0
TEXT
  5
A4E
330
17
100
AcDbEntity
  8
0
  6
ByBlock
 62
     0
100
AcDbText
 10
764.9357534630369
 20
1872.161311987422
 30
0.0
 40
18.0
  1
  
  7
ROMANS
 72
     1
 11
782.9357534630369
 21
1881.161311987422
 31
0.0
100
AcDbText
 73
     2
  0
TEXT
  5
B85
330
17
100
AcDbEntity
  8
BORDER
 62
     7
100
AcDbText
 10
68.24220550099406
 20
-45.5295483744848
 30
0.0
 40
1.03159405170493
  1

  7
ROMANC
100
AcDbText
  0
LINE
  5
F46
330
17
100
AcDbEntity
  8
CENTER
 62
     3
100
AcDbLine
 10
184.3455010761674
 20
12.80522515482418
 30
0.0
 11
184.3455010761674
 21
15.80522515482418
 31
0.0
  0
LINE
  5
F49
330
17
100
AcDbEntity
  8
DIM
 62
     6
100
AcDbLine
 10
184.3455010761674
 20
11.30522515482418
 30
0.0
 11
184.3455010761674
 21
9.305225154824185
 31
0.0
  0
LINE
  5
F4A
330
17
100
AcDbEntity
  8
DIM
 62
     6
100
AcDbLine
 10
184.3455010761674
 20
17.30522515482418
 30
0.0
 11
184.3455010761674
 21
19.30522515482418
 31
0.0
  0
LINE
  5
F4B
330
17
100
AcDbEntity
  8
CENTER
 62
     3
100
AcDbLine
 10
182.3455010761674
 20
33.80522515482418
 30
0.0
 11
186.3455010761675
 21
33.80522515482418
 31
0.0
  0
LINE
  5
F4C
330
17
100
AcDbEntity
  8
CENTER
 62
     3
100
AcDbLine
 10
184.3455010761674
 20
31.80522515482419
 30
0.0
 11
184.3455010761674
 21
35.80522515482419
 31
0.0
  0
DIMENSION
  5
FC0
330
17
100
AcDbEntity
  8
DIM
 62
     6
100
AcDbDimension
  2
*D12
 10
210.1569025830861
 20
23.80522515482418
 30
0.0
 11
210.1569025830861
 21
28.80522515482422
 31
0.0
 70
    32
  1
10.00
 71
     5
 42
10.0
  3
STANDARD
100
AcDbAlignedDimension
 13
186.3455010761675
 23
33.80522515482418
 33
0.0
 14
199.8455010761674
 24
23.80522515482418
 34
0.0
 50
90.0
100
AcDbRotatedDimension
1001
ACAD
1000
DSTYLE
1002
{
1070
    41
1040
1.5
1070
    42
1040
0.75
1070
    44
1040
1.5
1070
   141
1040
-1.5
1070
   147
1040
0.75
1070
   174
1070
     1
1070
   271
1070
     2
1070
   289
1070
     0
1070
   340
1005
34
1002
}
  0
LINE
  5
FD1
330
17
100
AcDbEntity
  8
DIM
 62
     6
100
AcDbLine
 10
204.156902583086
 20
40.87027696086465
 30
0.0
 11
205.656902583086
 21
40.87027696086465
 31
0.0
  0
LINE
  5
FD4
330
17
100
AcDbEntity
  8
DIM
 62
     6
100
AcDbLine
 10
204.1569025830861
 20
44.87027696086467
 30
0.0
 11
205.6569025830861
 21
44.87027696086467
 31
0.0
  0
CIRCLE
  5
FD5
330
17
100
AcDbEntity
  8
DIM
 62
     6
100
AcDbCircle
 39
20.0
 10
207.96853169037
 20
40.71777785975007
 30
0.0
 40
1.186877323363652
  0
TEXT
  5
FD6
330
17
100
AcDbEntity
  8
DIM
 62
     6
100
AcDbText
 10
207.1542602315928
 20
39.93274348217129
 30
0.0
 40
1.5
  1
F
  7
ROMANS
 11
207.1542602315928
 21
40.68274348217129
 31
0.0
100
AcDbText
 73
     2
  0
TEXT
  5
FD7
330
17
100
AcDbEntity
  8
DIM
 62
     6
100
AcDbText
 10
207.1542602315928
 20
44.19001854379239
 30
0.0
 40
1.5
  1
E
  7
ROMANS
 11
207.1542602315928
 21
44.94001854379239
 31
0.0
100
AcDbText
 73
     2
  0
CIRCLE
  5
FD8
330
17
100
AcDbEntity
  8
DIM
 62
     6
100
AcDbCircle
 39
20.0
 10
207.96853169037
 20
44.89308591085811
 30
0.0
 40
1.186877323363652
  0
SOLID
  5
FD9
330
17
100
AcDbEntity
  8
DIM
 62
     6
100
AcDbTrace
 10
191.4596466557559
 20
35.16935725792599
 30
0.0
 11
191.0974974751643
 21
35.51410059868374
 31
0.0
 12
190.2443420431868
 22
34.25528138653
 32
0.0
 13
190.2443420431868
 23
34.25528138653
 33
0.0
  0
LINE
  5
FDA
330
17
100
AcDbEntity
  8
DIM
 62
     6
100
AcDbLine
 10
191.2785720654601
 20
35.34172892830488
 30
0.0
 11
204.156902583086
 21
48.87027696086466
 31
0.0
  0
LINE
  5
FDB
330
17
100
AcDbEntity
  8
DIM
 62
     6
100
AcDbLine
 10
204.156902583086
 20
48.87027696086466
 30
0.0
 11
205.656902583086
 21
48.87027696086466
 31
0.0
  0
SOLID
  5
FE2
330
17
100
AcDbEntity
  8
DIM
 62
     6
100
AcDbTrace
 10
197.3332537639716
 20
31.22514515964515
 30
0.0
 11
197.0255402341378
 21
31.61924208117236
 31
0.0
 12
195.9971062344731
 22
30.49905303090736
 32
0.0
 13
195.9971062344731
 23
30.49905303090736
 33
0.0
  0
LINE
  5
FE3
330
17
100
AcDbEntity
  8
DIM
 62
     6
100
AcDbLine
 10
197.1793969990547
 20
31.42219362040875
 30
0.0
 11
204.1569025830861
 21
36.87027696086466
 31
0.0
  0
LINE
  5
FE4
330
17
100
AcDbEntity
  8
DIM
 62
     6
100
AcDbLine
 10
204.1569025830861
 20
36.87027696086466
 30
0.0
 11
205.6569025830861
 21
36.87027696086466
 31
0.0
  0
TEXT
  5
FE5
330
17
100
AcDbEntity
  8
DIM
 62
     6
100
AcDbText
 10
207.1542602315928
 20
36.0982517503731
 30
0.0
 40
1.5
  1
C
  7
ROMANS
 11
207.1542602315928
 21
36.84825175037309
 31
0.0
100
AcDbText
 73
     2
  0
CIRCLE
  5
FE6
330
17
100
AcDbEntity
  8
DIM
 62
     6
100
AcDbCircle
 39
20.0
 10
207.96853169037
 20
36.88328612795186
 30
0.0
 40
1.186877323363652
  0
DIMENSION
  5
1173
330
17
100
AcDbEntity
  8
DIM
 62
     6
100
AcDbDimension
  2
*D11
 10
210.1569025830861
 20
78.79796534875672
 30
0.0
 11
210.1569025830861
 21
83.79796534875676
 31
0.0
 70
    32
  1
10.00
 71
     5
 42
10.00000000000001
  3
STANDARD
100
AcDbAlignedDimension
 13
186.3455010761675
 23
88.79796534875673
 33
0.0
 14
199.8455010761674
 24
78.79796534875672
 34
0.0
 50
90.0
100
AcDbRotatedDimension
1001
ACAD
1000
DSTYLE
1002
{
1070
    41
1040
1.5
1070
    42
1040
0.75
1070
    44
1040
1.5
1070
   141
1040
-1.5
1070
   147
1040
0.75
1070
   174
1070
     1
1070
   271
1070
     2
1070
   289
1070
     0
1070
   340
1005
34
1002
}
  0
DIMENSION
  5
1175
330
17
100
AcDbEntity
  8
DIM
 62
     6
100
AcDbDimension
  2
*D10
 10
219.0478091450254
 20
64.79796534875672
 30
0.0
 11
219.0478091450254
 21
78.79796534875675
 31
0.0
 70
    32
  1
28"
 71
     5
 42
28.0
  3
STANDARD
100
AcDbAlignedDimension
 13
198.3455010761674
 23
92.79796534875671
 33
0.0
 14
198.3455010761674
 24
64.79796534875672
 34
0.0
 50
90.0
100
AcDbRotatedDimension
1001
ACAD
1000
DSTYLE
1002
{
1070
    41
1040
1.5
1070
    42
1040
0.75
1070
    44
1040
1.5
1070
   141
1040
-1.5
1070
   147
1040
0.75
1070
   174
1070
     1
1070
   271
1070
     2
1070
   289
1070
     0
1070
   340
1005
34
1002
}
  0
DIMENSION
  5
1176
330
17
100
AcDbEntity
  8
DIM
 62
     6
100
AcDbDimension
  2
*D9
 10
198.3455010761674
 20
55.51126193498643
 30
0.0
 11
184.3455010761674
 21
55.51126193498643
 31
0.0
 70
    32
  1
28"
 71
     5
 42
28.0
  3
STANDARD
100
AcDbAlignedDimension
 13
170.3455010761674
 23
64.79796534875672
 33
0.0
 14
198.3455010761674
 24
64.79796534875672
 34
0.0
100
AcDbRotatedDimension
1001
ACAD
1000
DSTYLE
1002
{
1070
    41
1040
1.5
1070
    42
1040
0.75
1070
    44
1040
1.5
1070
   141
1040
-1.5
1070
   147
1040
0.75
1070
   174
1070
     1
1070
   271
1070
     2
1070
   289
1070
     0
1070
   340
1005
34
1002
}
  0
DIMENSION
  5
1177
330
17
100
AcDbEntity
  8
DIM
 62
     6
100
AcDbDimension
  2
*D8
 10
196.3455010761674
 20
59.77395028978691
 30
0.0
 11
184.3455010761674
 21
59.77395028978691
 31
0.0
 70
    32
  1
24"
 71
     5
 42
24.0
  3
STANDARD
100
AcDbAlignedDimension
 13
172.3455010761674
 23
66.79796534875672
 33
0.0
 14
196.3455010761674
 24
66.79796534875672
 34
0.0
100
AcDbRotatedDimension
1001
ACAD
1000
DSTYLE
1002
{
1070
    41
1040
1.5
1070
    42
1040
0.75
1070
    44
1040
1.5
1070
   141
1040
-1.5
1070
   147
1040
0.75
1070
   174
1070
     1
1070
   271
1070
     2
1070
   289
1070
     0
1070
   340
1005
34
1002
}
  0
LINE
  5
1185
330
17
100
AcDbEntity
  8
DIM
 62
     6
100
AcDbLine
 10
172.844979478317
 20
67.91133050692883
 30
0.0
 11
163.944558962145
 21
59.9272594451115
 31
0.0
  0
TEXT
  5
1187
330
17
100
AcDbEntity
  8
DIM
 62
     6
100
AcDbText
 10
146.1066697015322
 20
59.09999003957229
 30
0.0
 40
1.5
  1
.25 MATERIAL
  7
ROMANS
100
AcDbText
  0
TEXT
  5
1188
330
17
100
AcDbEntity
  8
DIM
 62
     6
100
AcDbText
 10
146.1066697015322
 20
56.67141861100086
 30
0.0
 40
1.5
  1
THICKNESS
  7
ROMANS
100
AcDbText
  0
LINE
  5
21F6
330
17
100
AcDbEntity
  8
LIMITS
100
AcDbLine
 10
241.2191310642925
 20
-39.13881555869787
 30
0.0
 11
241.2191310642925
 21
113.3758305712504
 31
0.0
  0
LINE
  5
21F7
330
17
100
AcDbEntity
  8
LIMITS
100
AcDbLine
 10
241.2191310642925
 20
113.3758305712504
 30
0.0
 11
241.2191310642925
 21
-39.13881555869787
 31
0.0
  0
LINE
  5
21F8
330
17
100
AcDbEntity
  8
LIMITS
 62
     7
100
AcDbLine
 10
241.2191310642925
 20
-39.13881555869787
 30
0.0
 11
241.2191310642925
 21
116.5466365134331
 31
0.0
  0
LWPOLYLINE
  5
21F9
330
17
100
AcDbEntity
  8
BORDER
 62
     5
100
AcDbPolyline
 90
        2
 70
     0
 43
0.3177388461040591
 10
238.6772202954595
 20
-21.05701689287737
 10
238.6772202954595
 20
112.7337703601844
  0
LINE
  5
21FA
330
17
100
AcDbEntity
  8
LIMITS
 62
     7
100
AcDbLine
 10
120.9167362812821
 20
116.5466365134331
 30
0.0
 11
120.9167362812821
 21
-39.13881555869787
 31
0.0
  0
LWPOLYLINE
  5
21FB
330
17
100
AcDbEntity
  8
BORDER
 62
     5
100
AcDbPolyline
 90
        2
 70
     0
 43
0.3177388461040591
 10
123.4586470501143
 20
-21.05701689287737
 10
123.4586470501143
 20
112.7337703601844
  0
LWPOLYLINE
  5
21FC
330
17
100
AcDbEntity
  8
BORDER
 62
     5
100
AcDbPolyline
 90
        6
 70
     0
 43
0.5661289166259309
 10
123.4586470501143
 20
-21.05701689287737
 10
123.4586470501143
 20
112.7337703601844
 42
-0.4142135623730894
 10
124.7296024345304
 20
114.0047257446006
 10
237.4062649110434
 20
114.0047257446006
 42
-0.4142135623731008
 10
238.6772202954595
 20
112.7337703601844
 10
238.6772202954595
 20
-21.05701689287737
  0
TEXT
  5
2205
330
17
100
AcDbEntity
  8
BORDER
 62
     6
100
AcDbText
 10
154.4445695354986
 20
-31.81425350073908
 30
0.0
 40
0.6058877648963242
  1
Highway 25 North P.O. Box 420
  7
ROMANC
100
AcDbText
  0
TEXT
  5
2206
330
17
100
AcDbEntity
  8
BORDER
 62
     6
100
AcDbText
 10
155.3722147110615
 20
-25.52206794392728
 30
0.0
 40
0.8197305054479679
  1
24" DUPLEX STEEL COVER
  7
ROMANC
100
AcDbText
  0
LINE
  5
2207
330
17
100
AcDbEntity
  8
BORDER
100
AcDbLine
 10
150.4664489689587
 20
-26.92078297670903
 30
0.0
 11
174.6820001179752
 21
-26.92078297670903
 31
0.0
  0
TEXT
  5
2208
330
17
100
AcDbEntity
  8
BORDER
 62
     6
100
AcDbText
 10
151.583333589011
 20
-34.10881945341259
 30
0.0
 40
0.6058877648963242
  1
Phone: 800/354-4534  Fax: 574/223-6106
  7
ROMANC
100
AcDbText
  0
LINE
  5
2209
330
17
100
AcDbEntity
  8
BORDER
100
AcDbLine
 10
150.4664489689587
 20
-34.37273286713708
 30
0.0
 11
187.9430784997956
 21
-34.37273286713708
 31
0.0
  0
LINE
  5
220A
330
17
100
AcDbEntity
  8
BORDER
100
AcDbLine
 10
152.0551431994793
 20
-23.25187325349492
 30
0.0
 11
187.9430784997956
 21
-23.25187325349492
 31
0.0
  0
LINE
  5
220B
330
17
100
AcDbEntity
  8
BORDER
100
AcDbLine
 10
150.4664489689587
 20
-29.60665017557611
 30
0.0
 11
187.9430784997956
 21
-29.60665017557611
 31
0.0
  0
LINE
  5
220C
330
17
100
AcDbEntity
  8
BORDER
100
AcDbLine
 10
150.4664489689587
 20
-30.74789344942388
 30
0.0
 11
187.9430784997956
 21
-30.74789344942388
 31
0.0
  0
LWPOLYLINE
  5
220D
330
17
100
AcDbEntity
  8
BORDER
 62
     5
100
AcDbPolyline
 90
        2
 70
     0
 43
0.7943471152601476
 10
152.0551431994793
 20
-21.66317902297469
 10
210.0807241460944
 20
-21.66317902297469
  0
LINE
  5
220E
330
17
100
AcDbEntity
  8
LIMITS
 62
     7
100
AcDbLine
 10
120.9167362812821
 20
-39.13881555869787
 30
0.0
 11
241.2191310642925
 21
-39.13881555869787
 31
0.0
  0
LWPOLYLINE
  5
220F
330
17
100
AcDbEntity
  8
BORDER
 62
     5
100
AcDbPolyline
 90
        2
 70
     0
 43
0.7943471152601476
 10
235.4998318344191
 20
-35.96142709765729
 10
126.6360355111546
 20
-35.96142709765729
  0
LINE
  5
2219
330
17
100
AcDbEntity
  8
BORDER
100
AcDbLine
 10
141.1657472219491
 20
-26.50197206049879
 30
0.0
 11
141.4594164635324
 21
-26.50197206049879
 31
0.0
  0
LINE
  5
221A
330
17
100
AcDbEntity
  8
BORDER
100
AcDbLine
 10
141.1657472219491
 20
-25.54815502981438
 30
0.0
 11
141.4594164635324
 21
-25.54815502981438
 31
0.0
  0
LINE
  5
221B
330
17
100
AcDbEntity
  8
BORDER
100
AcDbLine
 10
140.807348969504
 20
-32.07598966710651
 30
0.0
 11
141.3679692820616
 21
-32.07598966710651
 31
0.0
  0
HATCH
  5
221C
330
17
100
AcDbEntity
  8
BORDER
100
AcDbHatch
 10
0.0
 20
0.0
 30
0.0
210
0.0
220
0.0
230
1.0
  2
ANSI37
 70
     0
 71
     1
 91
        2
 92
        7
 72
     1
 73
     1
 93
       16
 10
141.0795904278641
 20
-30.33199497949487
 42
-0.4142135623729136
 10
140.7448851669357
 20
-30.66670024042304
 42
0.0
 10
140.5899936178408
 20
-30.66670024042304
 42
0.0
 10
140.5899936178408
 20
-30.75492189370007
 42
0.0
 10
142.042731342136
 20
-30.75492189370007
 42
0.0
 10
142.042731342136
 20
-30.66670024042304
 42
0.0
 10
141.8878397930417
 20
-30.66670024042304
 42
-0.414213562373546
 10
141.5531345321128
 20
-30.33199497949466
 42
0.0
 10
141.5531345321128
 20
-29.15891548629221
 42
0.0609117558028005
 10
142.1390454335676
 20
-29.23109647356019
 42
0.42914974343541
 10
143.174421916406
 20
-28.30076095742278
 42
0.3916311771493844
 10
142.1608012235615
 20
-27.35162870694947
 42
0.0
 10
140.5925102920406
 20
-27.35162870694947
 42
0.0
 10
140.5925102920406
 20
-27.44504662759669
 42
0.0
 10
140.7448851669359
 20
-27.4450466275967
 42
-0.4142135623729738
 10
141.0795904278641
 20
-27.77975188852508
 42
0.0
 97
       16
330
22A1
330
2220
330
2282
330
2281
330
2283
330
2257
330
2264
330
2262
330
2263
330
221F
330
2293
330
2294
330
2297
330
2296
330
2292
330
228F
 92
       22
 72
     1
 73
     1
 93
        3
 10
141.5531345321128
 20
-27.6030095824159
 42
-0.5287425889429431
 10
142.6045631849251
 20
-28.34086161754834
 42
-0.5439228899261254
 10
141.5531345321128
 20
-29.03059317287905
 42
0.0
 97
        3
330
22A2
330
2290
330
2291
 75
     0
 76
     1
 52
0.0
 41
0.0246144455128708
 77
     0
 78
     2
 53
45.0
 43
122.4993986022864
 44
-119.6452636134719
 45
-0.0021756301671622
 46
0.0021756301671622
 79
     0
 53
135.0
 43
122.4993986022864
 44
-119.6452636134719
 45
-0.0021756301671622
 46
-0.0021756301671622
 79
     0
 47
0.0273011583891531
 98
        2
 10
141.2768913304851
 20
-28.50086960269249
 10
141.2768913304851
 20
-28.50086960269249
  0
LINE
  5
221D
330
17
100
AcDbEntity
  8
BORDER
100
AcDbLine
 10
141.650373222596
 20
-32.72932391692379
 30
0.0
 11
140.807348969504
 21
-32.72932391692379
 31
0.0
  0
LINE
  5
221E
330
17
100
AcDbEntity
  8
BORDER
100
AcDbLine
 10
140.807348969504
 20
-31.42265541728986
 30
0.0
 11
141.650373222596
 21
-31.42265541728986
 31
0.0
  0
LINE
  5
221F
102
{ACAD_REACTORS
330
221C
102
}
330
17
100
AcDbEntity
  8
BORDER
100
AcDbLine
 10
140.5899936178408
 20
-30.75492189370007
 30
0.0
 11
142.042731342136
 21
-30.75492189370007
 31
0.0
  0
LINE
  5
2220
102
{ACAD_REACTORS
330
221C
102
}
330
17
100
AcDbEntity
  8
BORDER
100
AcDbLine
 10
140.5925102920406
 20
-27.35162870694947
 30
0.0
 11
142.1608012235942
 21
-27.35162870694947
 31
0.0
  0
LINE
  5
2221
330
17
100
AcDbEntity
  8
BORDER
100
AcDbLine
 10
134.8857646721561
 20
-26.94137007727807
 30
0.0
 11
143.0273055065976
 21
-26.94137007727875
 31
0.0
  0
LINE
  5
2222
330
17
100
AcDbEntity
  8
BORDER
100
AcDbLine
 10
126.6360355111546
 20
-23.25187325349492
 30
0.0
 11
144.1116720468782
 21
-23.25187325349492
 31
0.0
  0
LWPOLYLINE
  5
2223
330
17
100
AcDbEntity
  8
BORDER
 62
     5
100
AcDbPolyline
 90
        2
 70
     0
 43
0.7943471152601476
 10
126.6360355111546
 20
-21.66317902297469
 10
144.1116720468782
 20
-21.66317902297469
  0
LINE
  5
2224
330
17
100
AcDbEntity
  8
BORDER
100
AcDbLine
 10
127.4337321101054
 20
-31.00229584644902
 30
0.0
 11
143.4030457892538
 21
-31.00229584644902
 31
0.0
  0
LINE
  5
2225
330
17
100
AcDbEntity
  8
BORDER
100
AcDbLine
 10
127.4337321101054
 20
-31.00229584644902
 30
0.0
 11
143.4030457892538
 21
-31.00229584644902
 31
0.0
  0
LINE
  5
2226
330
17
100
AcDbEntity
  8
BORDER
100
AcDbLine
 10
126.6360355111546
 20
-34.37273286713708
 30
0.0
 11
145.7003662773979
 21
-34.37273286713708
 31
0.0
  0
LINE
  5
2227
330
17
100
AcDbEntity
  8
BORDER
100
AcDbLine
 10
139.9649066357217
 20
-31.42265541728986
 30
0.0
 11
139.9649066357217
 21
-32.72932391692379
 31
0.0
  0
LINE
  5
2228
330
17
100
AcDbEntity
  8
BORDER
100
AcDbLine
 10
140.807348969504
 20
-32.72932391692379
 30
0.0
 11
140.807348969504
 21
-31.42265541728986
 31
0.0
  0
LINE
  5
2229
330
17
100
AcDbEntity
  8
BORDER
100
AcDbLine
 10
139.1455642480086
 20
-32.72932391692379
 30
0.0
 11
138.6273425977715
 21
-31.42265541728986
 31
0.0
  0
LINE
  5
222A
330
17
100
AcDbEntity
  8
BORDER
100
AcDbLine
 10
137.2494895298753
 20
-32.0926463401492
 30
0.0
 11
137.7682368162705
 21
-32.72932391692379
 31
0.0
  0
LINE
  5
222B
330
17
100
AcDbEntity
  8
BORDER
100
AcDbLine
 10
138.6273425977715
 20
-31.42265541728986
 30
0.0
 11
138.1268689506359
 21
-32.72932391692379
 31
0.0
  0
LINE
  5
222C
330
17
100
AcDbEntity
  8
BORDER
100
AcDbLine
 10
136.8918416670309
 20
-31.42265541728986
 30
0.0
 11
136.8918416670309
 21
-32.72932391692379
 31
0.0
  0
SPLINE
  5
222D
330
17
100
AcDbEntity
  8
BORDER
100
AcDbSpline
210
0.0
220
0.0
230
1.0
 70
    11
 71
     3
 72
    24
 73
    20
 74
     0
 42
0.0000000001
 43
0.0000000001
 40
0.0
 40
0.0
 40
0.0
 40
0.0
 40
0.474866629778075
 40
0.474866629778075
 40
1.277791044886493
 40
1.277791044886493
 40
2.080715459994911
 40
2.080715459994911
 40
2.883639875103329
 40
2.883639875103329
 40
3.686564290211747
 40
3.686564290211747
 40
4.489488705320165
 40
4.489488705320165
 40
5.292413120428583
 40
5.292413120428583
 40
6.095337535537001
 40
6.095337535537001
 40
6.283185307179586
 40
6.283185307179586
 40
6.283185307179586
 40
6.283185307179586
 10
135.8622715516236
 20
-31.40493301652037
 30
0.0
 10
135.7563685879203
 20
-31.40493301652037
 30
0.0
 10
135.650554831429
 20
-31.43062155886274
 30
0.0
 10
135.3971307474141
 20
-31.56132069303302
 30
0.0
 10
135.2734945282601
 20
-31.71024553002385
 30
0.0
 10
135.1700793011179
 20
-32.05411990772613
 30
0.0
 10
135.1909878102354
 20
-32.24676554581029
 30
0.0
 10
135.3657601257372
 20
-32.5602665570233
 30
0.0
 10
135.5184592816242
 20
-32.67901653263157
 30
0.0
 10
135.8647349179046
 20
-32.7706642044664
 30
0.0
 10
136.055978652567
 20
-32.74293964493771
 30
0.0
 10
136.3622101682515
 20
-32.55671131065729
 30
0.0
 10
136.4751416069009
 20
-32.39946786744047
 30
0.0
 10
136.5542906564085
 20
-32.04917423722772
 30
0.0
 10
136.5199823499755
 20
-31.85846972457264
 30
0.0
 10
136.323745675185
 20
-31.55801529475585
 30
0.0
 10
136.1631262370694
 20
-31.45028509152954
 30
0.0
 10
135.9460568815678
 20
-31.40889183342424
 30
0.0
 10
135.9041646527482
 20
-31.40493301652037
 30
0.0
 10
135.8622715516236
 20
-31.40493301652037
 30
0.0
  0
LINE
  5
222E
330
17
100
AcDbEntity
  8
BORDER
100
AcDbLine
 10
133.3096139544406
 20
-32.0926463401492
 30
0.0
 11
133.8283612408358
 21
-32.72932391692379
 31
0.0
  0
LINE
  5
222F
330
17
100
AcDbEntity
  8
BORDER
100
AcDbLine
 10
134.3322974479298
 20
-31.42265541728986
 30
0.0
 11
134.3322974479298
 21
-32.72932391692379
 31
0.0
  0
LINE
  5
2230
330
17
100
AcDbEntity
  8
BORDER
100
AcDbLine
 10
132.9519660915954
 20
-31.42265541728986
 30
0.0
 11
132.9519660915954
 21
-32.72932391692379
 31
0.0
  0
SPLINE
  5
2231
330
17
100
AcDbEntity
  8
BORDER
100
AcDbSpline
210
0.0
220
0.0
230
1.0
 70
    11
 71
     3
 72
    24
 73
    20
 74
     0
 42
0.0000000001
 43
0.0000000001
 40
0.0
 40
0.0
 40
0.0
 40
0.0
 40
0.474866629778075
 40
0.474866629778075
 40
1.277791044886493
 40
1.277791044886493
 40
2.080715459994911
 40
2.080715459994911
 40
2.883639875103329
 40
2.883639875103329
 40
3.686564290211747
 40
3.686564290211747
 40
4.489488705320165
 40
4.489488705320165
 40
5.292413120428583
 40
5.292413120428583
 40
6.095337535537001
 40
6.095337535537001
 40
6.283185307179586
 40
6.283185307179586
 40
6.283185307179586
 40
6.283185307179586
 10
131.9743421875475
 20
-31.40493301652037
 30
0.0
 10
131.8684392238445
 20
-31.40493301652037
 30
0.0
 10
131.7626254673531
 20
-31.43062155886274
 30
0.0
 10
131.5092013833382
 20
-31.56132069303302
 30
0.0
 10
131.385565164184
 20
-31.71024553002385
 30
0.0
 10
131.2821499370418
 20
-32.05411990772613
 30
0.0
 10
131.3030584461593
 20
-32.24676554581029
 30
0.0
 10
131.4778307616613
 20
-32.5602665570233
 30
0.0
 10
131.6305299175484
 20
-32.67901653263157
 30
0.0
 10
131.9768055538288
 20
-32.7706642044664
 30
0.0
 10
132.1680492884912
 20
-32.74293964493771
 30
0.0
 10
132.4742808041757
 20
-32.55671131065729
 30
0.0
 10
132.5872122428252
 20
-32.39946786744047
 30
0.0
 10
132.6663612923322
 20
-32.04917423722772
 30
0.0
 10
132.6320529858993
 20
-31.85846972457264
 30
0.0
 10
132.4358163111089
 20
-31.55801529475585
 30
0.0
 10
132.2751968729937
 20
-31.45028509152954
 30
0.0
 10
132.058127517492
 20
-31.40889183342424
 30
0.0
 10
132.016235288672
 20
-31.40493301652037
 30
0.0
 10
131.9743421875475
 20
-31.40493301652037
 30
0.0
  0
LINE
  5
2232
330
17
100
AcDbEntity
  8
BORDER
100
AcDbLine
 10
129.7076737773648
 20
-31.42265541728986
 30
0.0
 11
129.7076737773648
 21
-32.72932391692379
 31
0.0
  0
LINE
  5
2233
330
17
100
AcDbEntity
  8
BORDER
100
AcDbLine
 10
128.7065019672637
 20
-31.42265541728986
 30
0.0
 11
128.7065019672637
 21
-32.72932391692379
 31
0.0
  0
LINE
  5
2234
330
17
100
AcDbEntity
  8
BORDER
100
AcDbLine
 10
129.7076737773648
 20
-32.72932391692379
 30
0.0
 11
128.7065019672637
 21
-31.42265541728986
 31
0.0
  0
ARC
  5
2235
330
17
100
AcDbEntity
  8
BORDER
100
AcDbCircle
 10
130.6108523611006
 20
-32.13094680918473
 30
0.0
 40
0.5992233560488982
100
AcDbArc
 50
174.7377828281791
 51
327.7239694467054
  0
LINE
  5
2236
330
17
100
AcDbEntity
  8
BORDER
100
AcDbLine
 10
128.1344040197081
 20
-31.42265541728986
 30
0.0
 11
128.1344040197081
 21
-32.72932391692379
 31
0.0
  0
LINE
  5
2237
330
17
100
AcDbEntity
  8
BORDER
100
AcDbLine
 10
125.0473412806341
 20
-32.78403863661671
 30
0.0
 11
125.0473412806341
 21
-24.84056748401525
 31
0.0
  0
LWPOLYLINE
  5
2238
330
17
100
AcDbEntity
  8
BORDER
 62
     5
100
AcDbPolyline
 90
        2
 70
     0
 43
0.7943471152601476
 10
123.4586470501143
 20
-24.84056748401528
 10
123.4586470501143
 20
-32.78403863661669
  0
ARC
  5
2239
330
17
100
AcDbEntity
  8
BORDER
100
AcDbCircle
 10
126.6360355111546
 20
-32.78403863661671
 30
0.0
 40
1.588694230520295
100
AcDbArc
 50
180.0
 51
270.0
  0
LWPOLYLINE
  5
223A
330
17
100
AcDbEntity
  8
BORDER
 62
     5
100
AcDbPolyline
 90
        2
 70
     0
 43
0.7943471152601476
 10
126.6360355111546
 20
-35.96142709765729
 42
-0.4142135623730951
 10
123.4586470501143
 20
-32.78403863661669
 42
0.5605269336342193
  0
LINE
  5
223B
330
17
100
AcDbEntity
  8
BORDER
100
AcDbLine
 10
127.8668437857238
 20
-32.72932391692379
 30
0.0
 11
128.4019642536921
 21
-32.72932391692379
 31
0.0
  0
LINE
  5
223C
330
17
100
AcDbEntity
  8
BORDER
100
AcDbLine
 10
138.3093539072068
 20
-32.25288056017016
 30
0.0
 11
138.9566079345668
 21
-32.25288056017016
 31
0.0
  0
ARC
  5
223D
330
17
100
AcDbEntity
  8
BORDER
100
AcDbCircle
 10
126.6360355111546
 20
-24.84056748401525
 30
0.0
 40
1.588694230520295
100
AcDbArc
 50
90.0
 51
180.0
  0
LWPOLYLINE
  5
223E
330
17
100
AcDbEntity
  8
BORDER
 62
     5
100
AcDbPolyline
 90
        2
 70
     0
 43
0.7943471152601476
 10
126.6360355111546
 20
-21.66317902297469
 42
0.4142135623730951
 10
123.4586470501143
 20
-24.84056748401528
 42
-0.5605269336342193
  0
LINE
  5
223F
102
{ACAD_REACTORS
330
2243
102
}
330
17
100
AcDbEntity
  8
BORDER
100
AcDbLine
 10
134.6681258107019
 20
-26.95548660466736
 30
0.0
 11
134.6681258107023
 21
-24.92592968119069
 31
0.0
  0
ARC
  5
2240
102
{ACAD_REACTORS
330
2243
102
}
330
17
100
AcDbEntity
  8
BORDER
100
AcDbCircle
 10
132.8805655847896
 20
-26.9576613216617
 30
0.0
 40
1.618303303844845
100
AcDbArc
 50
0.076995543788673
 51
90.0
  0
ARC
  5
2241
102
{ACAD_REACTORS
330
2243
102
}
330
17
100
AcDbEntity
  8
BORDER
100
AcDbCircle
 10
130.0518589073564
 20
-26.9576613216617
 30
0.0
 40
1.618303303844845
100
AcDbArc
 50
90.0
 51
179.9230044562113
  0
LINE
  5
2242
102
{ACAD_REACTORS
330
2243
102
}
330
17
100
AcDbEntity
  8
BORDER
100
AcDbLine
 10
128.2642986814438
 20
-26.95548660466736
 30
0.0
 11
128.2642986814438
 21
-24.92592968119069
 31
0.0
  0
HATCH
  5
2243
330
17
100
AcDbEntity
  8
BORDER
100
AcDbHatch
 10
0.0
 20
0.0
 30
0.0
210
0.0
220
0.0
230
1.0
  2
ANSI37
 70
     0
 71
     1
 91
        1
 92
        7
 72
     1
 73
     1
 93
       18
 10
130.7655427802702
 20
-29.80188748957846
 42
-0.4142135623730746
 10
129.9547075002747
 20
-30.61272276957391
 42
0.0
 10
129.6935810236307
 20
-30.61272276957391
 42
0.0
 10
129.6935810236307
 20
-30.78185251319724
 42
0.0
 10
133.2388434685154
 20
-30.78185251319724
 42
0.0
 10
133.2388434685154
 20
-30.61272276957391
 42
0.0
 10
132.9777169918709
 20
-30.61272276957391
 42
-0.4142135623730645
 10
132.1668817118755
 20
-29.80188748957841
 42
0.0
 10
132.1668817118755
 20
-25.33935801781669
 42
0.0
 10
132.8805655847896
 20
-25.33935801781669
 42
-0.4138200196737639
 10
134.4988674274139
 20
-26.95548660466736
 42
0.0
 10
134.6681258107019
 20
-26.95548660466736
 42
0.0
 10
134.6681258107023
 20
-24.92592968119069
 42
0.0
 10
128.2642986814437
 20
-24.92592968119069
 42
0.0
 10
128.2642986814438
 20
-26.95548660466736
 42
0.0
 10
128.4335570647322
 20
-26.95548660466736
 42
-0.4138200196737641
 10
130.0518589073564
 20
-25.33935801781669
 42
0.0
 10
130.7655427802702
 20
-25.33935801781669
 42
0.0
 97
       18
330
2254
330
2240
330
2271
330
223F
330
2284
330
2242
330
2253
330
2241
330
2252
330
2245
330
2247
330
2249
330
224A
330
2248
330
224C
330
2250
330
2251
330
2244
 75
     0
 76
     1
 52
0.0
 41
0.0246144455128708
 77
     0
 78
     2
 53
45.0
 43
122.4993986022864
 44
-119.6452636134719
 45
-0.0021756301671622
 46
0.0021756301671622
 79
     0
 53
135.0
 43
122.4993986022864
 44
-119.6452636134719
 45
-0.0021756301671622
 46
-0.0021756301671622
 79
     0
 47
0.0498619216032479
 98
        1
 10
131.2942382246636
 20
-27.65719259399919
  0
LINE
  5
2244
102
{ACAD_REACTORS
330
2243
102
}
330
17
100
AcDbEntity
  8
BORDER
100
AcDbLine
 10
132.1668817118755
 20
-29.80188748957846
 30
0.0
 11
132.1668817118755
 21
-25.33935801781669
 31
0.0
  0
LINE
  5
2245
102
{ACAD_REACTORS
330
2243
102
}
330
17
100
AcDbEntity
  8
BORDER
100
AcDbLine
 10
130.7655427802702
 20
-29.80188748957846
 30
0.0
 11
130.7655427802702
 21
-25.33935801781669
 31
0.0
  0
ARC
  5
2246
330
17
100
AcDbEntity
  8
BORDER
100
AcDbCircle
 10
130.6573000591561
 20
-32.06571701061733
 30
0.0
 40
0.6432275986706286
100
AcDbArc
 50
44.32122816352827
 51
180.9150802693823
  0
ARC
  5
2247
102
{ACAD_REACTORS
330
2243
102
}
330
17
100
AcDbEntity
  8
BORDER
100
AcDbCircle
 10
129.9547075002751
 20
-29.80188748957846
 30
0.0
 40
0.810835279995503
100
AcDbArc
 50
270.0
 51
0.000000000000007
  0
LINE
  5
2248
102
{ACAD_REACTORS
330
2243
102
}
330
17
100
AcDbEntity
  8
BORDER
100
AcDbLine
 10
129.6935810236307
 20
-30.78185251319724
 30
0.0
 11
133.2388434685154
 21
-30.78185251319724
 31
0.0
  0
LINE
  5
2249
102
{ACAD_REACTORS
330
2243
102
}
330
17
100
AcDbEntity
  8
BORDER
100
AcDbLine
 10
129.6935810236307
 20
-30.61272276957391
 30
0.0
 11
129.9547075002751
 21
-30.61272276957391
 31
0.0
  0
LINE
  5
224A
102
{ACAD_REACTORS
330
2243
102
}
330
17
100
AcDbEntity
  8
BORDER
100
AcDbLine
 10
129.6935810236307
 20
-30.61272276957391
 30
0.0
 11
129.6935810236307
 21
-30.78185251319724
 31
0.0
  0
LINE
  5
224B
330
17
100
AcDbEntity
  8
BORDER
100
AcDbLine
 10
127.8668437857238
 20
-31.42265541728986
 30
0.0
 11
128.4019642536921
 21
-31.42265541728986
 31
0.0
  0
LINE
  5
224C
102
{ACAD_REACTORS
330
2243
102
}
330
17
100
AcDbEntity
  8
BORDER
100
AcDbLine
 10
133.2388434685154
 20
-30.61272276957391
 30
0.0
 11
133.2388434685154
 21
-30.78185251319724
 31
0.0
  0
ARC
  5
224D
330
17
100
AcDbEntity
  8
BORDER
100
AcDbCircle
 10
133.4036869562644
 20
-31.75765087871952
 30
0.0
 40
0.3349954614296516
100
AcDbArc
 50
270.0
 51
90.0
  0
LINE
  5
224E
330
17
100
AcDbEntity
  8
BORDER
100
AcDbLine
 10
132.9519660915954
 20
-32.0926463401492
 30
0.0
 11
133.4036869562644
 21
-32.0926463401492
 31
0.0
  0
LINE
  5
224F
330
17
100
AcDbEntity
  8
BORDER
100
AcDbLine
 10
133.4036869562644
 20
-31.42265541728986
 30
0.0
 11
132.9519660915954
 21
-31.42265541728986
 31
0.0
  0
LINE
  5
2250
102
{ACAD_REACTORS
330
2243
102
}
330
17
100
AcDbEntity
  8
BORDER
100
AcDbLine
 10
133.2388434685154
 20
-30.61272276957391
 30
0.0
 11
132.9777169918709
 21
-30.61272276957391
 31
0.0
  0
ARC
  5
2251
102
{ACAD_REACTORS
330
2243
102
}
330
17
100
AcDbEntity
  8
BORDER
100
AcDbCircle
 10
132.9777169918709
 20
-29.80188748957846
 30
0.0
 40
0.810835279995503
100
AcDbArc
 50
180.0
 51
270.0
  0
LINE
  5
2252
102
{ACAD_REACTORS
330
2243
102
}
330
17
100
AcDbEntity
  8
BORDER
100
AcDbLine
 10
130.0518589073564
 20
-25.33935801781669
 30
0.0
 11
130.7655427802702
 21
-25.33935801781669
 31
0.0
  0
LINE
  5
2253
102
{ACAD_REACTORS
330
2243
102
}
330
17
100
AcDbEntity
  8
BORDER
100
AcDbLine
 10
128.2642986814438
 20
-26.95548660466736
 30
0.0
 11
128.4335556035117
 21
-26.95548660466736
 31
0.0
  0
LINE
  5
2254
102
{ACAD_REACTORS
330
2243
102
}
330
17
100
AcDbEntity
  8
BORDER
100
AcDbLine
 10
132.8805655847896
 20
-25.33935801781669
 30
0.0
 11
132.1668817118758
 21
-25.33935801781669
 31
0.0
  0
LWPOLYLINE
  5
2255
102
{ACAD_REACTORS
330
2258
102
}
330
17
100
AcDbEntity
  8
BORDER
100
AcDbPolyline
 90
        3
 70
     1
 43
0.0
 10
138.6955192934886
 20
-29.01770014591285
 42
0.5439228899217259
 10
139.7469479463007
 20
-28.32796859059202
 42
0.5287425889467256
 10
138.6955192934886
 20
-27.59011655545036
  0
LWPOLYLINE
  5
2256
102
{ACAD_REACTORS
330
2258
102
}
330
17
100
AcDbEntity
  8
BORDER
100
AcDbPolyline
 90
       17
 70
     0
 43
0.0
 10
139.281430194939
 20
-29.21820344659435
 42
-0.0609117558023489
 10
138.6955192934886
 20
-29.1460224593264
 10
138.6955192934886
 20
-30.31910195252851
 42
0.4142135623730951
 10
139.0302245544168
 20
-30.65380721345671
 10
139.1851161035118
 20
-30.65380721345671
 10
139.1851161035118
 20
-30.74202886673437
 10
137.7323783792163
 20
-30.74202886673437
 10
137.7323783792163
 20
-30.65380721345671
 10
137.8872699283112
 20
-30.65380721345671
 42
0.414213562373094
 10
138.2219751892395
 20
-30.31910195252851
 10
138.2219751892395
 20
-27.76685886155853
 42
0.4142135623730951
 10
137.8872699283112
 20
-27.43215360063033
 10
137.7348950534159
 20
-27.43215360063033
 10
137.7348950534159
 20
-27.33873567998377
 10
139.2908935757596
 20
-27.33873567998377
 42
-0.3951020987304223
 10
140.3168066777811
 20
-28.28786793045544
 42
-0.4291497434370914
 10
139.281430194939
 20
-29.21820344659435
  0
LINE
  5
2257
102
{ACAD_REACTORS
330
221C
102
}
330
17
100
AcDbEntity
  8
BORDER
100
AcDbLine
 10
141.0795904278641
 20
-30.33199497949488
 30
0.0
 11
141.0795904278641
 21
-27.77975188852491
 31
0.0
  0
HATCH
  5
2258
330
17
100
AcDbEntity
  8
BORDER
100
AcDbHatch
 10
0.0
 20
0.0
 30
0.0
210
0.0
220
0.0
230
1.0
  2
ANSI37
 70
     0
 71
     1
 91
        2
 92
        7
 72
     1
 73
     1
 93
       16
 10
138.2219751892395
 20
-30.31910195252847
 42
-0.4142135623731064
 10
137.8872699283112
 20
-30.65380721345671
 42
0.0
 10
137.7323783792163
 20
-30.65380721345671
 42
0.0
 10
137.7323783792163
 20
-30.74202886673437
 42
0.0
 10
139.1851161035118
 20
-30.74202886673437
 42
0.0
 10
139.1851161035118
 20
-30.6538072134567
 42
0.0
 10
139.0302245544168
 20
-30.65380721345671
 42
-0.4142135623731294
 10
138.6955192934886
 20
-30.31910195252853
 42
0.0
 10
138.6955192934886
 20
-29.1460224593264
 42
0.0609117558023548
 10
139.2814301949391
 20
-29.21820344659435
 42
0.4291497434370797
 10
140.3168066777812
 20
-28.28786793045545
 42
0.3916311771394871
 10
139.303185984971
 20
-27.33873567998377
 42
0.0
 10
137.7348950534159
 20
-27.33873567998376
 42
0.0
 10
137.7348950534159
 20
-27.43215360063033
 42
0.0
 10
137.8872699283112
 20
-27.43215360063033
 42
-0.4142135623731013
 10
138.2219751892395
 20
-27.76685886155857
 42
0.0
 97
        1
330
2256
 92
       22
 72
     1
 73
     1
 93
        3
 10
138.6955192934886
 20
-27.59011655545036
 42
-0.5287425889464063
 10
139.7469479463007
 20
-28.32796859059126
 42
-0.5439228899220563
 10
138.6955192934886
 20
-29.01770014591285
 42
0.0
 97
        1
330
2255
 75
     0
 76
     1
 52
0.0
 41
0.0246144455128708
 77
     0
 78
     2
 53
45.0
 43
122.4993986022864
 44
-119.6452636134719
 45
-0.0021756301671622
 46
0.0021756301671622
 79
     0
 53
135.0
 43
122.4993986022864
 44
-119.6452636134719
 45
-0.0021756301671622
 46
-0.0021756301671622
 79
     0
 47
0.0273011583891531
 98
        2
 10
138.4120330278042
 20
-28.20518852432152
 10
138.4120330278042
 20
-28.20518852432152
  0
ELLIPSE
  5
2259
102
{ACAD_REACTORS
330
225B
102
}
330
17
100
AcDbEntity
  8
BORDER
100
AcDbEllipse
 10
135.7896794977709
 20
-29.03831488715364
 30
0.0
 11
0.000000000000012
 21
1.592554790241038
 31
0.0
210
0.0
220
0.0
230
1.0
 40
0.6832138115042551
 41
0.0
 42
6.283185307179586
  0
ELLIPSE
  5
225A
102
{ACAD_REACTORS
330
225B
102
}
330
17
100
AcDbEntity
  8
BORDER
100
AcDbEllipse
 10
135.7896794977709
 20
-29.04842622119307
 30
0.0
 11
0.000000000000012
 21
1.774560980205257
 31
0.0
210
0.0
220
0.0
230
1.0
 40
0.9382197076720217
 41
0.0
 42
6.283185307179586
  0
HATCH
  5
225B
330
17
100
AcDbEntity
  8
BORDER
100
AcDbHatch
 10
0.0
 20
0.0
 30
0.0
210
0.0
220
0.0
230
1.0
  2
ANSI37
 70
     0
 71
     1
 91
        2
 92
        5
 93
        1
 72
     3
 10
135.7896794977709
 20
-29.04842622119307
 11
0.000000000000012
 21
1.774560980205257
 40
0.9382197076720217
 50
0.0
 51
360.0
 73
     1
 97
        1
330
225A
 92
       20
 93
        1
 72
     3
 10
135.7896794977709
 20
-29.03831488715364
 11
0.000000000000012
 21
1.592554790241038
 40
0.6832138115042551
 50
0.0
 51
360.0
 73
     1
 97
        1
330
2259
 75
     0
 76
     1
 52
0.0
 41
0.0246144455128708
 77
     0
 78
     2
 53
45.0
 43
122.4993986022864
 44
-119.6452636134719
 45
-0.0021756301671622
 46
0.0021756301671622
 79
     0
 53
135.0
 43
122.4993986022864
 44
-119.6452636134719
 45
-0.0021756301671622
 46
-0.0021756301671622
 79
     0
 47
0.0273011583891531
 98
        2
 10
134.5922227220698
 20
-28.32614905594823
 10
134.5922227220698
 20
-28.32614905594823
  0
ARC
  5
225C
330
17
100
AcDbEntity
  8
BORDER
100
AcDbCircle
 10
137.3435625316991
 20
-31.75765087871952
 30
0.0
 40
0.3349954614296516
100
AcDbArc
 50
270.0
 51
90.0
  0
ARC
  5
225D
330
17
100
AcDbEntity
  8
BORDER
100
AcDbCircle
 10
134.671436752199
 20
-31.75765087871952
 30
0.0
 40
0.3349954614296516
100
AcDbArc
 50
270.0
 51
90.0
  0
LINE
  5
225E
330
17
100
AcDbEntity
  8
BORDER
100
AcDbLine
 10
134.3322974479298
 20
-32.0926463401492
 30
0.0
 11
134.671436752199
 21
-32.0926463401492
 31
0.0
  0
LINE
  5
225F
330
17
100
AcDbEntity
  8
BORDER
100
AcDbLine
 10
134.671436752199
 20
-31.42265541728986
 30
0.0
 11
134.3322974479298
 21
-31.42265541728986
 31
0.0
  0
LINE
  5
2260
330
17
100
AcDbEntity
  8
BORDER
100
AcDbLine
 10
137.3435625316991
 20
-31.42265541728986
 30
0.0
 11
136.8918416670309
 21
-31.42265541728986
 31
0.0
  0
LINE
  5
2261
330
17
100
AcDbEntity
  8
BORDER
100
AcDbLine
 10
136.8918416670309
 20
-32.0926463401492
 30
0.0
 11
137.3435625316991
 21
-32.0926463401492
 31
0.0
  0
LINE
  5
2262
102
{ACAD_REACTORS
330
221C
102
}
330
17
100
AcDbEntity
  8
BORDER
100
AcDbLine
 10
140.5899936178408
 20
-30.66670024042304
 30
0.0
 11
140.7448851669359
 21
-30.66670024042304
 31
0.0
  0
LINE
  5
2263
102
{ACAD_REACTORS
330
221C
102
}
330
17
100
AcDbEntity
  8
BORDER
100
AcDbLine
 10
140.5899936178408
 20
-30.66670024042304
 30
0.0
 11
140.5899936178408
 21
-30.75492189370007
 31
0.0
  0
ARC
  5
2264
102
{ACAD_REACTORS
330
221C
102
}
330
17
100
AcDbEntity
  8
BORDER
100
AcDbCircle
 10
140.7448851669359
 20
-30.33199497949488
 30
0.0
 40
0.3347052609283763
100
AcDbArc
 50
270.0
 51
359.9999999999998
  0
LINE
  5
2265
330
17
100
AcDbEntity
  8
BORDER
100
AcDbLine
 10
139.4113015051162
 20
-31.42265541728986
 30
0.0
 11
140.518511766328
 21
-31.42265541728986
 31
0.0
  0
LINE
  5
2266
330
17
100
AcDbEntity
  8
BORDER
100
AcDbLine
 10
136.6020701808112
 20
-25.54815502981438
 30
0.0
 11
136.6020701808112
 21
-26.50197206049879
 31
0.0
  0
LINE
  5
2267
330
17
100
AcDbEntity
  8
BORDER
100
AcDbLine
 10
136.1967195352407
 20
-25.54815502981438
 30
0.0
 11
136.1967195352407
 21
-26.50197206049879
 31
0.0
  0
LINE
  5
2268
330
17
100
AcDbEntity
  8
BORDER
100
AcDbLine
 10
136.6020701808112
 20
-26.50197206049879
 30
0.0
 11
136.8051046665612
 21
-26.50197206049879
 31
0.0
  0
LINE
  5
2269
330
17
100
AcDbEntity
  8
BORDER
100
AcDbLine
 10
136.8051046665612
 20
-25.54815502981438
 30
0.0
 11
136.6020701808112
 21
-25.54815502981438
 31
0.0
  0
LINE
  5
226A
330
17
100
AcDbEntity
  8
BORDER
100
AcDbLine
 10
135.5429280849975
 20
-25.52821385630239
 30
0.0
 11
135.5429280849975
 21
-26.50197206049879
 31
0.0
  0
LINE
  5
226B
330
17
100
AcDbEntity
  8
BORDER
100
AcDbLine
 10
135.1114258885781
 20
-25.54815502981438
 30
0.0
 11
135.1114258885781
 21
-26.50197206049879
 31
0.0
  0
LINE
  5
226C
330
17
100
AcDbEntity
  8
BORDER
100
AcDbLine
 10
135.1114258885781
 20
-25.54815502981438
 30
0.0
 11
135.2582605093699
 21
-25.54815502981438
 31
0.0
  0
LINE
  5
226D
330
17
100
AcDbEntity
  8
BORDER
100
AcDbLine
 10
136.1967195352407
 20
-26.50197206049879
 30
0.0
 11
135.5429280849975
 21
-25.52821385630239
 31
0.0
  0
LINE
  5
226E
330
17
100
AcDbEntity
  8
BORDER
100
AcDbLine
 10
134.9645912677866
 20
-26.50197206049879
 30
0.0
 11
135.2582605093699
 21
-26.50197206049879
 31
0.0
  0
LINE
  5
226F
330
17
100
AcDbEntity
  8
BORDER
100
AcDbLine
 10
134.9645912677866
 20
-25.54815502981438
 30
0.0
 11
135.1114258885781
 21
-25.54815502981438
 31
0.0
  0
ARC
  5
2270
330
17
100
AcDbEntity
  8
BORDER
100
AcDbCircle
 10
136.8051046665612
 20
-26.02506354515657
 30
0.0
 40
0.4769085153422214
100
AcDbArc
 50
270.0
 51
90.0
  0
LINE
  5
2271
102
{ACAD_REACTORS
330
2243
102
}
330
17
100
AcDbEntity
  8
BORDER
100
AcDbLine
 10
134.6681258107019
 20
-26.95548660466736
 30
0.0
 11
134.4988688886343
 21
-26.95548660466736
 31
0.0
  0
LINE
  5
2272
330
17
100
AcDbEntity
  8
BORDER
100
AcDbLine
 10
140.2847532392791
 20
-26.02965972788843
 30
0.0
 11
140.6316949493969
 21
-26.02965972788843
 31
0.0
  0
LINE
  5
2273
330
17
100
AcDbEntity
  8
BORDER
100
AcDbLine
 10
140.6316949493969
 20
-25.54815502981438
 30
0.0
 11
140.2847532392791
 21
-25.54815502981438
 31
0.0
  0
LINE
  5
2274
330
17
100
AcDbEntity
  8
BORDER
100
AcDbLine
 10
140.2847532392791
 20
-25.54815502981438
 30
0.0
 11
140.2847532392791
 21
-26.50197206049879
 31
0.0
  0
LINE
  5
2275
330
17
100
AcDbEntity
  8
BORDER
100
AcDbLine
 10
140.565189396449
 20
-26.02965972788843
 30
0.0
 11
140.8676971967488
 21
-26.50197206049879
 31
0.0
  0
ARC
  5
2276
330
17
100
AcDbEntity
  8
BORDER
100
AcDbCircle
 10
140.6316949493969
 20
-25.78890737885175
 30
0.0
 40
0.2407523490366971
100
AcDbArc
 50
270.0
 51
90.0
  0
LINE
  5
2277
330
17
100
AcDbEntity
  8
BORDER
100
AcDbLine
 10
139.6904371710899
 20
-25.54815502981438
 30
0.0
 11
139.6904371710899
 21
-26.50197206049879
 31
0.0
  0
ARC
  5
2278
330
17
100
AcDbEntity
  8
BORDER
100
AcDbCircle
 10
138.6860781154356
 20
-25.75149404205078
 30
0.0
 40
0.1346902458463807
100
AcDbArc
 50
140.1014259174929
 51
236.3830677838187
  0
ARC
  5
2279
330
17
100
AcDbEntity
  8
BORDER
100
AcDbCircle
 10
138.8191756765578
 20
-25.84295283510801
 30
0.0
 40
0.2958557425476551
100
AcDbArc
 50
25.37963847194806
 51
143.0478041485658
  0
ARC
  5
227A
330
17
100
AcDbEntity
  8
BORDER
100
AcDbCircle
 10
138.8575724968099
 20
-26.19950628928754
 30
0.0
 40
0.3019893738672556
100
AcDbArc
 50
200.5024473003932
 51
334.026212615645
  0
ARC
  5
227B
330
17
100
AcDbEntity
  8
BORDER
100
AcDbCircle
 10
143.0260167098257
 20
-19.22354750237576
 30
0.0
 40
7.973641261634938
100
AcDbArc
 50
236.3830677838153
 51
240.3152227652008
  0
ARC
  5
227C
330
17
100
AcDbEntity
  8
BORDER
100
AcDbCircle
 10
139.0105449963233
 20
-26.26776688803352
 30
0.0
 40
0.1346902458463603
100
AcDbArc
 50
331.6306081082404
 51
60.31522276516831
  0
ARC
  5
227D
330
17
100
AcDbEntity
  8
BORDER
100
AcDbCircle
 10
137.9423427877612
 20
-26.18161422308913
 30
0.0
 40
0.3203578374092836
100
AcDbArc
 50
180.0
 51
0.0
  0
LINE
  5
227E
330
17
100
AcDbEntity
  8
BORDER
100
AcDbLine
 10
137.6219849503516
 20
-26.18161422308913
 30
0.0
 11
137.6219849503516
 21
-25.54815502981438
 31
0.0
  0
LINE
  5
227F
330
17
100
AcDbEntity
  8
BORDER
100
AcDbLine
 10
138.2627006251704
 20
-25.54815502981438
 30
0.0
 11
138.2627006251704
 21
-26.18161422308913
 31
0.0
  0
LINE
  5
2280
330
17
100
AcDbEntity
  8
BORDER
100
AcDbLine
 10
139.2985796927267
 20
-25.54815502981438
 30
0.0
 11
140.0822946494541
 21
-25.54815502981438
 31
0.0
  0
LINE
  5
2281
102
{ACAD_REACTORS
330
221C
102
}
330
17
100
AcDbEntity
  8
BORDER
100
AcDbLine
 10
140.5925102920406
 20
-27.4450466275967
 30
0.0
 11
140.7448851669359
 21
-27.4450466275967
 31
0.0
  0
LINE
  5
2282
102
{ACAD_REACTORS
330
221C
102
}
330
17
100
AcDbEntity
  8
BORDER
100
AcDbLine
 10
140.5925102920406
 20
-27.35162870694947
 30
0.0
 11
140.5925102920406
 21
-27.4450466275967
 31
0.0
  0
ARC
  5
2283
102
{ACAD_REACTORS
330
221C
102
}
330
17
100
AcDbEntity
  8
BORDER
100
AcDbCircle
 10
140.7448851669359
 20
-27.77975188852491
 30
0.0
 40
0.3347052609283763
100
AcDbArc
 50
0.000000000000007
 51
90.0
  0
LINE
  5
2284
102
{ACAD_REACTORS
330
2243
102
}
330
17
100
AcDbEntity
  8
BORDER
100
AcDbLine
 10
128.2642986814438
 20
-24.92592968119069
 30
0.0
 11
134.6681258107023
 21
-24.92592968119069
 31
0.0
  0
ARC
  5
2285
330
17
100
AcDbEntity
  8
BORDER
100
AcDbCircle
 10
142.5076816741451
 20
-32.07598966710719
 30
0.0
 40
0.6533342498166194
100
AcDbArc
 50
270.0
 51
90.0
  0
LINE
  5
2286
330
17
100
AcDbEntity
  8
BORDER
100
AcDbLine
 10
142.0145255735253
 20
-31.42265541728986
 30
0.0
 11
142.0145255735253
 21
-32.72932391692379
 31
0.0
  0
LINE
  5
2287
330
17
100
AcDbEntity
  8
BORDER
100
AcDbLine
 10
150.4664489689587
 20
-34.37273286713708
 30
0.0
 11
150.4664489689587
 21
-30.74789344942388
 31
0.0
  0
LWPOLYLINE
  5
2288
330
17
100
AcDbEntity
  8
BORDER
 62
     5
100
AcDbPolyline
 90
        2
 70
     0
 43
0.7943471152601476
 10
148.8777547384389
 20
-24.84056748401528
 10
148.8777547384389
 20
-34.37273286713704
  0
LWPOLYLINE
  5
2289
330
17
100
AcDbEntity
  8
BORDER
 62
     5
100
AcDbPolyline
 90
        2
 70
     0
 43
0.7943471152601476
 10
147.2890605079185
 20
-34.37273286713704
 10
147.2890605079185
 20
-24.84056748401528
  0
LINE
  5
228A
330
17
100
AcDbEntity
  8
BORDER
100
AcDbLine
 10
145.7003662773979
 20
-34.37273286713708
 30
0.0
 11
145.7003662773979
 21
-24.84056748401525
 31
0.0
  0
LINE
  5
228B
330
17
100
AcDbEntity
  8
BORDER
100
AcDbLine
 10
142.0145255735253
 20
-32.72932391692379
 30
0.0
 11
142.5076816741451
 21
-32.72932391692379
 31
0.0
  0
TEXT
  5
228C
330
17
100
AcDbEntity
  8
BORDER
 62
     6
100
AcDbText
 10
157.0536931805334
 20
-32.89025526518981
 30
0.0
 40
0.6058877648963242
  1
Rochester, IN  46975
  7
ROMANC
100
AcDbText
  0
TEXT
  5
228D
330
17
100
AcDbEntity
  8
BORDER
 62
     6
100
AcDbText
 10
150.6966463737836
 20
-27.97917103233507
 30
0.0
 40
0.712809135172146
  1
Reference:
  7
ROMANC
100
AcDbText
  0
LINE
  5
228E
330
17
100
AcDbEntity
  8
BORDER
100
AcDbLine
 10
150.4664489689587
 20
-29.60665017557611
 30
0.0
 11
150.4664489689587
 21
-24.84056748401525
 31
0.0
  0
ARC
  5
228F
102
{ACAD_REACTORS
330
221C
102
}
330
17
100
AcDbEntity
  8
BORDER
100
AcDbCircle
 10
142.2145825967343
 20
-28.27385588763153
 30
0.0
 40
0.9602163310256283
100
AcDbArc
 50
265.4880615013157
 51
358.3943735575726
  0
ARC
  5
2290
102
{ACAD_REACTORS
330
221C
102
}
330
17
100
AcDbEntity
  8
BORDER
100
AcDbCircle
 10
141.8556218955526
 20
-28.34543960769813
 30
0.0
 40
0.7489552809887009
100
AcDbArc
 50
246.1790969548498
 51
0.3502227085135899
  0
LINE
  5
2291
102
{ACAD_REACTORS
330
221C
102
}
330
17
100
AcDbEntity
  8
BORDER
100
AcDbLine
 10
141.5531345321128
 20
-27.60300958241606
 30
0.0
 11
141.5531345321128
 21
-29.03059317287853
 31
0.0
  0
ARC
  5
2292
102
{ACAD_REACTORS
330
221C
102
}
330
17
100
AcDbEntity
  8
BORDER
100
AcDbCircle
 10
142.141243099796
 20
-26.79917523046999
 30
0.0
 40
2.431922236077927
100
AcDbArc
 50
256.0055037277954
 51
269.948223255173
  0
LINE
  5
2293
102
{ACAD_REACTORS
330
221C
102
}
330
17
100
AcDbEntity
  8
BORDER
100
AcDbLine
 10
142.042731342136
 20
-30.66670024042304
 30
0.0
 11
142.042731342136
 21
-30.75492189370007
 31
0.0
  0
LINE
  5
2294
102
{ACAD_REACTORS
330
221C
102
}
330
17
100
AcDbEntity
  8
BORDER
100
AcDbLine
 10
141.8878397930417
 20
-30.66670024042304
 30
0.0
 11
142.042731342136
 21
-30.66670024042304
 31
0.0
  0
LINE
  5
2295
330
17
100
AcDbEntity
  8
BORDER
100
AcDbLine
 10
142.5076816741451
 20
-31.42265541728986
 30
0.0
 11
142.0145255735253
 21
-31.42265541728986
 31
0.0
  0
LINE
  5
2296
102
{ACAD_REACTORS
330
221C
102
}
330
17
100
AcDbEntity
  8
BORDER
100
AcDbLine
 10
141.5531345321128
 20
-29.1589154862921
 30
0.0
 11
141.5531345321128
 21
-30.33199497949488
 31
0.0
  0
ARC
  5
2297
102
{ACAD_REACTORS
330
221C
102
}
330
17
100
AcDbEntity
  8
BORDER
100
AcDbCircle
 10
141.8878397930417
 20
-30.33199497949488
 30
0.0
 40
0.3347052609283763
100
AcDbArc
 50
180.0
 51
270.0
  0
ARC
  5
2298
330
17
100
AcDbEntity
  8
BORDER
100
AcDbCircle
 10
142.8250919589199
 20
-26.19950628928754
 30
0.0
 40
0.3019893738675575
100
AcDbArc
 50
200.5024473003932
 51
334.026212615673
  0
ARC
  5
2299
330
17
100
AcDbEntity
  8
BORDER
100
AcDbCircle
 10
142.7866951386679
 20
-25.84295283510801
 30
0.0
 40
0.2958557425479585
100
AcDbArc
 50
25.37963847192018
 51
143.0478041485267
  0
ARC
  5
229A
330
17
100
AcDbEntity
  8
BORDER
100
AcDbCircle
 10
146.9935361719358
 20
-19.22354750238116
 30
0.0
 40
7.973641261630278
100
AcDbArc
 50
236.3830677837959
 51
240.3152227651818
  0
ARC
  5
229B
330
17
100
AcDbEntity
  8
BORDER
100
AcDbCircle
 10
142.6535975775461
 20
-25.75149404205078
 30
0.0
 40
0.1346902458463807
100
AcDbArc
 50
140.1014259174929
 51
236.3830677838187
  0
ARC
  5
229C
330
17
100
AcDbEntity
  8
BORDER
100
AcDbCircle
 10
142.9780644584335
 20
-26.26776688803352
 30
0.0
 40
0.1346902458463603
100
AcDbArc
 50
331.6306081083082
 51
60.31522276516831
  0
LINE
  5
229D
330
17
100
AcDbEntity
  8
BORDER
100
AcDbLine
 10
141.7546431403847
 20
-26.02506354515657
 30
0.0
 11
142.2035964925805
 21
-26.02506354515657
 31
0.0
  0
LINE
  5
229E
330
17
100
AcDbEntity
  8
BORDER
100
AcDbLine
 10
141.7546431403847
 20
-26.50197206049879
 30
0.0
 11
141.7546431403847
 21
-25.54815502981438
 31
0.0
  0
LINE
  5
229F
330
17
100
AcDbEntity
  8
BORDER
100
AcDbLine
 10
142.3287856296314
 20
-26.50197206049879
 30
0.0
 11
141.7546431403847
 21
-26.50197206049879
 31
0.0
  0
LINE
  5
22A0
330
17
100
AcDbEntity
  8
BORDER
100
AcDbLine
 10
141.7546431403847
 20
-25.54815502981438
 30
0.0
 11
142.3287856296314
 21
-25.54815502981438
 31
0.0
  0
ARC
  5
22A1
102
{ACAD_REACTORS
330
221C
102
}
330
17
100
AcDbEntity
  8
BORDER
100
AcDbCircle
 10
142.1546550189898
 20
-28.37400402775222
 30
0.0
 40
1.022393795177363
100
AcDbArc
 50
4.108120226098942
 51
90.34444037776943
  0
ARC
  5
22A2
102
{ACAD_REACTORS
330
221C
102
}
330
17
100
AcDbEntity
  8
BORDER
100
AcDbCircle
 10
141.8275112070413
 20
-28.33008817761481
 30
0.0
 40
0.7771266584934598
100
AcDbArc
 50
359.205673352549
 51
110.6749347781742
  0
LINE
  5
22A3
330
17
100
AcDbEntity
  8
BORDER
100
AcDbLine
 10
141.3125818427406
 20
-25.54815502981438
 30
0.0
 11
141.3125818427406
 21
-26.50197206049879
 31
0.0
  0
LWPOLYLINE
  5
22A4
330
17
100
AcDbEntity
  8
BORDER
 62
     5
100
AcDbPolyline
 90
        2
 70
     0
 43
0.7943471152601476
 10
152.0551431994793
 20
-21.66317902297469
 42
0.4142135623730951
 10
148.8777547384389
 20
-24.84056748401528
 42
-0.5605269336342193
  0
LWPOLYLINE
  5
22A5
330
17
100
AcDbEntity
  8
BORDER
 62
     5
100
AcDbPolyline
 90
        2
 70
     0
 43
0.7943471152601476
 10
144.1116720468782
 20
-21.66317902297469
 42
-0.4142135623730951
 10
147.2890605079185
 20
-24.84056748401528
 42
0.5605269336342193
  0
ARC
  5
22A6
330
17
100
AcDbEntity
  8
BORDER
100
AcDbCircle
 10
144.1116720468782
 20
-24.84056748401525
 30
0.0
 40
1.588694230520295
100
AcDbArc
 50
0.0
 51
90.0
  0
ARC
  5
22A7
330
17
100
AcDbEntity
  8
BORDER
100
AcDbCircle
 10
152.0551431994793
 20
-24.84056748401525
 30
0.0
 40
1.588694230520295
100
AcDbArc
 50
90.0
 51
180.0
  0
TEXT
  5
22A8
330
17
100
AcDbEntity
  8
BORDER
 62
     6
100
AcDbText
 10
161.9524324397612
 20
-28.48454101908087
 30
0.0
 40
0.712809135172146
  1
-
  7
ROMANC
100
AcDbText
  0
TEXT
  5
22E3
330
17
100
AcDbEntity
  8
BORDER
 62
     6
100
AcDbText
 10
222.5248399264183
 20
-25.37556556435897
 30
0.0
 40
1.069213702758218
  1
Revisions
  7
ROMANC
100
AcDbText
  0
LWPOLYLINE
  5
22E4
330
17
100
AcDbEntity
  8
BORDER
 62
     5
100
AcDbPolyline
 90
        2
 70
     0
 43
0.7943471152601476
 10
235.4998318344191
 20
-21.66317902297469
 10
218.0241952986956
 20
-21.66317902297469
  0
LINE
  5
22E5
330
17
100
AcDbEntity
  8
BORDER
100
AcDbLine
 10
235.4998318344191
 20
-23.25187325349492
 30
0.0
 11
218.0241952986956
 21
-23.25187325349492
 31
0.0
  0
LINE
  5
22E6
330
17
100
AcDbEntity
  8
BORDER
100
AcDbLine
 10
235.4998318344191
 20
-26.08708197910414
 30
0.0
 11
218.0241952986956
 21
-26.08708197910414
 31
0.0
  0
LINE
  5
22E7
330
17
100
AcDbEntity
  8
BORDER
100
AcDbLine
 10
235.4998318344191
 20
-27.67577620962433
 30
0.0
 11
218.0241952986956
 21
-27.67577620962433
 31
0.0
  0
LINE
  5
22E8
330
17
100
AcDbEntity
  8
BORDER
100
AcDbLine
 10
235.4998318344191
 20
-29.26447044014469
 30
0.0
 11
218.0241952986956
 21
-29.26447044014469
 31
0.0
  0
LINE
  5
22E9
330
17
100
AcDbEntity
  8
BORDER
100
AcDbLine
 10
235.4998318344191
 20
-30.85316467066497
 30
0.0
 11
218.0241952986956
 21
-30.85316467066497
 31
0.0
  0
LINE
  5
22EA
330
17
100
AcDbEntity
  8
BORDER
100
AcDbLine
 10
235.4998318344191
 20
-32.44185890118527
 30
0.0
 11
218.0241952986956
 21
-32.44185890118527
 31
0.0
  0
TEXT
  5
22EB
330
17
100
AcDbEntity
  8
BORDER
 62
     6
100
AcDbText
 10
219.7494046696184
 20
-27.2772478831348
 30
0.0
 40
0.7943471152601476
  1
First Released 06/27/03
  7
ROMAND
100
AcDbText
  0
LINE
  5
22EC
330
17
100
AcDbEntity
  8
BORDER
100
AcDbLine
 10
235.4998318344191
 20
-34.37273286713708
 30
0.0
 11
216.435501068175
 21
-34.37273286713708
 31
0.0
  0
LINE
  5
22ED
330
17
100
AcDbEntity
  8
BORDER
100
AcDbLine
 10
174.6820001179752
 20
-23.25187325349492
 30
0.0
 11
210.0807241460944
 21
-23.25187325349492
 31
0.0
  0
LINE
  5
22EE
330
17
100
AcDbEntity
  8
BORDER
100
AcDbLine
 10
193.7463308842185
 20
-30.74789344942388
 30
0.0
 11
211.6694183766142
 21
-30.74789344942388
 31
0.0
  0
LINE
  5
22EF
330
17
100
AcDbEntity
  8
BORDER
100
AcDbLine
 10
193.7463308842185
 20
-34.37273286713708
 30
0.0
 11
211.6694183766142
 21
-34.37273286713708
 31
0.0
  0
LINE
  5
22F0
330
17
100
AcDbEntity
  8
BORDER
100
AcDbLine
 10
174.6820001179752
 20
-29.60665017557611
 30
0.0
 11
211.6694183766142
 21
-29.60665017557611
 31
0.0
  0
TEXT
  5
22F1
330
17
100
AcDbEntity
  8
BORDER
 62
     6
100
AcDbText
 10
186.6709227066496
 20
-24.34375379551852
 30
0.0
 40
0.5962861517446304
  1
This print is and contains confidential proprietary information owned exclusively
 41
0.656933865547725
  7
ROMANS
 72
     5
 11
211.2373982429582
 21
-24.34375379551852
 31
0.0
100
AcDbText
  0
TEXT
  5
22F2
330
17
100
AcDbEntity
  8
BORDER
 62
     6
100
AcDbText
 10
186.6709227066496
 20
-25.30916946977177
 30
0.0
 40
0.5962861517446304
  1
by TOPP INDUSTRIES, INC. It is furnished on a strictly confidential basis.  This
 41
0.6594374244865509
  7
ROMANS
 72
     5
 11
211.2373982429582
 21
-25.30916946977177
 31
0.0
100
AcDbText
  0
TEXT
  5
22F3
330
17
100
AcDbEntity
  8
BORDER
 62
     6
100
AcDbText
 10
186.6709227066496
 20
-26.27458514402497
 30
0.0
 40
0.5962861517446304
  1
restriction includes, but is not limited to the condition that this print will not only
 41
0.6264894286215482
  7
ROMANS
 72
     5
 11
211.2373982429582
 21
-26.27458514402497
 31
0.0
100
AcDbText
  0
TEXT
  5
22F4
330
17
100
AcDbEntity
  8
BORDER
 62
     6
100
AcDbText
 10
186.6709227066496
 20
-27.24000081827814
 30
0.0
 40
0.5962861517446304
  1
be used as a record or to identify or inspect parts or for other information purposes
 41
0.5962659551525535
  7
ROMANS
 72
     5
 11
211.2373982429582
 21
-27.24000081827814
 31
0.0
100
AcDbText
  0
TEXT
  5
22F5
330
17
100
AcDbEntity
  8
BORDER
 62
     6
100
AcDbText
 10
186.6709227066496
 20
-28.20541649253141
 30
0.0
 40
0.5962861517446304
  1
and will not be used to manufacture or procure the manufacture of the items shown
 41
0.6004038174367478
  7
ROMANS
 72
     5
 11
211.2373982429582
 21
-28.20541649253141
 31
0.0
100
AcDbText
  0
TEXT
  5
22F6
330
17
100
AcDbEntity
  8
BORDER
 62
     6
100
AcDbText
 10
186.6709227066496
 20
-29.17083216678461
 30
0.0
 40
0.5962861517446304
  1
in this print by any other source than TOPP INDUSTRIES, INC.
 41
0.8391677021594116
  7
ROMANS
 72
     5
 11
211.2373982429582
 21
-29.17083216678461
 31
0.0
100
AcDbText
  0
LINE
  5
22F7
330
17
100
AcDbEntity
  8
BORDER
100
AcDbLine
 10
193.7463308842185
 20
-30.74789344942388
 30
0.0
 11
193.7463308842185
 21
-34.37273286713708
 31
0.0
  0
LINE
  5
22F8
330
17
100
AcDbEntity
  8
BORDER
100
AcDbLine
 10
192.6050876103708
 20
-30.74789344942388
 30
0.0
 11
192.6050876103708
 21
-34.37273286713708
 31
0.0
  0
LINE
  5
22F9
330
17
100
AcDbEntity
  8
BORDER
100
AcDbLine
 10
174.6820001179752
 20
-34.37273286713708
 30
0.0
 11
174.6820001179752
 21
-30.74789344942388
 31
0.0
  0
TEXT
  5
22FA
330
17
100
AcDbEntity
  8
BORDER
 62
     6
100
AcDbText
 10
175.0482570179561
 20
-31.98821735271181
 30
0.0
 40
0.712809135172146
  1
Supersedes Prints
  7
ROMANC
100
AcDbText
  0
TEXT
  5
22FB
330
17
100
AcDbEntity
  8
BORDER
 62
     6
100
AcDbText
 10
182.7140597463732
 20
-33.73443430593605
 30
0.0
 40
0.9134991825491697
  1
06/02/04
  7
ROMAND
100
AcDbText
  0
LINE
  5
22FC
330
17
100
AcDbEntity
  8
BORDER
100
AcDbLine
 10
174.6820001179752
 20
-34.37273286713708
 30
0.0
 11
192.6050876103708
 21
-34.37273286713708
 31
0.0
  0
TEXT
  5
22FD
330
17
100
AcDbEntity
  8
BORDER
 62
     6
100
AcDbText
 10
175.0482570179561
 20
-33.14228928584771
 30
0.0
 40
0.712809135172146
  1
Prior To:
  7
ROMANC
100
AcDbText
  0
TEXT
  5
22FE
330
17
100
AcDbEntity
  8
BORDER
 62
     6
100
AcDbText
 10
194.1214675126297
 20
-33.0633006856875
 30
0.0
 40
0.712809135172146
  1
No:
  7
ROMANC
100
AcDbText
  0
LINE
  5
22FF
330
17
100
AcDbEntity
  8
BORDER
100
AcDbLine
 10
174.6820001179752
 20
-30.74789344942388
 30
0.0
 11
192.6050876103708
 21
-30.74789344942388
 31
0.0
  0
TEXT
  5
2300
330
17
100
AcDbEntity
  8
BORDER
 62
     6
100
AcDbText
 10
181.5492418344548
 20
-26.07775880680532
 30
0.0
 40
0.9722066859926316
  1
JC
  7
COUNTRYBLUEPRINT
100
AcDbText
  0
LINE
  5
2301
330
17
100
AcDbEntity
  8
BORDER
100
AcDbLine
 10
174.6820001179752
 20
-29.60665017557611
 30
0.0
 11
174.6820001179752
 21
-23.25187325349492
 31
0.0
  0
TEXT
  5
2302
330
17
100
AcDbEntity
  8
BORDER
 62
     6
100
AcDbText
 10
175.0076238939729
 20
-26.00184504060741
 30
0.0
 40
0.712809135172146
  1
Drawn By:
  7
ROMANC
100
AcDbText
  0
TEXT
  5
2303
330
17
100
AcDbEntity
  8
BORDER
 62
     6
100
AcDbText
 10
175.0076238939729
 20
-29.39861854036306
 30
0.0
 40
0.712809135172146
  1

  7
ROMANC
100
AcDbText
  0
TEXT
  5
2304
330
17
100
AcDbEntity
  8
BORDER
 62
     6
100
AcDbText
 10
175.0076238939729
 20
-27.70023179048517
 30
0.0
 40
0.712809135172146
  1
Appv'd By: .
  7
ROMANC
100
AcDbText
  0
TEXT
  5
2305
330
17
100
AcDbEntity
  8
BORDER
 62
     6
100
AcDbText
 10
175.0076238939729
 20
-24.30345829072957
 30
0.0
 40
0.712809135172146
  1
Scale: None
  7
ROMANC
100
AcDbText
  0
TEXT
  5
2306
330
17
100
AcDbEntity
  8
BORDER
 62
     6
100
AcDbText
 10
194.1214675126297
 20
-31.90922875255171
 30
0.0
 40
0.712809135172146
  1
Reference
  7
ROMANC
100
AcDbText
  0
LINE
  5
2307
330
17
100
AcDbEntity
  8
BORDER
100
AcDbLine
 10
219.6128895292161
 20
-26.08708197910414
 30
0.0
 11
219.6128895292161
 21
-32.44185890118527
 31
0.0
  0
LINE
  5
2308
330
17
100
AcDbEntity
  8
BORDER
100
AcDbLine
 10
218.0241952986956
 20
-26.08708197910414
 30
0.0
 11
218.0241952986956
 21
-32.44185890118527
 31
0.0
  0
LWPOLYLINE
  5
2309
330
17
100
AcDbEntity
  8
BORDER
 62
     5
100
AcDbPolyline
 90
        2
 70
     0
 43
0.7943471152601476
 10
213.2581126071346
 20
-34.37273286713704
 10
213.2581126071346
 20
-24.84056748401528
  0
LWPOLYLINE
  5
230A
330
17
100
AcDbEntity
  8
BORDER
 62
     5
100
AcDbPolyline
 90
        2
 70
     0
 43
0.7943471152601476
 10
214.8468068376553
 20
-34.37273286713704
 10
214.8468068376553
 20
-24.84056748401528
  0
LINE
  5
230B
330
17
100
AcDbEntity
  8
BORDER
100
AcDbLine
 10
216.435501068175
 20
-34.37273286713708
 30
0.0
 11
216.435501068175
 21
-24.84056748401525
 31
0.0
  0
LINE
  5
230C
330
17
100
AcDbEntity
  8
BORDER
100
AcDbLine
 10
211.6694183766142
 20
-30.74789344942388
 30
0.0
 11
211.6694183766142
 21
-34.37273286713708
 31
0.0
  0
LWPOLYLINE
  5
230E
330
17
100
AcDbEntity
  8
BORDER
 62
     5
100
AcDbPolyline
 90
        2
 70
     0
 43
0.7943471152601476
 10
218.0241952986956
 20
-21.66317902297469
 42
0.4142135623730951
 10
214.8468068376553
 20
-24.84056748401528
 42
-0.5605269336342193
  0
LINE
  5
230F
330
17
100
AcDbEntity
  8
BORDER
100
AcDbLine
 10
211.6694183766142
 20
-24.84056748401525
 30
0.0
 11
211.6694183766142
 21
-29.60665017557611
 31
0.0
  0
LWPOLYLINE
  5
2310
330
17
100
AcDbEntity
  8
BORDER
 62
     5
100
AcDbPolyline
 90
        2
 70
     0
 43
0.7943471152601476
 10
210.0807241460944
 20
-21.66317902297469
 42
-0.4142135623730951
 10
213.2581126071346
 20
-24.84056748401528
 42
0.5605269336342193
  0
ARC
  5
2311
330
17
100
AcDbEntity
  8
BORDER
100
AcDbCircle
 10
210.0807241460944
 20
-24.84056748401525
 30
0.0
 40
1.588694230520295
100
AcDbArc
 50
0.0
 51
90.0
  0
LWPOLYLINE
  5
2312
330
17
100
AcDbEntity
  8
BORDER
100
AcDbPolyline
 90
        6
 70
     1
 43
0.0
 10
219.1567724426136
 20
-27.47051713821742
 10
219.4952444505887
 20
-26.88426642346434
 10
219.1567724426136
 20
-26.29801570871126
 10
218.4798284266626
 20
-26.29801570871126
 10
218.1413564186875
 20
-26.88426642346434
 10
218.4798284266626
 20
-27.47051713821742
  0
TEXT
  5
2313
330
17
100
AcDbEntity
  8
BORDER
 62
     6
100
AcDbText
 10
218.4410462064434
 20
-27.2772478831348
 30
0.0
 40
0.7943471152601476
  1
1
  7
ROMAND
100
AcDbText
  0
ARC
  5
2314
330
17
100
AcDbEntity
  8
BORDER
100
AcDbCircle
 10
218.0241952986956
 20
-24.84056748401525
 30
0.0
 40
1.588694230520295
100
AcDbArc
 50
90.0
 51
180.0
  0
LINE
  5
2315
330
17
100
AcDbEntity
  8
BORDER
100
AcDbLine
 10
237.0885260649388
 20
-32.78403863661671
 30
0.0
 11
237.0885260649388
 21
-24.84056748401525
 31
0.0
  0
LWPOLYLINE
  5
2316
330
17
100
AcDbEntity
  8
BORDER
 62
     5
100
AcDbPolyline
 90
        2
 70
     0
 43
0.7943471152601476
 10
238.6772202954595
 20
-24.84056748401528
 10
238.6772202954595
 20
-32.78403863661669
  0
LINE
  5
2317
330
17
100
AcDbEntity
  8
BORDER
100
AcDbLine
 10
235.4998318344191
 20
-26.08708197910414
 30
0.0
 11
235.4998318344191
 21
-32.44185890118527
 31
0.0
  0
ARC
  5
2318
330
17
100
AcDbEntity
  8
BORDER
100
AcDbCircle
 10
235.4998318344191
 20
-32.78403863661671
 30
0.0
 40
1.588694230520295
100
AcDbArc
 50
270.0
 51
0.0
  0
LWPOLYLINE
  5
2319
330
17
100
AcDbEntity
  8
BORDER
 62
     5
100
AcDbPolyline
 90
        2
 70
     0
 43
0.7943471152601476
 10
235.4998318344191
 20
-35.96142709765729
 42
0.4142135623730951
 10
238.6772202954595
 20
-32.78403863661669
 42
-0.5605269336342193
  0
ARC
  5
231A
330
17
100
AcDbEntity
  8
BORDER
100
AcDbCircle
 10
235.4998318344191
 20
-24.84056748401525
 30
0.0
 40
1.588694230520295
100
AcDbArc
 50
0.0
 51
90.0
  0
LWPOLYLINE
  5
231B
330
17
100
AcDbEntity
  8
BORDER
 62
     5
100
AcDbPolyline
 90
        2
 70
     0
 43
0.7943471152601476
 10
235.4998318344191
 20
-21.66317902297469
 42
-0.4142135623730951
 10
238.6772202954595
 20
-24.84056748401528
 42
0.5605269336342193
  0
LINE
  5
23A5
330
17
100
AcDbEntity
  8
LIMITS
 62
     7
100
AcDbLine
 10
241.2191310642925
 20
116.5466365134331
 30
0.0
 11
120.9167362812821
 21
116.5466365134331
 31
0.0
  0
LINE
  5
23A6
330
17
100
AcDbEntity
  8
BORDER
 62
     5
100
AcDbLine
 10
237.4062649110433
 20
114.0047257446007
 30
0.0
 11
124.7296024345304
 21
114.0047257446007
 31
0.0
  0
LWPOLYLINE
  5
23A7
330
17
100
AcDbEntity
  8
BORDER
 62
     5
100
AcDbPolyline
 90
        2
 70
     0
 43
0.3177388461040591
 10
237.4062649110434
 20
114.0047257446006
 10
124.7296024345304
 20
114.0047257446006
  0
LINE
  5
2828
330
17
100
AcDbEntity
  8
OBJECT
100
AcDbLine
 10
198.3455010761674
 20
64.79796534875673
 30
0.0
 11
170.3455010761674
 21
64.79796534875673
 31
0.0
  0
LINE
  5
2829
330
17
100
AcDbEntity
  8
OBJECT
100
AcDbLine
 10
170.3455010761674
 20
92.79796534875673
 30
0.0
 11
198.3455010761674
 21
92.79796534875673
 31
0.0
  0
LINE
  5
282D
330
17
100
AcDbEntity
  8
OBJECT
100
AcDbLine
 10
170.3455010761674
 20
64.79796534875673
 30
0.0
 11
170.3455010761674
 21
92.79796534875673
 31
0.0
  0
CIRCLE
  5
2835
330
17
100
AcDbEntity
  8
OBJECT
100
AcDbCircle
 10
171.0955010761674
 20
70.79796534875673
 30
0.0
 40
0.28125
  0
CIRCLE
  5
286F
330
17
100
AcDbEntity
  8
OBJECT
100
AcDbCircle
 10
171.0955010761674
 20
86.79796534875674
 30
0.0
 40
0.28125
  0
LINE
  5
288F
330
17
100
AcDbEntity
  8
OBJECT
100
AcDbLine
 10
198.3455010761674
 20
92.79796534875673
 30
0.0
 11
198.3455010761674
 21
64.79796534875673
 31
0.0
  0
CIRCLE
  5
289B
330
17
100
AcDbEntity
  8
OBJECT
100
AcDbCircle
 10
197.5955010761675
 20
70.79796534875673
 30
0.0
 40
0.28125
  0
CIRCLE
  5
28A6
330
17
100
AcDbEntity
  8
OBJECT
100
AcDbCircle
 10
197.5955010761675
 20
86.79796534875674
 30
0.0
 40
0.28125
  0
LINE
  5
28A7
330
17
100
AcDbEntity
  8
HIDDEN
100
AcDbLine
 10
172.3455010761674
 20
90.79796534875674
 30
0.0
 11
196.3455010761674
 21
90.79796534875672
 31
0.0
  0
LINE
  5
28A8
330
17
100
AcDbEntity
  8
HIDDEN
100
AcDbLine
 10
172.3455010761674
 20
66.79796534875674
 30
0.0
 11
172.3455010761674
 21
90.79796534875674
 31
0.0
  0
LINE
  5
28A9
330
17
100
AcDbEntity
  8
HIDDEN
100
AcDbLine
 10
196.3455010761674
 20
66.79796534875672
 30
0.0
 11
172.3455010761674
 21
66.79796534875674
 31
0.0
  0
LINE
  5
28AA
330
17
100
AcDbEntity
  8
HIDDEN
100
AcDbLine
 10
196.3455010761674
 20
90.79796534875672
 30
0.0
 11
196.3455010761674
 21
66.79796534875672
 31
0.0
  0
LINE
  5
28BC
330
17
100
AcDbEntity
  8
CENTER
100
AcDbLine
 39
20.0
 10
184.3455010761674
 20
92.79796534875673
 30
0.0
 11
184.3455010761674
 21
64.79796534875673
 31
0.0
  0
LINE
  5
28BD
330
17
100
AcDbEntity
  8
CENTER
100
AcDbLine
 39
20.0
 10
170.3455010761674
 20
78.79796534875673
 30
0.0
 11
198.3455010761674
 21
78.79796534875673
 31
0.0
  0
DIMENSION
  5
28CB
330
17
100
AcDbEntity
  8
DIM
100
AcDbDimension
  2
*D0
 10
190.8455010761681
 20
100.244950577704
 30
0.0
 11
196.8812153618824
 21
100.244950577704
 31
0.0
 70
   160
  1
H
 71
     5
 42
6.500000000000682
  3
STANDARD
100
AcDbAlignedDimension
 13
184.3455010761674
 23
92.79796534875673
 33
0.0
 14
190.8455010761681
 24
85.48380688524831
 34
0.0
100
AcDbRotatedDimension
1001
ACAD
1000
DSTYLE
1002
{
1070
    41
1040
1.5
1070
    42
1040
0.75
1070
    44
1040
1.5
1070
   141
1040
-1.5
1070
   147
1040
0.75
1070
   174
1070
     1
1070
   271
1070
     2
1070
   289
1070
     0
1070
   340
1005
34
1002
}
  0
DIMENSION
  5
290B
330
17
100
AcDbEntity
  8
DIM
100
AcDbDimension
  2
*D1
 10
171.0955010761674
 20
106.2951984825385
 30
0.0
 11
177.7205010761674
 21
106.2951984825385
 31
0.0
 70
    32
 71
     5
 42
13.25
  3
STANDARD
100
AcDbAlignedDimension
 13
184.3455010761674
 23
92.79796534875673
 33
0.0
 14
171.0955010761674
 24
86.79796534875674
 34
0.0
100
AcDbRotatedDimension
1001
ACAD
1000
DSTYLE
1002
{
1070
    41
1040
1.5
1070
    42
1040
0.75
1070
    44
1040
1.5
1070
   141
1040
-1.5
1070
   147
1040
0.75
1070
   174
1070
     1
1070
   271
1070
     2
1070
   289
1070
     0
1070
   340
1005
34
1002
}
  0
LINE
  5
29F5
330
17
100
AcDbEntity
  8
CENTER
100
AcDbLine
 10
182.8455010761674
 20
23.80522515482418
 30
0.0
 11
185.8455010761674
 21
23.80522515482418
 31
0.0
  0
LINE
  5
29F6
330
17
100
AcDbEntity
  8
CENTER
100
AcDbLine
 10
184.3455010761674
 20
22.30522515482419
 30
0.0
 11
184.3455010761674
 21
25.30522515482419
 31
0.0
  0
LINE
  5
29F7
330
17
100
AcDbEntity
  8
CENTER
100
AcDbLine
 10
181.3455010761675
 20
23.80522515482418
 30
0.0
 11
166.8455010761674
 21
23.80522515482418
 31
0.0
  0
LINE
  5
29F8
330
17
100
AcDbEntity
  8
CENTER
100
AcDbLine
 10
187.3455010761674
 20
23.80522515482418
 30
0.0
 11
201.8455010761674
 21
23.80522515482418
 31
0.0
  0
LINE
  5
29F9
330
17
100
AcDbEntity
  8
CENTER
100
AcDbLine
 10
184.3455010761674
 20
20.80522515482419
 30
0.0
 11
184.3455010761674
 21
6.305225154824185
 31
0.0
  0
LINE
  5
29FA
330
17
100
AcDbEntity
  8
CENTER
100
AcDbLine
 10
184.3455010761674
 20
26.80522515482419
 30
0.0
 11
184.3455010761674
 21
39.20802369349411
 31
0.0
  0
CIRCLE
  5
29FD
330
17
100
AcDbEntity
  8
OBJECT
100
AcDbCircle
 10
175.5330010761679
 20
27.80522515482442
 30
0.0
 40
0.21875
  0
LINE
  5
29FE
330
17
100
AcDbEntity
  8
CENTER
100
AcDbLine
 10
174.5971595396765
 20
27.80522515482442
 30
0.0
 11
181.0938426126591
 21
27.80522515482442
 31
0.0
  0
ARC
  5
29FF
330
17
100
AcDbEntity
  8
OBJECT
100
AcDbCircle
 10
175.5330010761679
 20
27.80522515482442
 30
0.0
 40
0.46875
100
AcDbArc
 50
83.40416927473283
 51
276.5958307252672
  0
ARC
  5
2A00
330
17
100
AcDbEntity
  8
HIDDEN
100
AcDbCircle
 10
177.8455010761677
 20
25.80522515482419
 30
0.0
 40
5.249999999999842
100
AcDbArc
 50
0.0000000000011875
 51
180.0000000000011
  0
ARC
  5
2A01
330
17
100
AcDbEntity
  8
OBJECT
100
AcDbCircle
 10
177.8455010761675
 20
25.80522515482419
 30
0.0
 40
6.249999999999842
100
AcDbArc
 50
0.0000000000011875
 51
180.0000000000011
  0
ARC
  5
2A02
330
17
100
AcDbEntity
  8
HIDDEN
100
AcDbCircle
 10
177.8455010761677
 20
21.80522515482419
 30
0.0
 40
5.249999999999842
100
AcDbArc
 50
180.0000000000011
 51
0.0000000000011875
  0
ARC
  5
2A03
330
17
100
AcDbEntity
  8
OBJECT
100
AcDbCircle
 10
177.8455010761675
 20
21.80522515482419
 30
0.0
 40
6.249999999999842
100
AcDbArc
 50
180.0000000000011
 51
0.0000000000011875
  0
CIRCLE
  5
2A04
330
17
100
AcDbEntity
  8
OBJECT
100
AcDbCircle
 10
172.0955010761673
 20
23.80522515482464
 30
0.0
 40
0.281
  0
LINE
  5
2A05
330
17
100
AcDbEntity
  8
HIDDEN
100
AcDbLine
 10
172.5955010761675
 20
21.80522515482419
 30
0.0
 11
172.5955010761675
 21
25.80522515482419
 31
0.0
  0
LINE
  5
2A06
330
17
100
AcDbEntity
  8
OBJECT
100
AcDbLine
 10
171.5955010761672
 20
21.80522515482419
 30
0.0
 11
171.5955010761672
 21
25.80522515482419
 31
0.0
  0
LINE
  5
2A07
330
17
100
AcDbEntity
  8
CENTER
100
AcDbLine
 10
175.5330010761679
 20
27.38687544103452
 30
0.0
 11
175.5330010761679
 21
28.22357486861454
 31
0.0
  0
LINE
  5
2A08
330
17
100
AcDbEntity
  8
CENTER
100
AcDbLine
 39
20.0
 10
177.8455010761673
 20
33.11565868280235
 30
0.0
 11
177.8455010761675
 21
15.55522515482434
 31
0.0
  0
CIRCLE
  5
2A09
330
17
100
AcDbEntity
  8
OBJECT
100
AcDbCircle
 10
183.5955010761673
 20
23.80522515482441
 30
0.0
 40
0.281
  0
LINE
  5
2A0A
330
17
100
AcDbEntity
  8
HIDDEN
100
AcDbLine
 10
183.0955010761676
 20
21.80522515482441
 30
0.0
 11
183.0955010761676
 21
25.80522515482441
 31
0.0
  0
LINE
  5
2A0B
330
17
100
AcDbEntity
  8
OBJECT
100
AcDbLine
 10
184.0955010761673
 20
21.80522515482441
 30
0.0
 11
184.0955010761673
 21
25.80522515482441
 31
0.0
  0
CIRCLE
  5
2A0C
330
17
100
AcDbEntity
  8
OBJECT
100
AcDbCircle
 10
177.8455010761679
 20
16.05522515482441
 30
0.0
 40
0.281
  0
TEXT
  5
2A0D
330
17
100
AcDbEntity
  8
OBJECT
100
AcDbText
 10
176.8276399347627
 20
20.16722263172896
 30
0.0
 40
0.15240234375
  1
D
 50
55.24420365131597
  7
ROMANS
100
AcDbText
  0
CIRCLE
  5
2A0E
330
17
100
AcDbEntity
  8
HIDDEN
100
AcDbCircle
 10
177.4705010761678
 20
20.18022515482441
 30
0.0
 40
0.1875
  0
CIRCLE
  5
2A0F
330
17
100
AcDbEntity
  8
HIDDEN
100
AcDbCircle
 10
178.2205010761678
 20
20.18022515482441
 30
0.0
 40
0.1875
  0
ARC
  5
2A10
330
17
100
AcDbEntity
  8
HIDDEN
100
AcDbCircle
 10
177.8455010761678
 20
19.80522515482441
 30
0.0
 40
1.026950953716422
100
AcDbArc
 50
320.9079267598205
 51
320.2990105758775
  0
LINE
  5
2A11
330
17
100
AcDbEntity
  8
CENTER
100
AcDbLine
 10
177.8455010761678
 20
21.40522515482441
 30
0.0
 11
177.8455010761678
 21
18.20522515482442
 31
0.0
  0
ARC
  5
2A12
330
17
100
AcDbEntity
  8
OBJECT
100
AcDbCircle
 10
177.8455010761678
 20
19.80522515482441
 30
0.0
 40
1.349999999999994
100
AcDbArc
 50
320.7622121285538
 51
320.2990105758783
  0
ARC
  5
2A13
330
17
100
AcDbEntity
  8
HIDDEN
100
AcDbCircle
 10
177.8455010761678
 20
19.80522515482441
 30
0.0
 40
1.25
100
AcDbArc
 50
320.7992691595525
 51
320.2990105758784
  0
CIRCLE
  5
2A14
330
17
100
AcDbEntity
  8
OBJECT
100
AcDbCircle
 10
177.8455010761678
 20
19.80522515482441
 30
0.0
 40
1.25
  0
LINE
  5
2A15
330
17
100
AcDbEntity
  8
CENTER
100
AcDbLine
 10
179.5311468075873
 20
19.80522515482441
 30
0.0
 11
176.1598553447486
 21
19.80522515482441
 31
0.0
  0
LINE
  5
2A16
330
17
100
AcDbEntity
  8
OBJECT
100
AcDbLine
 10
177.9964883721865
 20
19.69405372665621
 30
0.0
 11
178.8911131775111
 21
18.95129580556626
 31
0.0
  0
LINE
  5
2A17
330
17
100
AcDbEntity
  8
OBJECT
100
AcDbLine
 10
177.9897614244622
 20
19.68545369783247
 30
0.0
 11
178.8841755838875
 21
18.94287066448233
 31
0.0
  0
TEXT
  5
2A18
330
17
100
AcDbEntity
  8
OBJECT
100
AcDbText
 10
176.7895309772289
 20
19.57716677060087
 30
0.0
 40
0.15240234375
  1
C
 50
87.00890953366885
  7
ROMANS
100
AcDbText
  0
TEXT
  5
2A19
330
17
100
AcDbEntity
  8
OBJECT
100
AcDbText
 10
176.7349722621071
 20
19.62209952640201
 30
0.0
 40
0.15240234375
  1
 O
 50
76.42067423955125
  7
ROMANS
100
AcDbText
  0
TEXT
  5
2A1A
330
17
100
AcDbEntity
  8
OBJECT
100
AcDbText
 10
176.778454093121
 20
19.97402744283762
 30
0.0
 40
0.15240234375
  1
R
 50
65.83243894543361
  7
ROMANS
100
AcDbText
  0
ARC
  5
2A1B
330
17
100
AcDbEntity
  8
OBJECT
100
AcDbCircle
 10
177.8455010761678
 20
19.80522515482441
 30
0.0
 40
0.1875
100
AcDbArc
 50
323.6359115054082
 51
320.2990105758837
  0
TEXT
  5
2A1C
330
17
100
AcDbEntity
  8
OBJECT
100
AcDbText
 10
177.6879337543331
 20
20.86565645456305
 30
0.0
 40
0.15240234375
  1
L
 50
13.39634873906212
  7
ROMANS
100
AcDbText
  0
TEXT
  5
2A1D
330
17
100
AcDbEntity
  8
OBJECT
100
AcDbText
 10
177.1444668902042
 20
20.594259443425
 30
0.0
 40
0.15240234375
  1
S
 50
33.95887524537889
  7
ROMANS
100
AcDbText
  0
TEXT
  5
2A1E
330
17
100
AcDbEntity
  8
OBJECT
100
AcDbText
 10
177.3038088778593
 20
20.70393845267775
 30
0.0
 40
0.15240234375
  1
E
 50
26.26877368861098
  7
ROMANS
100
AcDbText
  0
TEXT
  5
2A1F
330
17
100
AcDbEntity
  8
OBJECT
100
AcDbText
 10
177.487852309071
 20
20.80550980821472
 30
0.0
 40
0.15240234375
  1
A
 50
13.59949829976555
  7
ROMANS
100
AcDbText
  0
LINE
  5
2A20
330
17
100
AcDbEntity
  8
CENTER
100
AcDbLine
 10
177.8455010761679
 20
30.49106669131577
 30
0.0
 11
177.8455010761679
 21
25.11938361833329
 31
0.0
  0
ARC
  5
2A21
330
17
100
AcDbEntity
  8
OBJECT
100
AcDbCircle
 10
177.8455010761679
 20
27.80522515482442
 30
0.0
 40
2.25
100
AcDbArc
 50
193.1916614505338
 51
346.8083385494662
  0
CIRCLE
  5
2A22
330
17
100
AcDbEntity
  8
OBJECT
100
AcDbCircle
 10
177.8455010761679
 20
27.80522515482442
 30
0.0
 40
1.8125
  0
CIRCLE
  5
2A23
330
17
100
AcDbEntity
  8
OBJECT
100
AcDbCircle
 10
177.8455010761679
 20
27.80522515482442
 30
0.0
 40
1.5
  0
ARC
  5
2A24
330
17
100
AcDbEntity
  8
OBJECT
100
AcDbCircle
 10
177.8455010761679
 20
27.80522515482442
 30
0.0
 40
2.25
100
AcDbArc
 50
13.1916614505338
 51
166.8083385494662
  0
ARC
  5
2A25
330
17
100
AcDbEntity
  8
OBJECT
100
AcDbCircle
 10
175.5940230356274
 20
28.33295887836668
 30
0.0
 40
0.0625
100
AcDbArc
 50
263.4041692747228
 51
346.8083385494218
  0
ARC
  5
2A26
330
17
100
AcDbEntity
  8
OBJECT
100
AcDbCircle
 10
175.5940230356274
 20
27.27749143128214
 30
0.0
 40
0.0625
100
AcDbArc
 50
13.19166145057822
 51
96.59583072527727
  0
CIRCLE
  5
2A27
330
17
100
AcDbEntity
  8
OBJECT
100
AcDbCircle
 10
180.1580010761679
 20
27.80522515482442
 30
0.0
 40
0.21875
  0
ARC
  5
2A28
330
17
100
AcDbEntity
  8
OBJECT
100
AcDbCircle
 10
180.0969791167084
 20
28.33295887836668
 30
0.0
 40
0.0625
100
AcDbArc
 50
193.1916614505782
 51
276.5958307252773
  0
ARC
  5
2A29
330
17
100
AcDbEntity
  8
OBJECT
100
AcDbCircle
 10
180.0969791167084
 20
27.27749143128214
 30
0.0
 40
0.0625
100
AcDbArc
 50
83.40416927472276
 51
166.8083385494218
  0
LINE
  5
2A2A
330
17
100
AcDbEntity
  8
CENTER
100
AcDbLine
 10
180.1580010761679
 20
27.38687544103452
 30
0.0
 11
180.1580010761679
 21
28.22357486861454
 31
0.0
  0
ARC
  5
2A2B
330
17
100
AcDbEntity
  8
OBJECT
100
AcDbCircle
 10
180.1580010761679
 20
27.80522515482442
 30
0.0
 40
0.46875
100
AcDbArc
 50
263.4041692747329
 51
96.5958307252672
  0
CIRCLE
  5
2A2C
330
17
100
AcDbEntity
  8
OBJECT
100
AcDbCircle
 10
177.8455010761673
 20
31.55522515482442
 30
0.0
 40
0.281
  0
CIRCLE
  5
2A2D
330
17
100
AcDbEntity
  8
OBJECT
100
AcDbCircle
 10
188.5330010761679
 20
27.80522515482442
 30
0.0
 40
0.21875
  0
LINE
  5
2A2E
330
17
100
AcDbEntity
  8
CENTER
100
AcDbLine
 10
187.5971595396766
 20
27.80522515482442
 30
0.0
 11
194.0938426126591
 21
27.80522515482442
 31
0.0
  0
ARC
  5
2A2F
330
17
100
AcDbEntity
  8
OBJECT
100
AcDbCircle
 10
188.5330010761679
 20
27.80522515482442
 30
0.0
 40
0.46875
100
AcDbArc
 50
83.40416927473283
 51
276.5958307252672
  0
ARC
  5
2A30
330
17
100
AcDbEntity
  8
HIDDEN
100
AcDbCircle
 10
190.8455010761677
 20
25.80522515482419
 30
0.0
 40
5.249999999999842
100
AcDbArc
 50
0.0000000000011875
 51
180.0000000000011
  0
ARC
  5
2A31
330
17
100
AcDbEntity
  8
OBJECT
100
AcDbCircle
 10
190.8455010761674
 20
25.80522515482419
 30
0.0
 40
6.249999999999842
100
AcDbArc
 50
0.0000000000011875
 51
180.0000000000011
  0
ARC
  5
2A32
330
17
100
AcDbEntity
  8
HIDDEN
100
AcDbCircle
 10
190.8455010761677
 20
21.80522515482419
 30
0.0
 40
5.249999999999842
100
AcDbArc
 50
180.0000000000011
 51
0.0000000000011875
  0
ARC
  5
2A33
330
17
100
AcDbEntity
  8
OBJECT
100
AcDbCircle
 10
190.8455010761674
 20
21.80522515482419
 30
0.0
 40
6.249999999999842
100
AcDbArc
 50
180.0000000000011
 51
0.0000000000011875
  0
CIRCLE
  5
2A34
330
17
100
AcDbEntity
  8
OBJECT
100
AcDbCircle
 10
185.0955010761673
 20
23.80522515482464
 30
0.0
 40
0.281
  0
LINE
  5
2A35
330
17
100
AcDbEntity
  8
HIDDEN
100
AcDbLine
 10
185.5955010761674
 20
21.80522515482419
 30
0.0
 11
185.5955010761674
 21
25.80522515482419
 31
0.0
  0
LINE
  5
2A36
330
17
100
AcDbEntity
  8
OBJECT
100
AcDbLine
 10
184.5955010761672
 20
21.80522515482419
 30
0.0
 11
184.5955010761672
 21
25.80522515482419
 31
0.0
  0
LINE
  5
2A37
330
17
100
AcDbEntity
  8
CENTER
100
AcDbLine
 10
188.5330010761679
 20
27.38687544103452
 30
0.0
 11
188.5330010761679
 21
28.22357486861454
 31
0.0
  0
LINE
  5
2A38
330
17
100
AcDbEntity
  8
CENTER
100
AcDbLine
 39
20.0
 10
190.8455010761673
 20
32.97993807809024
 30
0.0
 11
190.8455010761675
 21
15.55522515482434
 31
0.0
  0
CIRCLE
  5
2A39
330
17
100
AcDbEntity
  8
OBJECT
100
AcDbCircle
 10
196.5955010761673
 20
23.80522515482441
 30
0.0
 40
0.281
  0
LINE
  5
2A3A
330
17
100
AcDbEntity
  8
HIDDEN
100
AcDbLine
 10
196.0955010761676
 20
21.80522515482441
 30
0.0
 11
196.0955010761676
 21
25.80522515482441
 31
0.0
  0
LINE
  5
2A3B
330
17
100
AcDbEntity
  8
OBJECT
100
AcDbLine
 10
197.0955010761673
 20
21.80522515482441
 30
0.0
 11
197.0955010761673
 21
25.80522515482441
 31
0.0
  0
CIRCLE
  5
2A3C
330
17
100
AcDbEntity
  8
OBJECT
100
AcDbCircle
 10
190.8455010761679
 20
16.05522515482441
 30
0.0
 40
0.281
  0
TEXT
  5
2A3D
330
17
100
AcDbEntity
  8
OBJECT
100
AcDbText
 10
189.8276399347627
 20
20.16722263172896
 30
0.0
 40
0.15240234375
  1
D
 50
55.24420365131597
  7
ROMANS
100
AcDbText
  0
CIRCLE
  5
2A3E
330
17
100
AcDbEntity
  8
HIDDEN
100
AcDbCircle
 10
190.4705010761678
 20
20.18022515482441
 30
0.0
 40
0.1875
  0
CIRCLE
  5
2A3F
330
17
100
AcDbEntity
  8
HIDDEN
100
AcDbCircle
 10
191.2205010761678
 20
20.18022515482441
 30
0.0
 40
0.1875
  0
ARC
  5
2A40
330
17
100
AcDbEntity
  8
HIDDEN
100
AcDbCircle
 10
190.8455010761678
 20
19.80522515482441
 30
0.0
 40
1.026950953716422
100
AcDbArc
 50
320.9079267598205
 51
320.2990105758775
  0
LINE
  5
2A41
330
17
100
AcDbEntity
  8
CENTER
100
AcDbLine
 10
190.8455010761678
 20
21.40522515482441
 30
0.0
 11
190.8455010761678
 21
18.20522515482442
 31
0.0
  0
ARC
  5
2A42
330
17
100
AcDbEntity
  8
OBJECT
100
AcDbCircle
 10
190.8455010761678
 20
19.80522515482441
 30
0.0
 40
1.349999999999994
100
AcDbArc
 50
320.7622121285538
 51
320.2990105758783
  0
ARC
  5
2A43
330
17
100
AcDbEntity
  8
HIDDEN
100
AcDbCircle
 10
190.8455010761678
 20
19.80522515482441
 30
0.0
 40
1.25
100
AcDbArc
 50
320.7992691595525
 51
320.2990105758784
  0
CIRCLE
  5
2A44
330
17
100
AcDbEntity
  8
OBJECT
100
AcDbCircle
 10
190.8455010761678
 20
19.80522515482441
 30
0.0
 40
1.25
  0
LINE
  5
2A45
330
17
100
AcDbEntity
  8
CENTER
100
AcDbLine
 10
192.5311468075872
 20
19.80522515482441
 30
0.0
 11
189.1598553447486
 21
19.80522515482441
 31
0.0
  0
LINE
  5
2A46
330
17
100
AcDbEntity
  8
OBJECT
100
AcDbLine
 10
190.9964883721865
 20
19.69405372665621
 30
0.0
 11
191.8911131775111
 21
18.95129580556626
 31
0.0
  0
LINE
  5
2A47
330
17
100
AcDbEntity
  8
OBJECT
100
AcDbLine
 10
190.9897614244622
 20
19.68545369783247
 30
0.0
 11
191.8841755838875
 21
18.94287066448233
 31
0.0
  0
TEXT
  5
2A48
330
17
100
AcDbEntity
  8
OBJECT
100
AcDbText
 10
189.7895309772289
 20
19.57716677060087
 30
0.0
 40
0.15240234375
  1
C
 50
87.00890953366885
  7
ROMANS
100
AcDbText
  0
TEXT
  5
2A49
330
17
100
AcDbEntity
  8
OBJECT
100
AcDbText
 10
189.7349722621071
 20
19.62209952640201
 30
0.0
 40
0.15240234375
  1
 O
 50
76.42067423955125
  7
ROMANS
100
AcDbText
  0
TEXT
  5
2A4A
330
17
100
AcDbEntity
  8
OBJECT
100
AcDbText
 10
189.778454093121
 20
19.97402744283762
 30
0.0
 40
0.15240234375
  1
R
 50
65.83243894543361
  7
ROMANS
100
AcDbText
  0
ARC
  5
2A4B
330
17
100
AcDbEntity
  8
OBJECT
100
AcDbCircle
 10
190.8455010761678
 20
19.80522515482441
 30
0.0
 40
0.1875
100
AcDbArc
 50
323.6359115054082
 51
320.2990105758837
  0
TEXT
  5
2A4C
330
17
100
AcDbEntity
  8
OBJECT
100
AcDbText
 10
190.6879337543331
 20
20.86565645456305
 30
0.0
 40
0.15240234375
  1
L
 50
13.39634873906212
  7
ROMANS
100
AcDbText
  0
TEXT
  5
2A4D
330
17
100
AcDbEntity
  8
OBJECT
100
AcDbText
 10
190.1444668902042
 20
20.594259443425
 30
0.0
 40
0.15240234375
  1
S
 50
33.95887524537889
  7
ROMANS
100
AcDbText
  0
TEXT
  5
2A4E
330
17
100
AcDbEntity
  8
OBJECT
100
AcDbText
 10
190.3038088778593
 20
20.70393845267775
 30
0.0
 40
0.15240234375
  1
E
 50
26.26877368861098
  7
ROMANS
100
AcDbText
  0
TEXT
  5
2A4F
330
17
100
AcDbEntity
  8
OBJECT
100
AcDbText
 10
190.487852309071
 20
20.80550980821472
 30
0.0
 40
0.15240234375
  1
A
 50
13.59949829976555
  7
ROMANS
100
AcDbText
  0
LINE
  5
2A50
330
17
100
AcDbEntity
  8
CENTER
100
AcDbLine
 10
190.8455010761679
 20
30.49106669131577
 30
0.0
 11
190.8455010761679
 21
25.11938361833329
 31
0.0
  0
ARC
  5
2A51
330
17
100
AcDbEntity
  8
OBJECT
100
AcDbCircle
 10
190.8455010761679
 20
27.80522515482442
 30
0.0
 40
2.25
100
AcDbArc
 50
193.1916614505338
 51
346.8083385494662
  0
CIRCLE
  5
2A52
330
17
100
AcDbEntity
  8
OBJECT
100
AcDbCircle
 10
190.8455010761679
 20
27.80522515482442
 30
0.0
 40
1.8125
  0
CIRCLE
  5
2A53
330
17
100
AcDbEntity
  8
OBJECT
100
AcDbCircle
 10
190.8455010761679
 20
27.80522515482442
 30
0.0
 40
1.5
  0
ARC
  5
2A54
330
17
100
AcDbEntity
  8
OBJECT
100
AcDbCircle
 10
190.8455010761679
 20
27.80522515482442
 30
0.0
 40
2.25
100
AcDbArc
 50
13.1916614505338
 51
166.8083385494662
  0
ARC
  5
2A55
330
17
100
AcDbEntity
  8
OBJECT
100
AcDbCircle
 10
188.5940230356274
 20
28.33295887836668
 30
0.0
 40
0.0625
100
AcDbArc
 50
263.4041692747228
 51
346.8083385494218
  0
ARC
  5
2A56
330
17
100
AcDbEntity
  8
OBJECT
100
AcDbCircle
 10
188.5940230356274
 20
27.27749143128214
 30
0.0
 40
0.0625
100
AcDbArc
 50
13.19166145057822
 51
96.59583072527727
  0
CIRCLE
  5
2A57
330
17
100
AcDbEntity
  8
OBJECT
100
AcDbCircle
 10
193.1580010761679
 20
27.80522515482442
 30
0.0
 40
0.21875
  0
ARC
  5
2A58
330
17
100
AcDbEntity
  8
OBJECT
100
AcDbCircle
 10
193.0969791167084
 20
28.33295887836668
 30
0.0
 40
0.0625
100
AcDbArc
 50
193.1916614505782
 51
276.5958307252773
  0
ARC
  5
2A59
330
17
100
AcDbEntity
  8
OBJECT
100
AcDbCircle
 10
193.0969791167084
 20
27.27749143128214
 30
0.0
 40
0.0625
100
AcDbArc
 50
83.40416927472276
 51
166.8083385494218
  0
LINE
  5
2A5A
330
17
100
AcDbEntity
  8
CENTER
100
AcDbLine
 10
193.1580010761679
 20
27.38687544103452
 30
0.0
 11
193.1580010761679
 21
28.22357486861454
 31
0.0
  0
ARC
  5
2A5B
330
17
100
AcDbEntity
  8
OBJECT
100
AcDbCircle
 10
193.1580010761679
 20
27.80522515482442
 30
0.0
 40
0.46875
100
AcDbArc
 50
263.4041692747329
 51
96.5958307252672
  0
CIRCLE
  5
2A5C
330
17
100
AcDbEntity
  8
OBJECT
100
AcDbCircle
 10
190.8455010761673
 20
31.55522515482442
 30
0.0
 40
0.281
  0
LEADER
  5
2A5F
330
17
100
AcDbEntity
  8
DIM
100
AcDbLeader
  3
STANDARD
 76
     2
 10
193.3334418744709
 20
30.42828156634854
 30
0.0
 10
204.156902583086
 20
40.87027696086465
 30
0.0
1001
ACAD
1000
DSTYLE
1002
{
1070
   340
1005
34
1070
   174
1070
     1
1070
   147
1040
0.75
1070
   287
1070
     0
1070
    42
1040
0.75
1070
    44
1040
1.5
1070
   271
1070
     2
1070
   141
1040
-1.5
1070
    41
1040
1.5
1002
}
  0
LEADER
  5
2A60
330
17
100
AcDbEntity
  8
DIM
100
AcDbLeader
  3
STANDARD
 76
     2
 10
192.101167264313
 20
31.92779017480936
 30
0.0
 10
204.1569025830861
 20
44.87027696086467
 30
0.0
1001
ACAD
1000
DSTYLE
1002
{
1070
   340
1005
34
1070
   174
1070
     1
1070
   147
1040
0.75
1070
   287
1070
     0
1070
    42
1040
0.75
1070
    44
1040
1.5
1070
   271
1070
     2
1070
   141
1040
-1.5
1070
    41
1040
1.5
1002
}
  0
DIMENSION
  5
2A81
330
17
100
AcDbEntity
  8
DIM
100
AcDbDimension
  2
*D2
 10
177.8455010761673
 20
41.83920223633873
 30
0.0
 11
181.0955010761674
 21
41.83920223633873
 31
0.0
 70
    32
  1
H
 71
     5
 42
6.500000000000113
  3
STANDARD
100
AcDbAlignedDimension
 13
184.3455010761674
 23
39.20802369349411
 33
0.0
 14
177.8455010761673
 24
33.11565868280235
 34
0.0
100
AcDbRotatedDimension
1001
ACAD
1000
DSTYLE
1002
{
1070
    41
1040
1.5
1070
    42
1040
0.75
1070
    44
1040
1.5
1070
   141
1040
-1.5
1070
   147
1040
0.75
1070
   174
1070
     1
1070
   271
1070
     2
1070
   289
1070
     0
1070
   340
1005
34
1002
}
  0
LINE
  5
2E19
330
17
100
AcDbEntity
  8
DIM
 62
     6
100
AcDbLine
 39
17.0
 10
206.0402551569509
 20
-4.1846776566639
 30
0.0
 11
206.0402551569509
 21
-18.71024510262062
 31
0.0
  0
LINE
  5
2E1A
330
17
100
AcDbEntity
  8
DIM
 62
     6
100
AcDbLine
 39
17.0
 10
198.0485789696415
 20
-4.1846776566639
 30
0.0
 11
198.0485789696415
 21
-18.71024510262062
 31
0.0
  0
LWPOLYLINE
  5
2E1B
330
17
100
AcDbEntity
  8
DIM
 62
     6
100
AcDbPolyline
 90
        2
 70
     0
 43
0.2125
 39
17.0
 10
136.056347953955
 20
-18.71024510262062
 10
227.3355911228614
 20
-18.71024510262062
  0
LWPOLYLINE
  5
2E1C
330
17
100
AcDbEntity
  8
DIM
 62
     6
100
AcDbPolyline
 90
        2
 70
     0
 43
0.2125
 39
17.0
 10
227.3355911228614
 20
-4.184677656663886
 10
227.3355911228614
 20
-18.71024510262062
  0
LWPOLYLINE
  5
2E1D
330
17
100
AcDbEntity
  8
DIM
 62
     6
100
AcDbPolyline
 90
        2
 70
     0
 43
0.2125
 39
17.0
 10
136.056347953955
 20
-4.1846776566639
 10
136.056347953955
 20
-18.71024510262062
  0
CIRCLE
  5
2E1E
330
17
100
AcDbEntity
  8
DIM
 62
     6
100
AcDbCircle
 39
17.0
 10
160.1711011337108
 20
-5.859953451554879
 30
0.0
 40
1.008845724859104
  0
LINE
  5
2E1F
330
17
100
AcDbEntity
  8
DIM
 62
     6
100
AcDbLine
 39
17.0
 10
227.3355911228614
 20
-4.1846776566639
 30
0.0
 11
227.3355911228614
 21
-18.71024510262062
 31
0.0
  0
LINE
  5
2E20
330
17
100
AcDbEntity
  8
DIM
 62
     6
100
AcDbLine
 39
17.0
 10
221.6427780699325
 20
-4.1846776566639
 30
0.0
 11
221.6427780699325
 21
-18.71024510262062
 31
0.0
  0
LINE
  5
2E21
330
17
100
AcDbEntity
  8
DIM
 62
     6
100
AcDbLine
 39
17.0
 10
213.8415166134417
 20
-4.1846776566639
 30
0.0
 11
213.8415166134417
 21
-18.71024510262062
 31
0.0
  0
LINE
  5
2E22
330
17
100
AcDbEntity
  8
DIM
 62
     6
100
AcDbLine
 39
17.0
 10
190.0569027823322
 20
-4.1846776566639
 30
0.0
 11
190.0569027823322
 21
-18.71024510262062
 31
0.0
  0
LINE
  5
2E23
330
17
100
AcDbEntity
  8
DIM
 62
     6
100
AcDbLine
 39
17.0
 10
172.1548093311659
 20
-4.1846776566639
 30
0.0
 11
172.1548093311659
 21
-18.71024510262062
 31
0.0
  0
LINE
  5
2E24
330
17
100
AcDbEntity
  8
DIM
 62
     6
100
AcDbLine
 39
17.0
 10
183.3098648325305
 20
-4.1846776566639
 30
0.0
 11
183.3098648325305
 21
-18.71024510262062
 31
0.0
  0
LINE
  5
2E25
330
17
100
AcDbEntity
  8
DIM
 62
     6
100
AcDbLine
 39
17.0
 10
164.1631331438565
 20
-4.1846776566639
 30
0.0
 11
164.1631331438565
 21
-18.71024510262062
 31
0.0
  0
LINE
  5
2E26
330
17
100
AcDbEntity
  8
DIM
 62
     6
100
AcDbLine
 39
17.0
 10
156.1714569565472
 20
-4.1846776566639
 30
0.0
 11
156.1714569565472
 21
-18.71024510262062
 31
0.0
  0
LINE
  5
2E27
330
17
100
AcDbEntity
  8
DIM
 62
     6
100
AcDbLine
 39
17.0
 10
145.8488818057286
 20
-4.1846776566639
 30
0.0
 11
145.8488818057286
 21
-18.71024510262062
 31
0.0
  0
LWPOLYLINE
  5
2E28
330
17
100
AcDbEntity
  8
DIM
 62
     6
100
AcDbPolyline
 90
        2
 70
     0
 43
0.2125
 39
17.0
 10
136.056347953955
 20
-4.1846776566639
 10
227.3355911228615
 20
-4.184677656663886
  0
LWPOLYLINE
  5
2E2F
330
17
100
AcDbEntity
  8
DIM
 62
     6
100
AcDbPolyline
 90
        2
 70
     0
 43
0.2125
 39
17.0
 10
136.056347953955
 20
-13.6102451026206
 10
227.3355911228614
 20
-13.6102451026206
  0
CIRCLE
  5
2E30
330
17
100
AcDbEntity
  8
DIM
 62
     6
100
AcDbCircle
 39
17.0
 10
224.5046372371447
 20
-5.864075338588925
 30
0.0
 40
1.008845724859104
  0
CIRCLE
  5
2E31
330
17
100
AcDbEntity
  8
DIM
 62
     6
100
AcDbCircle
 39
17.0
 10
217.8122774541795
 20
-5.852749439016072
 30
0.0
 40
1.008845724859104
  0
CIRCLE
  5
2E32
330
17
100
AcDbEntity
  8
DIM
 62
     6
100
AcDbCircle
 39
17.0
 10
209.9857154280421
 20
-5.832109132810565
 30
0.0
 40
1.008845724859104
  0
CIRCLE
  5
2E33
330
17
100
AcDbEntity
  8
DIM
 62
     6
100
AcDbCircle
 39
17.0
 10
201.8754715482284
 20
-5.843751715331741
 30
0.0
 40
1.008845724859104
  0
CIRCLE
  5
2E34
330
17
100
AcDbEntity
  8
DIM
 62
     6
100
AcDbCircle
 39
17.0
 10
193.9974455323641
 20
-5.860263696335387
 30
0.0
 40
1.008845724859104
  0
CIRCLE
  5
2E35
330
17
100
AcDbEntity
  8
DIM
 62
     6
100
AcDbCircle
 39
17.0
 10
168.1316038251644
 20
-5.85995341926074
 30
0.0
 40
1.008845724859104
  0
CIRCLE
  5
2E36
330
17
100
AcDbEntity
  8
DIM
 62
     6
100
AcDbCircle
 39
17.0
 10
177.7726334705202
 20
-5.854359893182
 30
0.0
 40
1.008845724859104
  0
CIRCLE
  5
2E37
330
17
100
AcDbEntity
  8
DIM
 62
     6
100
AcDbCircle
 39
17.0
 10
186.61587027823
 20
-5.864923277203793
 30
0.0
 40
1.008845724859104
  0
TEXT
  5
2E38
330
17
100
AcDbEntity
  8
DIM
 62
     6
100
AcDbText
 10
147.3044188236594
 20
-16.17694029440572
 30
0.0
 40
1.274999999999999
  1
ROUND
  7
ROMANS
100
AcDbText
  0
TEXT
  5
2E39
330
17
100
AcDbEntity
  8
DIM
 62
     6
100
AcDbText
 10
147.3044188236594
 20
-17.87694029440572
 30
0.0
 40
1.274999999999999
  1
SQUARE
  7
ROMANS
100
AcDbText
  0
TEXT
  5
2E3A
330
17
100
AcDbEntity
  8
DIM
 62
     6
100
AcDbText
 10
148.2173122382808
 20
-12.71589591541595
 30
0.0
 40
1.274999999999999
  1
STYLE
  7
ROMAND
 72
     1
 11
151.0101693811379
 21
-12.71589591541595
 31
0.0
100
AcDbText
  0
TEXT
  5
2E4E
330
17
100
AcDbEntity
  8
DIM
 62
     6
100
AcDbText
 10
137.4023342753289
 20
-16.17694029440572
 30
0.0
 40
1.274999999999999
  1
C24DSA
  7
ROMANS
100
AcDbText
  0
TEXT
  5
2E4F
330
17
100
AcDbEntity
  8
DIM
 62
     6
100
AcDbText
 10
139.2829720226989
 20
-12.70738237806683
 30
0.0
 40
1.274999999999999
  1
NO.
  7
ROMAND
 72
     1
 11
140.9526148798418
 21
-12.70738237806683
 31
0.0
100
AcDbText
  0
TEXT
  5
2E50
330
17
100
AcDbEntity
  8
DIM
 62
     6
100
AcDbText
 10
138.5544005941275
 20
-10.64309666378111
 30
0.0
 40
1.274999999999999
  1
PART
  7
ROMAND
 72
     1
 11
140.9526148798418
 21
-10.64309666378111
 31
0.0
100
AcDbText
  0
TEXT
  5
2E51
330
17
100
AcDbEntity
  8
DIM
 62
     6
100
AcDbText
 10
190.3482761508196
 20
-15.95069988675012
 30
0.0
 40
0.975375
  1
12.5X16.5
  7
ROMANS
100
AcDbText
  0
TEXT
  5
2E53
330
17
100
AcDbEntity
  8
DIM
 62
     6
100
AcDbText
 10
191.2879678136572
 20
-8.515914804712913
 30
0.0
 40
1.274999999999999
  1
ACCESS
 41
0.7422143509373162
  7
ROMAND
 72
     5
 11
196.6054034850153
 21
-8.515914804712913
 31
0.0
100
AcDbText
  0
TEXT
  5
2E54
330
17
100
AcDbEntity
  8
DIM
 62
     6
100
AcDbText
 10
191.0923443082186
 20
-10.64095156129571
 30
0.0
 40
1.274999999999999
  1
PLATE
  7
ROMAND
 72
     1
 11
193.9459157367901
 21
-10.64095156129571
 31
0.0
100
AcDbText
  0
TEXT
  5
2E75
330
17
100
AcDbEntity
  8
DIM
 62
     6
100
AcDbText
 10
165.4436559804904
 20
-17.87694029440572
 30
0.0
 40
1.274999999999999
  1
28x28
  7
ROMANS
100
AcDbText
  0
TEXT
  5
2E76
330
17
100
AcDbEntity
  8
DIM
 62
     6
100
AcDbText
 10
164.2125426660826
 20
-10.67017497038839
 30
0.0
 40
1.274999999999999
  1
OUTSIDE
  7
ROMAND
 72
     1
 11
168.1589712375112
 21
-10.67017497038839
 31
0.0
100
AcDbText
  0
TEXT
  5
2E79
330
17
100
AcDbEntity
  8
DIM
 62
     6
100
AcDbText
 10
157.3729879375941
 20
-17.87694029440572
 30
0.0
 40
1.274999999999999
  1
24x24
  7
ROMANS
100
AcDbText
  0
TEXT
  5
2E80
330
17
100
AcDbEntity
  8
DIM
 62
     6
100
AcDbText
 10
158.1940807644876
 20
-12.69662328000536
 30
0.0
 40
1.274999999999999
  1
DIM.
  7
ROMAND
 72
     1
 11
160.1672950502019
 21
-12.69662328000536
 31
0.0
100
AcDbText
  0
TEXT
  5
2E81
330
17
100
AcDbEntity
  8
DIM
 62
     6
100
AcDbText
 10
157.1012236216304
 20
-10.63233756571964
 30
0.0
 40
1.274999999999999
  1
INSIDE
  7
ROMAND
 72
     1
 11
160.1672950502019
 21
-10.63233756571964
 31
0.0
100
AcDbText
  0
TEXT
  5
2E82
330
17
100
AcDbEntity
  8
DIM
 62
     6
100
AcDbText
 10
157.4047950502019
 20
-8.568051851433928
 30
0.0
 40
1.274999999999999
  1
BASIN
  7
ROMAND
 72
     1
 11
160.1672950502019
 21
-8.568051851433928
 31
0.0
100
AcDbText
  0
TEXT
  5
2E83
330
17
100
AcDbEntity
  8
DIM
 62
     6
100
AcDbText
 10
159.560152193059
 20
-6.372748843657923
 30
0.0
 40
1.274999999999999
  1
A
  7
ROMAND
 72
     1
 11
160.1672950502019
 21
-6.372748843657923
 31
0.0
100
AcDbText
  0
TEXT
  5
2E84
330
17
100
AcDbEntity
  8
DIM
 62
     6
100
AcDbText
 10
157.3729879375941
 20
-16.17694029440572
 30
0.0
 40
1.274999999999999
  1
24
  7
ROMANS
100
AcDbText
  0
TEXT
  5
2E85
330
17
100
AcDbEntity
  8
DIM
 62
     6
100
AcDbText
 10
165.4436559804904
 20
-16.17694029440572
 30
0.0
 40
1.274999999999999
  1
28
  7
ROMANS
100
AcDbText
  0
TEXT
  5
2E86
330
17
100
AcDbEntity
  8
DIM
 62
     6
100
AcDbText
 10
166.185756951797
 20
-12.73446068467411
 30
0.0
 40
1.274999999999999
  1
DIM.
  7
ROMAND
 72
     1
 11
168.1589712375112
 21
-12.73446068467411
 31
0.0
100
AcDbText
  0
TEXT
  5
2E87
330
17
100
AcDbEntity
  8
DIM
 62
     6
100
AcDbText
 10
167.5214712375112
 20
-6.533688571499688
 30
0.0
 40
1.274999999999999
  1
B
  7
ROMAND
 72
     1
 11
168.1589712375112
 21
-6.533688571499688
 31
0.0
100
AcDbText
  0
TEXT
  5
2E88
330
17
100
AcDbEntity
  8
DIM
 62
     6
100
AcDbText
 10
173.0148271846803
 20
-17.87694029440573
 30
0.0
 40
1.274999999999999
  1
26.5x26.5
  7
ROMANS
100
AcDbText
  0
TEXT
  5
2E89
330
17
100
AcDbEntity
  8
DIM
 62
     6
100
AcDbText
 10
184.2648784582273
 20
-17.87694029440572
 30
0.0
 40
1.274999999999999
  1
.25
  7
ROMANS
100
AcDbText
  0
TEXT
  5
2E92
330
17
100
AcDbEntity
  8
DIM
 62
     6
100
AcDbText
 10
175.364479938991
 20
-10.64267153832211
 30
0.0
 40
1.274999999999999
  1
BOLT
  7
ROMAND
 72
     1
 11
177.7323370818482
 21
-10.64267153832211
 31
0.0
100
AcDbText
  0
TEXT
  5
2E93
330
17
100
AcDbEntity
  8
DIM
 62
     6
100
AcDbText
 10
173.0148271846803
 20
-16.17694029440573
 30
0.0
 40
1.274999999999999
  1
26.5
  7
ROMANS
100
AcDbText
  0
TEXT
  5
2E94
330
17
100
AcDbEntity
  8
DIM
 62
     6
100
AcDbText
 10
174.4841227961339
 20
-12.70695725260783
 30
0.0
 40
1.274999999999999
  1
CIRCLE
  7
ROMAND
 72
     1
 11
177.7323370818482
 21
-12.70695725260783
 31
0.0
100
AcDbText
  0
TEXT
  5
2E95
330
17
100
AcDbEntity
  8
DIM
 62
     6
100
AcDbText
 10
177.0948370818482
 20
-6.487859712125846
 30
0.0
 40
1.274999999999999
  1
C
  7
ROMAND
 72
     1
 11
177.7323370818482
 21
-6.487859712125846
 31
0.0
100
AcDbText
  0
TEXT
  5
2E96
330
17
100
AcDbEntity
  8
DIM
 62
     6
100
AcDbText
 10
184.2648784582273
 20
-16.17694029440572
 30
0.0
 40
1.274999999999999
  1
.25
  7
ROMANS
100
AcDbText
  0
TEXT
  5
2E97
330
17
100
AcDbEntity
  8
DIM
 62
     6
100
AcDbText
 10
183.5582834456559
 20
-12.71000640495673
 30
0.0
 40
1.274999999999999
  1
THICKNESS
 41
0.6121527745811786
  7
ROMAND
 72
     5
 11
189.802241746384
 21
-12.71000640495673
 31
0.0
100
AcDbText
  0
TEXT
  5
2E98
330
17
100
AcDbEntity
  8
DIM
 62
     6
100
AcDbText
 10
186.0155266645741
 20
-6.498422309625347
 30
0.0
 40
1.274999999999999
  1
D
  7
ROMAND
 72
     1
 11
186.6833838074313
 21
-6.498422309625347
 31
0.0
100
AcDbText
  0
TEXT
  5
2EC5
330
17
100
AcDbEntity
  8
DIM
 62
     6
100
AcDbText
 10
198.0577739079943
 20
-17.531735419831
 30
0.0
 40
1.08375
  1
10.5x14.5
  7
ROMANS
100
AcDbText
  0
TEXT
  5
2EC6
330
17
100
AcDbEntity
  8
DIM
 62
     6
100
AcDbText
 10
208.2746654099624
 20
-17.87694029440572
 30
0.0
 40
1.274999999999999
  1
9.50
  7
ROMANS
100
AcDbText
  0
TEXT
  5
2ECF
330
17
100
AcDbEntity
  8
DIM
 62
     6
100
AcDbText
 10
198.0577739079943
 20
-16.10931239029387
 30
0.0
 40
1.08375
  1
10.5x14.5
  7
ROMANS
100
AcDbText
  0
TEXT
  5
2ED0
330
17
100
AcDbEntity
  8
DIM
 62
     6
100
AcDbText
 10
201.3112567669476
 20
-6.437016200980487
 30
0.0
 40
1.274999999999999
  1
F
  7
ROMAND
 72
     1
 11
201.9183996240904
 21
-6.437016200980487
 31
0.0
100
AcDbText
  0
TEXT
  5
2ED1
330
17
100
AcDbEntity
  8
DIM
 62
     6
100
AcDbText
 10
200.1337776485158
 20
-12.74857713477491
 30
0.0
 40
1.274999999999999
  1
DIM.
  7
ROMAND
 72
     1
 11
202.1069919342301
 21
-12.74857713477491
 31
0.0
100
AcDbText
  0
TEXT
  5
2ED2
330
17
100
AcDbEntity
  8
DIM
 62
     6
100
AcDbText
 10
199.2073425160522
 20
-10.67472773548909
 30
0.0
 40
1.274999999999999
  1
ACCESS
 41
0.7422143509373236
  7
ROMAND
 72
     5
 11
204.5247781874103
 21
-10.67472773548909
 31
0.0
100
AcDbText
  0
TEXT
  5
2ED3
330
17
100
AcDbEntity
  8
DIM
 62
     6
100
AcDbText
 10
199.2879092176726
 20
-8.519146009324408
 30
0.0
 40
1.274999999999999
  1
CLEAR
 41
0.924657234356691
  7
ROMAND
 72
     5
 11
204.5650601480369
 21
-8.519146009324408
 31
0.0
100
AcDbText
  0
TEXT
  5
2ED4
330
17
100
AcDbEntity
  8
DIM
 62
     6
100
AcDbText
 10
191.9727014510758
 20
-12.76334105077905
 30
0.0
 40
1.274999999999999
  1
DIM.
  7
ROMAND
 72
     1
 11
193.9459157367901
 21
-12.76334105077905
 31
0.0
100
AcDbText
  0
TEXT
  5
2ED5
330
17
100
AcDbEntity
  8
DIM
 62
     6
100
AcDbText
 10
193.3387728796472
 20
-6.493762728756969
 30
0.0
 40
1.274999999999999
  1
E
  7
ROMAND
 72
     1
 11
193.9459157367901
 21
-6.493762728756969
 31
0.0
100
AcDbText
  0
TEXT
  5
2ED6
330
17
100
AcDbEntity
  8
DIM
 62
     6
100
AcDbText
 10
208.2746654099624
 20
-16.17694029440572
 30
0.0
 40
1.274999999999999
  1
9.50
  7
ROMANS
100
AcDbText
  0
TEXT
  5
2ED7
330
17
100
AcDbEntity
  8
DIM
 62
     6
100
AcDbText
 10
207.2390380683548
 20
-12.77005707297198
 30
0.0
 40
1.274999999999999
  1
DISTANCE
 41
0.5816937375382633
  7
ROMAND
 72
     5
 11
212.3953375561047
 21
-12.77005707297198
 31
0.0
100
AcDbText
  0
TEXT
  5
2ED8
330
17
100
AcDbEntity
  8
DIM
 62
     6
100
AcDbText
 10
209.3033858851963
 20
-6.465608165232147
 30
0.0
 40
1.274999999999999
  1
G
  7
ROMAND
 72
     1
 11
209.9408858851963
 21
-6.465608165232147
 31
0.0
100
AcDbText
  0
TEXT
  5
2ED9
330
17
100
AcDbEntity
  8
DIM
 62
     6
100
AcDbText
 10
214.6556130572377
 20
-17.87694029440572
 30
0.0
 40
1.274999999999999
  1
6.50
  7
ROMANS
100
AcDbText
  0
TEXT
  5
2EE2
330
17
100
AcDbEntity
  8
DIM
 62
     6
100
AcDbText
 10
223.241301449753
 20
-18.29811825139098
 30
0.0
 40
1.274999999999999
  1
10
  7
ROMANS
100
AcDbText
  0
TEXT
  5
2EE3
330
17
100
AcDbEntity
  8
DIM
 62
     6
100
AcDbText
 10
221.8330995193174
 20
-12.77005707297198
 30
0.0
 40
1.274999999999999
  1
DISTANCE
 41
0.5816937375382633
  7
ROMAND
 72
     5
 11
226.9893990070673
 21
-12.77005707297198
 31
0.0
100
AcDbText
  0
TEXT
  5
2EE4
330
17
100
AcDbEntity
  8
DIM
 62
     6
100
AcDbText
 10
215.1341855471927
 20
-12.77005707297198
 30
0.0
 40
1.274999999999999
  1
DISTANCE
 41
0.5816937375382569
  7
ROMAND
 72
     5
 11
220.2904850349426
 21
-12.77005707297198
 31
0.0
100
AcDbText
  0
TEXT
  5
2EE5
330
17
100
AcDbEntity
  8
DIM
 62
     6
100
AcDbText
 10
214.6556130572377
 20
-16.17694029440572
 30
0.0
 40
1.274999999999999
  1
6.50
  7
ROMANS
100
AcDbText
  0
TEXT
  5
2EE6
330
17
100
AcDbEntity
  8
DIM
 62
     6
100
AcDbText
 10
217.0742901988299
 20
-6.405779377891981
 30
0.0
 40
1.274999999999999
  1
H
  7
ROMAND
 72
     1
 11
217.7421473416871
 21
-6.405779377891981
 31
0.0
100
AcDbText
  0
TEXT
  5
2EE7
330
17
100
AcDbEntity
  8
DIM
 62
     6
100
AcDbText
 10
223.241301449753
 20
-16.59811825139096
 30
0.0
 40
1.274999999999999
  1
10
  7
ROMANS
100
AcDbText
  0
TEXT
  5
2EE8
330
17
100
AcDbEntity
  8
DIM
 62
     6
100
AcDbText
 10
224.2159703106827
 20
-6.518978788093399
 30
0.0
 40
1.274999999999999
  1
I
  7
ROMAND
 72
     1
 11
224.489184596397
 21
-6.518978788093399
 31
0.0
100
AcDbText
  0
LINE
  5
2FC3
330
17
100
AcDbEntity
  8
CENTER
100
AcDbLine
 10
186.6580010761675
 20
34.22357486861408
 30
0.0
 11
186.6580010761675
 21
33.38687544103406
 31
0.0
  0
ARC
  5
2FC4
330
17
100
AcDbEntity
  8
OBJECT
100
AcDbCircle
 10
186.6580010761675
 20
33.80522515482418
 30
0.0
 40
0.46875
100
AcDbArc
 50
263.4041692747329
 51
96.59583072526716
  0
CIRCLE
  5
2FC5
330
17
100
AcDbEntity
  8
OBJECT
100
AcDbCircle
 10
186.6580010761675
 20
33.80522515482418
 30
0.0
 40
0.21875
  0
LINE
  5
2FC6
330
17
100
AcDbEntity
  8
CENTER
100
AcDbLine
 10
182.0330010761674
 20
34.22357486861408
 30
0.0
 11
182.0330010761674
 21
33.38687544103406
 31
0.0
  0
CIRCLE
  5
2FC7
330
17
100
AcDbEntity
  8
OBJECT
100
AcDbCircle
 10
182.0330010761674
 20
33.80522515482418
 30
0.0
 40
0.21875
  0
ARC
  5
2FC8
330
17
100
AcDbEntity
  8
OBJECT
100
AcDbCircle
 10
182.0330010761674
 20
33.80522515482418
 30
0.0
 40
0.46875
100
AcDbArc
 50
83.40416927473285
 51
276.5958307252672
  0
CIRCLE
  5
2FC9
330
17
100
AcDbEntity
  8
OBJECT
100
AcDbCircle
 10
184.3455010761674
 20
33.80522515482418
 30
0.0
 40
1.5
  0
LINE
  5
2FCA
330
17
100
AcDbEntity
  8
CENTER
100
AcDbLine
 10
184.3455010761674
 20
31.11938361833284
 30
0.0
 11
184.3455010761674
 21
36.49106669131531
 31
0.0
  0
CIRCLE
  5
2FCB
330
17
100
AcDbEntity
  8
OBJECT
100
AcDbCircle
 10
184.3455010761674
 20
33.80522515482418
 30
0.0
 40
1.8125
  0
LINE
  5
2FCC
330
17
100
AcDbEntity
  8
CENTER
100
AcDbLine
 10
181.0971595396761
 20
33.80522515482418
 30
0.0
 11
187.5938426126587
 21
33.80522515482418
 31
0.0
  0
ARC
  5
2FCD
330
17
100
AcDbEntity
  8
OBJECT
100
AcDbCircle
 10
184.3455010761674
 20
33.80522515482418
 30
0.0
 40
2.25
100
AcDbArc
 50
193.1916614505338
 51
346.8083385494662
  0
ARC
  5
2FCE
330
17
100
AcDbEntity
  8
OBJECT
100
AcDbCircle
 10
182.0940230356269
 20
33.27749143128192
 30
0.0
 40
0.0625
100
AcDbArc
 50
13.1916614505782
 51
96.59583072527723
  0
ARC
  5
2FCF
330
17
100
AcDbEntity
  8
OBJECT
100
AcDbCircle
 10
186.596979116708
 20
33.27749143128192
 30
0.0
 40
0.0625
100
AcDbArc
 50
83.40416927472276
 51
166.8083385494218
  0
ARC
  5
2FD0
330
17
100
AcDbEntity
  8
OBJECT
100
AcDbCircle
 10
184.3455010761674
 20
33.80522515482418
 30
0.0
 40
2.25
100
AcDbArc
 50
13.19166145053376
 51
166.8083385494662
  0
ARC
  5
2FD1
330
17
100
AcDbEntity
  8
OBJECT
100
AcDbCircle
 10
182.0940230356269
 20
34.33295887836646
 30
0.0
 40
0.0625
100
AcDbArc
 50
263.4041692747227
 51
346.8083385494218
  0
ARC
  5
2FD2
330
17
100
AcDbEntity
  8
OBJECT
100
AcDbCircle
 10
186.596979116708
 20
34.33295887836646
 30
0.0
 40
0.0625
100
AcDbArc
 50
193.1916614505782
 51
276.5958307252773
  0
LINE
  5
3653
330
17
100
AcDbEntity
  8
DIM
 62
     6
100
AcDbLine
 10
181.8268858928879
 20
90.93238134647359
 30
0.0
 11
164.2223292220923
 21
103.3134324888228
 31
0.0
  0
LINE
  5
3654
330
17
100
AcDbEntity
  8
DIM
 62
     6
100
AcDbLine
 39
20.0
 10
162.7223292220923
 20
103.3134324888228
 30
0.0
 11
153.5199759860145
 21
103.3134324888228
 31
0.0
  0
TEXT
  5
3655
330
17
100
AcDbEntity
  8
DIM
 62
     6
100
AcDbText
 10
148.0692162020291
 20
98.71606946874805
 30
0.0
 40
0.9375
  1
SPECIFY SIZE:
  7
ROMAND
100
AcDbText
  0
TEXT
  5
3656
330
17
100
AcDbEntity
  8
DIM
 62
     6
100
AcDbText
 10
147.3925969789152
 20
100.471178099188
 30
0.0
 40
1.5
  1
(OPTIONAL)
  7
ROMANS
100
AcDbText
  0
LINE
  5
3657
330
17
100
AcDbEntity
  8
DIM
 62
     6
100
AcDbLine
 10
164.2223292220923
 20
103.3134324888228
 30
0.0
 11
162.7223292220923
 21
103.3134324888228
 31
0.0
  0
LINE
  5
3658
330
17
100
AcDbEntity
  8
DIM
 62
     6
100
AcDbLine
 39
25.0
 10
147.9593934550434
 20
98.45852176126712
 30
0.0
 11
158.3208813303722
 21
98.45852176126712
 31
0.0
  0
TEXT
  5
3659
330
17
100
AcDbEntity
  8
DIM
 62
     6
100
AcDbText
 10
147.7866691142957
 20
96.8154881481505
 30
0.0
 40
0.9375
  1
1.25" 1.5" 2" 
  7
ROMAND
100
AcDbText
  0
TEXT
  5
365A
330
17
100
AcDbEntity
  8
DIM
 62
     6
100
AcDbText
 10
147.8487650083927
 20
95.16831806357821
 30
0.0
 40
0.9375
  1
3" OR 4"
  7
ROMAND
100
AcDbText
  0
TEXT
  5
365B
330
17
100
AcDbEntity
  8
DIM
 62
     6
100
AcDbText
 10
147.6525512078849
 20
102.588554906305
 30
0.0
 40
1.5
  1
VENT
  7
ROMANS
100
AcDbText
  0
LINE
  5
365C
330
17
100
AcDbEntity
  8
DIM
 62
     6
100
AcDbLine
 39
25.0
 10
147.1861924310489
 20
87.07082034600899
 30
0.0
 11
157.3492730182563
 21
87.07082034600899
 31
0.0
  0
TEXT
  5
365D
330
17
100
AcDbEntity
  8
DIM
 62
     6
100
AcDbText
 10
146.9318336980828
 20
89.13329188476202
 30
0.0
 40
1.5
  1
(OPTIONAL)
  7
ROMANS
100
AcDbText
  0
TEXT
  5
365E
330
17
100
AcDbEntity
  8
DIM
 62
     6
100
AcDbText
 10
147.2268452023919
 20
87.34646478281725
 30
0.0
 40
0.9375
  1
SPECIFY SIZE:
  7
ROMAND
100
AcDbText
  0
TEXT
  5
365F
330
17
100
AcDbEntity
  8
DIM
 62
     6
100
AcDbText
 10
147.2544577033969
 20
85.44588346221971
 30
0.0
 40
0.9375
  1
1.25" 1.5" 2" 
  7
ROMAND
100
AcDbText
  0
TEXT
  5
3660
330
17
100
AcDbEntity
  8
DIM
 62
     6
100
AcDbText
 10
147.4287176016646
 20
83.79871337764742
 30
0.0
 40
0.9375
  1
3" OR 4"
  7
ROMAND
100
AcDbText
  0
TEXT
  5
3661
330
17
100
AcDbEntity
  8
DIM
 62
     6
100
AcDbText
 10
146.9318336980828
 20
91.32851363392495
 30
0.0
 40
1.5
  1
DISCHARGE
  7
ROMANS
100
AcDbText
  0
LEADER
  5
3662
330
17
100
AcDbEntity
  8
DIM
100
AcDbLeader
  3
STANDARD
 76
     3
 10
176.1857544773218
 20
84.31709050081607
 30
0.0
 10
161.8387451843915
 20
90.78343119599992
 30
0.0
 10
159.5245697391888
 20
90.78343119599992
 30
0.0
1001
ACAD
1000
DSTYLE
1002
{
1070
   340
1005
34
1070
   174
1070
     1
1070
   147
1040
0.75
1070
   287
1070
     0
1070
    42
1040
0.75
1070
    44
1040
1.5
1070
   271
1070
     2
1070
   141
1040
-1.5
1070
    41
1040
1.5
1002
}
  0
TEXT
  5
3663
330
17
100
AcDbEntity
  8
DIM
 62
     6
100
AcDbText
 10
145.0152683883714
 20
68.95138672717614
 30
0.0
 40
1.5
  1
CORD SEAL
  7
ROMANS
100
AcDbText
  0
TEXT
  5
3664
330
17
100
AcDbEntity
  8
DIM
 62
     6
100
AcDbText
 10
145.3288218215265
 20
63.95045613567233
 30
0.0
 40
0.9375
  1
SPECIFY CORD GRIPS
  7
ROMAND
100
AcDbText
  0
TEXT
  5
3665
330
17
100
AcDbEntity
  8
DIM
 62
     6
100
AcDbText
 10
145.334890612651
 20
65.79431555284003
 30
0.0
 40
0.9375
  1
3/8"  IF OVER 3/8" 
  7
ROMAND
100
AcDbText
  0
TEXT
  5
3666
330
17
100
AcDbEntity
  8
DIM
 62
     6
100
AcDbText
 10
145.1393740124047
 20
67.53994929864376
 30
0.0
 40
0.9375
  1
USE FOR CORDS UP TO
  7
ROMAND
100
AcDbText
  0
TEXT
  5
3667
330
17
100
AcDbEntity
  8
DIM
 62
     6
100
AcDbText
 10
145.0152683883714
 20
71.01567244146185
 30
0.0
 40
1.5
  1
ELECTRIC
  7
ROMANS
100
AcDbText
  0
LEADER
  5
3668
330
17
100
AcDbEntity
  8
DIM
100
AcDbLeader
  3
STANDARD
 76
     3
 10
176.602935128321
 20
74.27020606153245
 30
0.0
 10
164.7177650304749
 20
67.00369118711677
 30
0.0
 10
162.5700711484708
 20
67.00369118711677
 30
0.0
1001
ACAD
1000
DSTYLE
1002
{
1070
   340
1005
34
1070
   174
1070
     1
1070
   147
1040
0.75
1070
   287
1070
     0
1070
    42
1040
0.75
1070
    44
1040
1.5
1070
   271
1070
     2
1070
   141
1040
-1.5
1070
    41
1040
1.5
1002
}
  0
LINE
  5
3669
330
17
100
AcDbEntity
  8
DIM
 62
     6
100
AcDbLine
 39
25.0
 10
147.9593934550434
 20
43.35444866419408
 30
0.0
 11
158.3208813303722
 21
43.35444866419408
 31
0.0
  0
LINE
  5
366A
330
17
100
AcDbEntity
  8
DIM
 62
     6
100
AcDbLine
 39
20.0
 10
162.7223292220923
 20
48.20935939174977
 30
0.0
 11
153.5199759860145
 21
48.20935939174977
 31
0.0
  0
TEXT
  5
366B
330
17
100
AcDbEntity
  8
DIM
 62
     6
100
AcDbText
 10
147.6525512078849
 20
47.48448180923197
 30
0.0
 40
1.5
  1
VENT
  7
ROMANS
100
AcDbText
  0
TEXT
  5
366C
330
17
100
AcDbEntity
  8
DIM
 62
     6
100
AcDbText
 10
147.8487650083927
 20
40.06424496650517
 30
0.0
 40
0.9375
  1
3" OR 4"
  7
ROMAND
100
AcDbText
  0
TEXT
  5
366D
330
17
100
AcDbEntity
  8
DIM
 62
     6
100
AcDbText
 10
147.7866691142957
 20
41.71141505107745
 30
0.0
 40
0.9375
  1
1.25" 1.5" 2" 
  7
ROMAND
100
AcDbText
  0
TEXT
  5
366E
330
17
100
AcDbEntity
  8
DIM
 62
     6
100
AcDbText
 10
147.3925969789152
 20
45.367105002115
 30
0.0
 40
1.5
  1
(OPTIONAL)
  7
ROMANS
100
AcDbText
  0
TEXT
  5
366F
330
17
100
AcDbEntity
  8
DIM
 62
     6
100
AcDbText
 10
148.0692162020291
 20
43.61199637167501
 30
0.0
 40
0.9375
  1
SPECIFY SIZE:
  7
ROMAND
100
AcDbText
  0
LEADER
  5
3670
330
17
100
AcDbEntity
  8
DIM
100
AcDbLeader
  3
STANDARD
 76
     2
 10
182.4601992086188
 20
35.03328739600642
 30
0.0
 10
162.7223292220923
 20
48.20935939174977
 30
0.0
1001
ACAD
1000
DSTYLE
1002
{
1070
   340
1005
34
1070
   174
1070
     1
1070
   147
1040
0.75
1070
   287
1070
     0
1070
    42
1040
0.75
1070
    44
1040
1.5
1070
   271
1070
     2
1070
   141
1040
-1.5
1070
    41
1040
1.5
1002
}
  0
LINE
  5
3671
330
17
100
AcDbEntity
  8
DIM
 62
     6
100
AcDbLine
 39
25.0
 10
147.1861924310489
 20
32.07808015207645
 30
0.0
 11
157.3492730182563
 21
32.07808015207645
 31
0.0
  0
LEADER
  5
3672
330
17
100
AcDbEntity
  8
DIM
100
AcDbLeader
  3
STANDARD
 76
     3
 10
176.1857544773218
 20
29.32435030688353
 30
0.0
 10
161.8387451843915
 20
35.79069100206738
 30
0.0
 10
159.5245697391888
 20
35.79069100206738
 30
0.0
1001
ACAD
1000
DSTYLE
1002
{
1070
   340
1005
34
1070
   174
1070
     1
1070
   147
1040
0.75
1070
   287
1070
     0
1070
    42
1040
0.75
1070
    44
1040
1.5
1070
   271
1070
     2
1070
   141
1040
-1.5
1070
    41
1040
1.5
1002
}
  0
TEXT
  5
3673
330
17
100
AcDbEntity
  8
DIM
 62
     6
100
AcDbText
 10
146.9318336980828
 20
34.14055169082948
 30
0.0
 40
1.5
  1
(OPTIONAL)
  7
ROMANS
100
AcDbText
  0
TEXT
  5
3674
330
17
100
AcDbEntity
  8
DIM
 62
     6
100
AcDbText
 10
147.2544577033969
 20
30.45314326828716
 30
0.0
 40
0.9375
  1
1.25" 1.5" 2" 
  7
ROMAND
100
AcDbText
  0
TEXT
  5
3675
330
17
100
AcDbEntity
  8
DIM
 62
     6
100
AcDbText
 10
147.4287176016646
 20
28.80597318371487
 30
0.0
 40
0.9375
  1
3" OR 4"
  7
ROMAND
100
AcDbText
  0
TEXT
  5
3676
330
17
100
AcDbEntity
  8
DIM
 62
     6
100
AcDbText
 10
147.2268452023919
 20
32.3537245888847
 30
0.0
 40
0.9375
  1
SPECIFY SIZE:
  7
ROMAND
100
AcDbText
  0
TEXT
  5
3677
330
17
100
AcDbEntity
  8
DIM
 62
     6
100
AcDbText
 10
146.9318336980828
 20
36.3357734399924
 30
0.0
 40
1.5
  1
DISCHARGE
  7
ROMANS
100
AcDbText
  0
TEXT
  5
3678
330
17
100
AcDbEntity
  8
DIM
 62
     6
100
AcDbText
 10
145.1393740124047
 20
12.54720910471121
 30
0.0
 40
0.9375
  1
USE FOR CORDS UP TO
  7
ROMAND
100
AcDbText
  0
TEXT
  5
3679
330
17
100
AcDbEntity
  8
DIM
 62
     6
100
AcDbText
 10
145.334890612651
 20
10.80157535890748
 30
0.0
 40
0.9375
  1
3/8"  IF OVER 3/8" 
  7
ROMAND
100
AcDbText
  0
TEXT
  5
367A
330
17
100
AcDbEntity
  8
DIM
 62
     6
100
AcDbText
 10
145.3288218215265
 20
8.957715941739792
 30
0.0
 40
0.9375
  1
SPECIFY CORD GRIPS
  7
ROMAND
100
AcDbText
  0
LEADER
  5
367B
330
17
100
AcDbEntity
  8
DIM
100
AcDbLeader
  3
STANDARD
 76
     3
 10
176.602935128321
 20
19.2774658675999
 30
0.0
 10
164.7177650304749
 20
12.01095099318422
 30
0.0
 10
162.5700711484708
 20
12.01095099318422
 30
0.0
1001
ACAD
1000
DSTYLE
1002
{
1070
   340
1005
34
1070
   174
1070
     1
1070
   147
1040
0.75
1070
   287
1070
     0
1070
    42
1040
0.75
1070
    44
1040
1.5
1070
   271
1070
     2
1070
   141
1040
-1.5
1070
    41
1040
1.5
1002
}
  0
TEXT
  5
367C
330
17
100
AcDbEntity
  8
DIM
 62
     6
100
AcDbText
 10
145.0152683883714
 20
13.95864653324359
 30
0.0
 40
1.5
  1
CORD SEAL
  7
ROMANS
100
AcDbText
  0
TEXT
  5
367D
330
17
100
AcDbEntity
  8
DIM
 62
     6
100
AcDbText
 10
145.0152683883714
 20
16.0229322475293
 30
0.0
 40
1.5
  1
ELECTRIC
  7
ROMANS
100
AcDbText
  0
LEADER
  5
367E
330
17
100
AcDbEntity
  8
DIM
100
AcDbLeader
  3
STANDARD
 76
     2
 10
179.7258312986405
 20
18.10438314873204
 30
0.0
 10
164.3999693584881
 20
5.494507345935019
 30
0.0
1001
ACAD
1000
DSTYLE
1002
{
1070
   340
1005
34
1070
   174
1070
     1
1070
   147
1040
0.75
1070
   287
1070
     0
1070
    42
1040
0.75
1070
    44
1040
1.5
1070
   271
1070
     2
1070
   141
1040
-1.5
1070
    41
1040
1.5
1002
}
  0
TEXT
  5
3683
330
17
100
AcDbEntity
  8
BORDER
 62
     6
100
AcDbText
 10
200.097865634308
 20
-33.2791155569733
 30
0.0
 40
1.539667731971834
  1
10082_B
  7
ROMANC
100
AcDbText
  0
CIRCLE
  5
369A
330
17
100
AcDbEntity
  8
OBJECT
100
AcDbCircle
 10
176.3455010761674
 20
92.04796534875674
 30
0.0
 40
0.28125
  0
CIRCLE
  5
369B
330
17
100
AcDbEntity
  8
OBJECT
100
AcDbCircle
 10
192.3455010761674
 20
92.04796534875674
 30
0.0
 40
0.28125
  0
CIRCLE
  5
369C
330
17
100
AcDbEntity
  8
OBJECT
100
AcDbCircle
 10
192.3455010761674
 20
65.54796534875674
 30
0.0
 40
0.28125
  0
CIRCLE
  5
369D
330
17
100
AcDbEntity
  8
OBJECT
100
AcDbCircle
 10
176.3455010761674
 20
65.54796534875674
 30
0.0
 40
0.28125
  0
DIMENSION
  5
36F9
330
17
100
AcDbEntity
  8
DIM
100
AcDbDimension
  2
*D5
 10
203.246193840176
 20
27.80522515482442
 30
0.0
 11
203.246193840176
 21
25.80522515482433
 31
0.0
 70
    32
 71
     5
 42
4.000000000000227
  3
STANDARD
100
AcDbAlignedDimension
 13
198.3455010761674
 23
23.80522515482419
 33
0.0
 14
194.0938426126591
 24
27.80522515482442
 34
0.0
 50
90.0
100
AcDbRotatedDimension
1001
ACAD
1000
DSTYLE
1002
{
1070
    41
1040
1.5
1070
    42
1040
0.75
1070
    44
1040
1.5
1070
   141
1040
-1.5
1070
   147
1040
0.75
1070
   174
1070
     1
1070
   271
1070
     2
1070
   289
1070
     0
1070
   340
1005
34
1002
}
  0
TEXT
  5
3707
330
17
100
AcDbEntity
  8
DIM
 62
     6
100
AcDbText
 10
190.3482761508196
 20
-17.86846238906652
 30
0.0
 40
0.975375
  1
12.5X16.5
  7
ROMANS
100
AcDbText
  0
LEADER
  5
3709
330
17
100
AcDbEntity
  8
DIM
100
AcDbLeader
  3
STANDARD
 73
     0
 74
     0
 75
     1
 40
7.857142857142856
 41
25.92857142857144
 76
     3
 10
185.9850640575893
 20
11.91775977191135
 30
0.0
 10
191.2641983375206
 20
7.299185975164391
 30
0.0
 10
192.7641983375206
 20
7.299185975164391
 30
0.0
340
370A
213
0.0
223
-0.75
233
0.0
1001
ACAD
1000
DSTYLE
1002
{
1070
    77
1070
     0
1070
    41
1040
1.5
1070
    42
1040
0.75
1070
    44
1040
1.5
1070
   141
1040
-1.5
1070
   147
1040
0.75
1070
   174
1070
     1
1070
   271
1070
     2
1070
   289
1070
     0
1070
   340
1005
34
1002
}
  0
MTEXT
  5
370A
102
{ACAD_REACTORS
330
3709
102
}
330
17
100
AcDbEntity
  8
DIM
100
AcDbMText
 10
193.5141983375206
 20
8.049185975164391
 30
0.0
 40
1.5
 41
0.0
 71
     1
 72
     1
  1
7" I-PLATE\PW/ 5" CLEAR ACCESS\P(OPTIONAL)
  7
ROMAND
 73
     1
 44
1.0
1001
ACAD
1000
MTEXTBEGIN
1070
    73
1070
     1
1070
    44
1040
1.0
1070
    74
1070
     0
1000
MTEXTEND
  0
DIMENSION
  5
3755
330
17
100
AcDbEntity
  8
DIM
100
AcDbDimension
  2
*D6
 10
165.7014690869827
 20
19.80522515482442
 30
0.0
 11
165.7014690869827
 21
21.80522515482433
 31
0.0
 70
    32
 71
     5
 42
3.999999999999769
  3
STANDARD
100
AcDbAlignedDimension
 13
166.8455010761674
 23
23.80522515482419
 33
0.0
 14
176.1598553447486
 24
19.80522515482442
 34
0.0
 50
90.0
100
AcDbRotatedDimension
1001
ACAD
1000
DSTYLE
1002
{
1070
    41
1040
1.5
1070
    42
1040
0.75
1070
    44
1040
1.5
1070
   141
1040
-1.5
1070
   147
1040
0.75
1070
   174
1070
     1
1070
   271
1070
     2
1070
   289
1070
     0
1070
   340
1005
34
1002
}
  0
ARC
  5
376D
330
17
100
AcDbEntity
  8
OBJECT
100
AcDbCircle
 10
186.596979116708
 20
89.325699072299
 30
0.0
 40
0.0625
100
AcDbArc
 50
193.1916614505782
 51
276.5958307252773
  0
ARC
  5
376E
330
17
100
AcDbEntity
  8
OBJECT
100
AcDbCircle
 10
182.0940230356269
 20
89.325699072299
 30
0.0
 40
0.0625
100
AcDbArc
 50
263.4041692747227
 51
346.8083385494218
  0
ARC
  5
376F
330
17
100
AcDbEntity
  8
OBJECT
100
AcDbCircle
 10
184.3455010761674
 20
88.79796534875673
 30
0.0
 40
2.25
100
AcDbArc
 50
13.19166145053376
 51
166.8083385494662
  0
ARC
  5
3770
330
17
100
AcDbEntity
  8
OBJECT
100
AcDbCircle
 10
186.596979116708
 20
88.27023162521447
 30
0.0
 40
0.0625
100
AcDbArc
 50
83.40416927472276
 51
166.8083385494218
  0
ARC
  5
3771
330
17
100
AcDbEntity
  8
OBJECT
100
AcDbCircle
 10
182.0940230356269
 20
88.27023162521447
 30
0.0
 40
0.0625
100
AcDbArc
 50
13.1916614505782
 51
96.59583072527723
  0
ARC
  5
3772
330
17
100
AcDbEntity
  8
OBJECT
100
AcDbCircle
 10
184.3455010761674
 20
88.79796534875673
 30
0.0
 40
2.25
100
AcDbArc
 50
193.1916614505338
 51
346.8083385494662
  0
LINE
  5
3773
330
17
100
AcDbEntity
  8
CENTER
100
AcDbLine
 10
181.0971595396761
 20
88.79796534875673
 30
0.0
 11
187.5938426126587
 21
88.79796534875673
 31
0.0
  0
CIRCLE
  5
3774
330
17
100
AcDbEntity
  8
OBJECT
100
AcDbCircle
 10
184.3455010761674
 20
88.79796534875673
 30
0.0
 40
1.8125
  0
LINE
  5
3775
330
17
100
AcDbEntity
  8
CENTER
100
AcDbLine
 10
184.3455010761674
 20
86.11212381226538
 30
0.0
 11
184.3455010761674
 21
91.48380688524786
 31
0.0
  0
CIRCLE
  5
3776
330
17
100
AcDbEntity
  8
OBJECT
100
AcDbCircle
 10
184.3455010761674
 20
88.79796534875673
 30
0.0
 40
1.5
  0
ARC
  5
3777
330
17
100
AcDbEntity
  8
OBJECT
100
AcDbCircle
 10
182.0330010761674
 20
88.79796534875673
 30
0.0
 40
0.46875
100
AcDbArc
 50
83.40416927473285
 51
276.5958307252672
  0
CIRCLE
  5
3778
330
17
100
AcDbEntity
  8
OBJECT
100
AcDbCircle
 10
182.0330010761674
 20
88.79796534875673
 30
0.0
 40
0.21875
  0
LINE
  5
3779
330
17
100
AcDbEntity
  8
CENTER
100
AcDbLine
 10
182.0330010761674
 20
89.21631506254662
 30
0.0
 11
182.0330010761674
 21
88.3796156349666
 31
0.0
  0
CIRCLE
  5
377A
330
17
100
AcDbEntity
  8
OBJECT
100
AcDbCircle
 10
186.6580010761675
 20
88.79796534875673
 30
0.0
 40
0.21875
  0
ARC
  5
377B
330
17
100
AcDbEntity
  8
OBJECT
100
AcDbCircle
 10
186.6580010761675
 20
88.79796534875673
 30
0.0
 40
0.46875
100
AcDbArc
 50
263.4041692747329
 51
96.59583072526716
  0
LINE
  5
377C
330
17
100
AcDbEntity
  8
CENTER
100
AcDbLine
 10
186.6580010761675
 20
89.21631506254662
 30
0.0
 11
186.6580010761675
 21
88.3796156349666
 31
0.0
  0
LINE
  5
377D
330
17
100
AcDbEntity
  8
CENTER
 62
     3
100
AcDbLine
 10
184.3455010761674
 20
86.79796534875674
 30
0.0
 11
184.3455010761674
 21
90.79796534875674
 31
0.0
  0
LINE
  5
377E
330
17
100
AcDbEntity
  8
CENTER
 62
     3
100
AcDbLine
 10
182.3455010761674
 20
88.79796534875673
 30
0.0
 11
186.3455010761675
 21
88.79796534875673
 31
0.0
  0
ARC
  5
377F
330
17
100
AcDbEntity
  8
OBJECT
100
AcDbCircle
 10
177.8455010761675
 20
80.79796534875674
 30
0.0
 40
6.249999999999842
100
AcDbArc
 50
0.0000000000011875
 51
180.0000000000011
  0
ARC
  5
3780
330
17
100
AcDbEntity
  8
HIDDEN
100
AcDbCircle
 10
177.8455010761677
 20
80.79796534875674
 30
0.0
 40
5.249999999999842
100
AcDbArc
 50
0.0000000000011875
 51
180.0000000000011
  0
CIRCLE
  5
3781
330
17
100
AcDbEntity
  8
OBJECT
100
AcDbCircle
 10
177.8455010761673
 20
86.54796534875696
 30
0.0
 40
0.281
  0
LINE
  5
3782
330
17
100
AcDbEntity
  8
HIDDEN
100
AcDbLine
 10
172.5955010761675
 20
76.79796534875674
 30
0.0
 11
172.5955010761675
 21
80.79796534875674
 31
0.0
  0
CIRCLE
  5
3783
330
17
100
AcDbEntity
  8
OBJECT
100
AcDbCircle
 10
172.0955010761673
 20
78.79796534875719
 30
0.0
 40
0.281
  0
LINE
  5
3785
330
17
100
AcDbEntity
  8
OBJECT
100
AcDbLine
 10
171.5955010761672
 20
76.79796534875674
 30
0.0
 11
171.5955010761672
 21
80.79796534875674
 31
0.0
  0
ARC
  5
3786
330
17
100
AcDbEntity
  8
OBJECT
100
AcDbCircle
 10
177.8455010761675
 20
76.79796534875674
 30
0.0
 40
6.249999999999842
100
AcDbArc
 50
180.0000000000011
 51
0.0000000000011875
  0
ARC
  5
3787
330
17
100
AcDbEntity
  8
HIDDEN
100
AcDbCircle
 10
177.8455010761677
 20
76.79796534875674
 30
0.0
 40
5.249999999999842
100
AcDbArc
 50
180.0000000000011
 51
0.0000000000011875
  0
CIRCLE
  5
3788
330
17
100
AcDbEntity
  8
OBJECT
100
AcDbCircle
 10
177.8455010761679
 20
71.04796534875696
 30
0.0
 40
0.281
  0
TEXT
  5
3789
330
17
100
AcDbEntity
  8
OBJECT
100
AcDbText
 10
177.487852309071
 20
75.79825000214727
 30
0.0
 40
0.15240234375
  1
A
 50
13.59949829976555
  7
ROMANS
100
AcDbText
  0
TEXT
  5
378A
330
17
100
AcDbEntity
  8
OBJECT
100
AcDbText
 10
177.3038088778593
 20
75.69667864661029
 30
0.0
 40
0.15240234375
  1
E
 50
26.26877368861098
  7
ROMANS
100
AcDbText
  0
TEXT
  5
378B
330
17
100
AcDbEntity
  8
OBJECT
100
AcDbText
 10
177.1444668902042
 20
75.58699963735755
 30
0.0
 40
0.15240234375
  1
S
 50
33.95887524537889
  7
ROMANS
100
AcDbText
  0
TEXT
  5
378C
330
17
100
AcDbEntity
  8
OBJECT
100
AcDbText
 10
177.6879337543331
 20
75.8583966484956
 30
0.0
 40
0.15240234375
  1
L
 50
13.39634873906212
  7
ROMANS
100
AcDbText
  0
ARC
  5
378D
330
17
100
AcDbEntity
  8
OBJECT
100
AcDbCircle
 10
177.8455010761678
 20
74.79796534875696
 30
0.0
 40
0.1875
100
AcDbArc
 50
323.6359115054082
 51
320.2990105758837
  0
TEXT
  5
378E
330
17
100
AcDbEntity
  8
OBJECT
100
AcDbText
 10
176.778454093121
 20
74.96676763677017
 30
0.0
 40
0.15240234375
  1
R
 50
65.83243894543361
  7
ROMANS
100
AcDbText
  0
TEXT
  5
378F
330
17
100
AcDbEntity
  8
OBJECT
100
AcDbText
 10
176.7349722621071
 20
74.61483972033455
 30
0.0
 40
0.15240234375
  1
 O
 50
76.42067423955125
  7
ROMANS
100
AcDbText
  0
TEXT
  5
3790
330
17
100
AcDbEntity
  8
OBJECT
100
AcDbText
 10
176.7895309772289
 20
74.56990696453342
 30
0.0
 40
0.15240234375
  1
C
 50
87.00890953366885
  7
ROMANS
100
AcDbText
  0
LINE
  5
3791
330
17
100
AcDbEntity
  8
OBJECT
100
AcDbLine
 10
177.9897614244622
 20
74.67819389176502
 30
0.0
 11
178.8841755838875
 21
73.93561085841487
 31
0.0
  0
LINE
  5
3792
330
17
100
AcDbEntity
  8
OBJECT
100
AcDbLine
 10
177.9964883721865
 20
74.68679392058875
 30
0.0
 11
178.8911131775111
 21
73.94403599949881
 31
0.0
  0
LINE
  5
3793
330
17
100
AcDbEntity
  8
CENTER
100
AcDbLine
 10
179.5311468075873
 20
74.79796534875696
 30
0.0
 11
176.1598553447486
 21
74.79796534875696
 31
0.0
  0
CIRCLE
  5
3794
330
17
100
AcDbEntity
  8
OBJECT
100
AcDbCircle
 10
177.8455010761678
 20
74.79796534875696
 30
0.0
 40
1.25
  0
ARC
  5
3795
330
17
100
AcDbEntity
  8
HIDDEN
100
AcDbCircle
 10
177.8455010761678
 20
74.79796534875696
 30
0.0
 40
1.25
100
AcDbArc
 50
320.7992691595525
 51
320.2990105758784
  0
ARC
  5
3796
330
17
100
AcDbEntity
  8
OBJECT
100
AcDbCircle
 10
177.8455010761678
 20
74.79796534875696
 30
0.0
 40
1.349999999999994
100
AcDbArc
 50
320.7622121285538
 51
320.2990105758783
  0
LINE
  5
3797
330
17
100
AcDbEntity
  8
CENTER
100
AcDbLine
 10
177.8455010761678
 20
76.39796534875696
 30
0.0
 11
177.8455010761678
 21
73.19796534875696
 31
0.0
  0
ARC
  5
3798
330
17
100
AcDbEntity
  8
HIDDEN
100
AcDbCircle
 10
177.8455010761678
 20
74.79796534875696
 30
0.0
 40
1.026950953716422
100
AcDbArc
 50
320.9079267598205
 51
320.2990105758775
  0
CIRCLE
  5
3799
330
17
100
AcDbEntity
  8
HIDDEN
100
AcDbCircle
 10
178.2205010761678
 20
75.17296534875696
 30
0.0
 40
0.1875
  0
CIRCLE
  5
379A
330
17
100
AcDbEntity
  8
HIDDEN
100
AcDbCircle
 10
177.4705010761678
 20
75.17296534875696
 30
0.0
 40
0.1875
  0
TEXT
  5
379B
330
17
100
AcDbEntity
  8
OBJECT
100
AcDbText
 10
176.8276399347627
 20
75.15996282566151
 30
0.0
 40
0.15240234375
  1
D
 50
55.24420365131597
  7
ROMANS
100
AcDbText
  0
CIRCLE
  5
379C
330
17
100
AcDbEntity
  8
OBJECT
100
AcDbCircle
 10
183.5955010761673
 20
78.79796534875696
 30
0.0
 40
0.281
  0
LINE
  5
379D
330
17
100
AcDbEntity
  8
OBJECT
100
AcDbLine
 10
184.0955010761673
 20
76.79796534875696
 30
0.0
 11
184.0955010761673
 21
80.79796534875695
 31
0.0
  0
ARC
  5
379E
330
17
100
AcDbEntity
  8
OBJECT
100
AcDbCircle
 10
180.1580010761679
 20
82.79796534875696
 30
0.0
 40
0.46875
100
AcDbArc
 50
263.4041692747329
 51
96.5958307252672
  0
LINE
  5
379F
330
17
100
AcDbEntity
  8
CENTER
100
AcDbLine
 10
180.1580010761679
 20
82.37961563496707
 30
0.0
 11
180.1580010761679
 21
83.21631506254709
 31
0.0
  0
ARC
  5
37A0
330
17
100
AcDbEntity
  8
OBJECT
100
AcDbCircle
 10
180.0969791167084
 20
82.27023162521469
 30
0.0
 40
0.0625
100
AcDbArc
 50
83.40416927472276
 51
166.8083385494218
  0
ARC
  5
37A1
330
17
100
AcDbEntity
  8
OBJECT
100
AcDbCircle
 10
180.0969791167084
 20
83.32569907229922
 30
0.0
 40
0.0625
100
AcDbArc
 50
193.1916614505782
 51
276.5958307252773
  0
CIRCLE
  5
37A2
330
17
100
AcDbEntity
  8
OBJECT
100
AcDbCircle
 10
180.1580010761679
 20
82.79796534875696
 30
0.0
 40
0.21875
  0
ARC
  5
37A3
330
17
100
AcDbEntity
  8
OBJECT
100
AcDbCircle
 10
175.5940230356274
 20
82.27023162521469
 30
0.0
 40
0.0625
100
AcDbArc
 50
13.19166145057822
 51
96.59583072527727
  0
ARC
  5
37A4
330
17
100
AcDbEntity
  8
OBJECT
100
AcDbCircle
 10
175.5940230356274
 20
83.32569907229922
 30
0.0
 40
0.0625
100
AcDbArc
 50
263.4041692747228
 51
346.8083385494218
  0
ARC
  5
37A5
330
17
100
AcDbEntity
  8
OBJECT
100
AcDbCircle
 10
177.8455010761679
 20
82.79796534875696
 30
0.0
 40
2.25
100
AcDbArc
 50
13.1916614505338
 51
166.8083385494662
  0
CIRCLE
  5
37A6
330
17
100
AcDbEntity
  8
OBJECT
100
AcDbCircle
 10
177.8455010761679
 20
82.79796534875696
 30
0.0
 40
1.5
  0
CIRCLE
  5
37A7
330
17
100
AcDbEntity
  8
OBJECT
100
AcDbCircle
 10
177.8455010761679
 20
82.79796534875696
 30
0.0
 40
1.8125
  0
ARC
  5
37A8
330
17
100
AcDbEntity
  8
OBJECT
100
AcDbCircle
 10
177.8455010761679
 20
82.79796534875696
 30
0.0
 40
2.25
100
AcDbArc
 50
193.1916614505338
 51
346.8083385494662
  0
LINE
  5
37A9
330
17
100
AcDbEntity
  8
CENTER
100
AcDbLine
 10
177.8455010761679
 20
85.48380688524831
 30
0.0
 11
177.8455010761679
 21
80.11212381226583
 31
0.0
  0
LINE
  5
37AA
330
17
100
AcDbEntity
  8
CENTER
100
AcDbLine
 39
20.0
 10
177.8455010761673
 20
88.10839887673489
 30
0.0
 11
177.8455010761675
 21
70.54796534875689
 31
0.0
  0
LINE
  5
37AB
330
17
100
AcDbEntity
  8
CENTER
100
AcDbLine
 10
175.5330010761679
 20
82.37961563496707
 30
0.0
 11
175.5330010761679
 21
83.21631506254709
 31
0.0
  0
ARC
  5
37AC
330
17
100
AcDbEntity
  8
OBJECT
100
AcDbCircle
 10
175.5330010761679
 20
82.79796534875696
 30
0.0
 40
0.46875
100
AcDbArc
 50
83.40416927473283
 51
276.5958307252672
  0
LINE
  5
37AD
330
17
100
AcDbEntity
  8
CENTER
100
AcDbLine
 10
174.5971595396765
 20
82.79796534875696
 30
0.0
 11
181.0938426126591
 21
82.79796534875696
 31
0.0
  0
CIRCLE
  5
37AE
330
17
100
AcDbEntity
  8
OBJECT
100
AcDbCircle
 10
175.5330010761679
 20
82.79796534875696
 30
0.0
 40
0.21875
  0
ARC
  5
37AF
330
17
100
AcDbEntity
  8
OBJECT
100
AcDbCircle
 10
193.1580010761679
 20
82.79796534875696
 30
0.0
 40
0.46875
100
AcDbArc
 50
263.4041692747329
 51
96.5958307252672
  0
LINE
  5
37B0
330
17
100
AcDbEntity
  8
CENTER
100
AcDbLine
 10
193.1580010761679
 20
82.37961563496707
 30
0.0
 11
193.1580010761679
 21
83.21631506254709
 31
0.0
  0
ARC
  5
37B1
330
17
100
AcDbEntity
  8
OBJECT
100
AcDbCircle
 10
193.0969791167084
 20
82.27023162521469
 30
0.0
 40
0.0625
100
AcDbArc
 50
83.40416927472276
 51
166.8083385494218
  0
ARC
  5
37B2
330
17
100
AcDbEntity
  8
OBJECT
100
AcDbCircle
 10
193.0969791167084
 20
83.32569907229922
 30
0.0
 40
0.0625
100
AcDbArc
 50
193.1916614505782
 51
276.5958307252773
  0
CIRCLE
  5
37B3
330
17
100
AcDbEntity
  8
OBJECT
100
AcDbCircle
 10
193.1580010761679
 20
82.79796534875696
 30
0.0
 40
0.21875
  0
ARC
  5
37B4
330
17
100
AcDbEntity
  8
OBJECT
100
AcDbCircle
 10
188.5940230356274
 20
82.27023162521469
 30
0.0
 40
0.0625
100
AcDbArc
 50
13.19166145057822
 51
96.59583072527727
  0
ARC
  5
37B5
330
17
100
AcDbEntity
  8
OBJECT
100
AcDbCircle
 10
188.5940230356274
 20
83.32569907229922
 30
0.0
 40
0.0625
100
AcDbArc
 50
263.4041692747228
 51
346.8083385494218
  0
ARC
  5
37B6
330
17
100
AcDbEntity
  8
OBJECT
100
AcDbCircle
 10
190.8455010761679
 20
82.79796534875696
 30
0.0
 40
2.25
100
AcDbArc
 50
13.1916614505338
 51
166.8083385494662
  0
CIRCLE
  5
37B7
330
17
100
AcDbEntity
  8
OBJECT
100
AcDbCircle
 10
190.8455010761679
 20
82.79796534875696
 30
0.0
 40
1.5
  0
CIRCLE
  5
37B8
330
17
100
AcDbEntity
  8
OBJECT
100
AcDbCircle
 10
190.8455010761679
 20
82.79796534875696
 30
0.0
 40
1.8125
  0
ARC
  5
37B9
330
17
100
AcDbEntity
  8
OBJECT
100
AcDbCircle
 10
190.8455010761679
 20
82.79796534875696
 30
0.0
 40
2.25
100
AcDbArc
 50
193.1916614505338
 51
346.8083385494662
  0
LINE
  5
37BA
330
17
100
AcDbEntity
  8
CENTER
100
AcDbLine
 10
190.8455010761679
 20
85.48380688524831
 30
0.0
 11
190.8455010761679
 21
80.11212381226583
 31
0.0
  0
LINE
  5
37BB
330
17
100
AcDbEntity
  8
CENTER
100
AcDbLine
 39
20.0
 10
190.8455010761673
 20
87.97267827202279
 30
0.0
 11
190.8455010761675
 21
70.54796534875689
 31
0.0
  0
LINE
  5
37BC
330
17
100
AcDbEntity
  8
CENTER
100
AcDbLine
 10
188.5330010761679
 20
82.37961563496707
 30
0.0
 11
188.5330010761679
 21
83.21631506254709
 31
0.0
  0
ARC
  5
37BD
330
17
100
AcDbEntity
  8
OBJECT
100
AcDbCircle
 10
188.5330010761679
 20
82.79796534875696
 30
0.0
 40
0.46875
100
AcDbArc
 50
83.40416927473283
 51
276.5958307252672
  0
LINE
  5
37BE
330
17
100
AcDbEntity
  8
CENTER
100
AcDbLine
 10
187.5971595396766
 20
82.79796534875696
 30
0.0
 11
194.0938426126591
 21
82.79796534875696
 31
0.0
  0
CIRCLE
  5
37BF
330
17
100
AcDbEntity
  8
OBJECT
100
AcDbCircle
 10
188.5330010761679
 20
82.79796534875696
 30
0.0
 40
0.21875
  0
CIRCLE
  5
37C0
330
17
100
AcDbEntity
  8
OBJECT
100
AcDbCircle
 10
190.8455010761673
 20
86.54796534875696
 30
0.0
 40
0.281
  0
ARC
  5
37C1
330
17
100
AcDbEntity
  8
HIDDEN
100
AcDbCircle
 10
190.8455010761677
 20
80.79796534875674
 30
0.0
 40
5.249999999999842
100
AcDbArc
 50
0.0000000000011875
 51
180.0000000000011
  0
ARC
  5
37C2
330
17
100
AcDbEntity
  8
OBJECT
100
AcDbCircle
 10
190.8455010761674
 20
80.79796534875674
 30
0.0
 40
6.249999999999842
100
AcDbArc
 50
0.0000000000011875
 51
180.0000000000011
  0
LINE
  5
37C3
330
17
100
AcDbEntity
  8
HIDDEN
100
AcDbLine
 10
185.5955010761674
 20
76.79796534875674
 30
0.0
 11
185.5955010761674
 21
80.79796534875674
 31
0.0
  0
CIRCLE
  5
37C4
330
17
100
AcDbEntity
  8
OBJECT
100
AcDbCircle
 10
185.0955010761673
 20
78.79796534875719
 30
0.0
 40
0.281
  0
LINE
  5
37C5
330
17
100
AcDbEntity
  8
OBJECT
100
AcDbLine
 10
184.5955010761672
 20
76.79796534875674
 30
0.0
 11
184.5955010761672
 21
80.79796534875674
 31
0.0
  0
ARC
  5
37C6
330
17
100
AcDbEntity
  8
OBJECT
100
AcDbCircle
 10
190.8455010761674
 20
76.79796534875674
 30
0.0
 40
6.249999999999842
100
AcDbArc
 50
180.0000000000011
 51
0.0000000000011875
  0
ARC
  5
37C7
330
17
100
AcDbEntity
  8
HIDDEN
100
AcDbCircle
 10
190.8455010761677
 20
76.79796534875674
 30
0.0
 40
5.249999999999842
100
AcDbArc
 50
180.0000000000011
 51
0.0000000000011875
  0
CIRCLE
  5
37C8
330
17
100
AcDbEntity
  8
OBJECT
100
AcDbCircle
 10
190.8455010761679
 20
71.04796534875696
 30
0.0
 40
0.281
  0
CIRCLE
  5
37C9
330
17
100
AcDbEntity
  8
OBJECT
100
AcDbCircle
 10
196.5955010761673
 20
78.79796534875696
 30
0.0
 40
0.281
  0
LINE
  5
37D9
330
17
100
AcDbEntity
  8
CENTER
 62
     3
100
AcDbLine
 10
184.3455010761674
 20
67.79796534875673
 30
0.0
 11
184.3455010761674
 21
70.79796534875673
 31
0.0
  0
LINE
  5
37DA
330
17
100
AcDbEntity
  8
OBJECT
100
AcDbLine
 39
20.0
 10
197.0955010761673
 20
76.79796534875686
 30
0.0
 11
197.0955010761673
 21
80.79796534875686
 31
0.0
  0
DIMENSION
  5
38A9
330
17
100
AcDbEntity
  8
DIM
100
AcDbDimension
  2
*D14
 10
203.2284369155635
 20
23.80522515482418
 30
0.0
 11
203.2284369155635
 21
19.09730827953404
 31
0.0
 70
    32
 71
     5
 42
9.415833750580359
  3
STANDARD
100
AcDbAlignedDimension
 13
187.9473794610474
 23
14.38939140424383
 33
0.0
 14
199.0955010761674
 24
23.80522515482419
 34
0.0
 50
90.0
100
AcDbRotatedDimension
1001
ACAD
1000
DSTYLE
1002
{
1070
    41
1040
1.5
1070
    42
1040
0.75
1070
    44
1040
1.5
1070
   141
1040
-1.5
1070
   147
1040
0.75
1070
   174
1070
     1
1070
   271
1070
     2
1070
   289
1070
     0
1070
   340
1005
34
1002
}
  0
ARC
  5
38C4
330
17
100
AcDbEntity
  8
OBJECT
100
AcDbCircle
 10
190.841478803751
 20
74.79143650663766
 30
0.0
 40
1.349999999999994
100
AcDbArc
 50
219.643421601998
 51
219.1802200493224
  0
CIRCLE
  5
38C6
330
17
100
AcDbEntity
  8
HIDDEN
100
AcDbCircle
 10
191.2168553949177
 20
75.16605953690161
 30
0.0
 40
0.1875
  0
CIRCLE
  5
38C7
330
17
100
AcDbEntity
  8
HIDDEN
100
AcDbCircle
 10
190.4668557734871
 20
75.16681309780427
 30
0.0
 40
0.1875
  0
ARC
  5
38C8
330
17
100
AcDbEntity
  8
HIDDEN
100
AcDbCircle
 10
190.841478803751
 20
74.79143650663766
 30
0.0
 40
1.026950953716422
100
AcDbArc
 50
219.6434216019987
 51
219.0345054180558
  0
LINE
  5
38C9
330
17
100
AcDbEntity
  8
CENTER
100
AcDbLine
 10
190.8430864003434
 20
76.39143569902282
 30
0.0
 11
190.8398712071587
 21
73.19143731425251
 31
0.0
  0
ARC
  5
38CA
330
17
100
AcDbEntity
  8
HIDDEN
100
AcDbCircle
 10
190.841478803751
 20
74.79143650663766
 30
0.0
 40
1.25
100
AcDbArc
 50
219.6434216019979
 51
219.1431630183237
  0
CIRCLE
  5
38CB
330
17
100
AcDbEntity
  8
OBJECT
100
AcDbCircle
 10
190.841478803751
 20
74.79143650663766
 30
0.0
 40
1.25
  0
LINE
  5
38CC
330
17
100
AcDbEntity
  8
CENTER
100
AcDbLine
 10
189.1558339231769
 20
74.79313015559625
 30
0.0
 11
192.5271236843249
 21
74.7897428576791
 31
0.0
  0
LINE
  5
38CD
330
17
100
AcDbEntity
  8
OBJECT
100
AcDbLine
 10
190.6903798846889
 20
74.68041683874837
 30
0.0
 11
189.7950092464951
 21
73.93855816494016
 31
0.0
  0
LINE
  5
38CE
330
17
100
AcDbEntity
  8
OBJECT
100
AcDbLine
 10
190.697098188157
 20
74.67181005537918
 30
0.0
 11
189.8019383714743
 21
73.93012605757649
 31
0.0
  0
ARC
  5
38D2
330
17
100
AcDbEntity
  8
OBJECT
100
AcDbCircle
 10
190.841478803751
 20
74.79143650663766
 30
0.0
 40
0.1875
100
AcDbArc
 50
219.6434216019926
 51
216.306520672468
  0
DIMENSION
  5
38D7
330
17
100
AcDbEntity
  8
DIM
100
AcDbDimension
  2
*D15
 10
210.1604284716549
 20
78.79796534875673
 30
0.0
 11
210.1604284716549
 21
74.09004847346658
 31
0.0
 70
    32
 71
     5
 42
9.415833750580347
  3
STANDARD
100
AcDbAlignedDimension
 13
187.9479992515172
 23
69.38213159817639
 33
0.0
 14
198.3455010761674
 24
78.79796534875673
 34
0.0
 50
90.0
100
AcDbRotatedDimension
1001
ACAD
1000
DSTYLE
1002
{
1070
    41
1040
1.5
1070
    42
1040
0.75
1070
    44
1040
1.5
1070
   141
1040
-1.5
1070
   147
1040
0.75
1070
   174
1070
     1
1070
   271
1070
     2
1070
   289
1070
     0
1070
   340
1005
34
1002
}
  0
LINE
  5
38E6
330
17
100
AcDbEntity
  8
CENTER
370
     0
100
AcDbLine
 10
180.7335423595229
 20
14.38939140424383
 30
0.0
 11
187.9479992515172
 21
14.38939140424383
 31
0.0
  0
CIRCLE
  5
38E7
330
17
100
AcDbEntity
  8
OBJECT
370
     0
100
AcDbCircle
 10
184.34077080552
 20
14.38939140424406
 30
0.0
 40
3.5
  0
CIRCLE
  5
38E8
330
17
100
AcDbEntity
  8
HIDDEN
370
     0
100
AcDbCircle
 10
184.34077080552
 20
14.38939140424406
 30
0.0
 40
2.6
  0
LINE
  5
38ED
330
17
100
AcDbEntity
  8
CENTER
370
     0
100
AcDbLine
 10
184.3407708055203
 20
10.78216295824642
 30
0.0
 11
184.3407708055203
 21
17.99661985024078
 31
0.0
  0
CIRCLE
  5
38F0
330
17
100
AcDbEntity
  8
OBJECT
370
     0
100
AcDbCircle
 10
182.1752562881362
 20
12.22387688686023
 30
0.0
 40
0.28125
  0
CIRCLE
  5
38F3
330
17
100
AcDbEntity
  8
OBJECT
370
     0
100
AcDbCircle
 10
182.1752562881362
 20
16.55490592162788
 30
0.0
 40
0.28125
  0
CIRCLE
  5
38F6
330
17
100
AcDbEntity
  8
OBJECT
370
     0
100
AcDbCircle
 10
186.5062853229036
 20
12.22387688686
 30
0.0
 40
0.28125
  0
CIRCLE
  5
38F7
330
17
100
AcDbEntity
  8
OBJECT
370
     0
100
AcDbCircle
 10
186.5062853229041
 20
16.5549059216272
 30
0.0
 40
0.28125
  0
LINE
  5
38F8
330
17
100
AcDbEntity
  8
CENTER
370
     0
100
AcDbLine
 10
180.7335423595229
 20
69.38213159817639
 30
0.0
 11
187.9479992515172
 21
69.38213159817639
 31
0.0
  0
CIRCLE
  5
38F9
330
17
100
AcDbEntity
  8
OBJECT
370
     0
100
AcDbCircle
 10
184.34077080552
 20
69.38213159817661
 30
0.0
 40
3.5
  0
CIRCLE
  5
38FA
330
17
100
AcDbEntity
  8
HIDDEN
370
     0
100
AcDbCircle
 10
184.34077080552
 20
69.38213159817661
 30
0.0
 40
2.6
  0
LINE
  5
38FF
330
17
100
AcDbEntity
  8
CENTER
370
     0
100
AcDbLine
 10
184.3407708055203
 20
65.77490315217898
 30
0.0
 11
184.3407708055203
 21
72.98936004417334
 31
0.0
  0
CIRCLE
  5
3902
330
17
100
AcDbEntity
  8
OBJECT
370
     0
100
AcDbCircle
 10
182.1752562881362
 20
67.21661708079278
 30
0.0
 40
0.28125
  0
CIRCLE
  5
3905
330
17
100
AcDbEntity
  8
OBJECT
370
     0
100
AcDbCircle
 10
182.1752562881362
 20
71.54764611556044
 30
0.0
 40
0.28125
  0
CIRCLE
  5
3908
330
17
100
AcDbEntity
  8
OBJECT
370
     0
100
AcDbCircle
 10
186.5062853229036
 20
67.21661708079256
 30
0.0
 40
0.28125
  0
CIRCLE
  5
3909
330
17
100
AcDbEntity
  8
OBJECT
370
     0
100
AcDbCircle
 10
186.5062853229041
 20
71.54764611555975
 30
0.0
 40
0.28125
  0
ENDSEC
  0
SECTION
  2
OBJECTS
  0
DICTIONARY
  5
C
330
0
100
AcDbDictionary
281
     1
  3
ACAD_COLOR
350
36A5
  3
ACAD_GROUP
350
D
  3
ACAD_LAYOUT
350
36A6
  3
ACAD_MATERIAL
350
36A4
  3
ACAD_MLINESTYLE
350
1A
  3
ACAD_PLOTSETTINGS
350
36A7
  3
ACAD_PLOTSTYLENAME
350
36A2
  3
AcadDim
350
37E8
  3
ACDBHEADERROUNDTRIPXREC
350
391A
  3
ACDBVARIABLEDICTIONARY
350
45
  0
DICTIONARY
  5
36A5
102
{ACAD_REACTORS
330
C
102
}
330
C
100
AcDbDictionary
281
     1
  0
DICTIONARY
  5
D
102
{ACAD_REACTORS
330
C
102
}
330
C
100
AcDbDictionary
281
     1
  0
DICTIONARY
  5
36A6
102
{ACAD_REACTORS
330
C
102
}
330
C
100
AcDbDictionary
281
     1
  3
Layout1
350
36A9
  3
Model
350
36A8
  0
DICTIONARY
  5
36A4
102
{ACAD_REACTORS
330
C
102
}
330
C
100
AcDbDictionary
281
     1
  0
DICTIONARY
  5
1A
102
{ACAD_REACTORS
330
C
102
}
330
C
100
AcDbDictionary
281
     1
  3
STANDARD
350
1B
  0
DICTIONARY
  5
36A7
102
{ACAD_REACTORS
330
C
102
}
330
C
100
AcDbDictionary
281
     1
  0
ACDBDICTIONARYWDFLT
  5
36A2
102
{ACAD_REACTORS
330
C
102
}
330
C
100
AcDbDictionary
281
     1
  3
Normal
350
36A3
100
AcDbDictionaryWithDefault
340
36A3
  0
XRECORD
  5
37E8
102
{ACAD_REACTORS
330
C
102
}
330
C
100
AcDbXrecord
280
     1
 90
   990106
  3

 60
     0
 61
     0
 62
     1
 63
     3
 64
     0
 65
     0
 66
     0
 67
     3
 68
     1
 69
     0
 70
     0
 71
     0
 72
     0
 40
0.0
170
     0
340
0
  0
DICTIONARY
  5
391A
102
{ACAD_REACTORS
330
C
102
}
330
C
100
AcDbDictionary
281
     1
  3
COLORDICT
350
391C
  3
MATERIALDICT
350
391B
  0
DICTIONARY
  5
45
102
{ACAD_REACTORS
330
C
102
}
330
C
100
AcDbDictionary
281
     1
  3
DIMADEC
350
46
  3
DIMASSOC
350
3917
  3
PROJECTNAME
350
3918
  0
LAYOUT
  5
36A9
102
{ACAD_XDICTIONARY
360
391F
102
}
102
{ACAD_REACTORS
330
36A6
102
}
330
36A6
100
AcDbPlotSettings
  1

  2
\\TOPPSBS2000\HP LaserJet 4200 PCL 6
  4

  6

 40
0.0
 41
0.0
 42
0.0
 43
0.0
 44
0.0
 45
0.0
 46
0.0
 47
0.0
 48
0.0
 49
0.0
140
0.0
141
0.0
142
1.0
143
1.0
 70
   688
 72
     0
 73
     0
 74
     5
  7
C:\Documents and Settings\jcraft.TOPPS\Application Data\Autodesk\AutoCAD LT 2004\R9\enu\Plot Styles\JIM.ctb
 75
    16
147
1.0
148
0.0
149
0.0
100
AcDbLayout
  1
Layout1
 70
     1
 71
     1
 10
0.0
 20
0.0
 11
12.0
 21
9.0
 12
0.0
 22
0.0
 32
0.0
 14
1.000000000000000E+20
 24
1.000000000000000E+20
 34
1.000000000000000E+20
 15
-1.000000000000000E+20
 25
-1.000000000000000E+20
 35
-1.000000000000000E+20
146
0.0
 13
0.0
 23
0.0
 33
0.0
 16
1.0
 26
0.0
 36
0.0
 17
0.0
 27
1.0
 37
0.0
 76
     0
330
14
  0
LAYOUT
  5
36A8
102
{ACAD_XDICTIONARY
360
391D
102
}
102
{ACAD_REACTORS
330
36A6
102
}
330
36A6
100
AcDbPlotSettings
  1

  2
\\TOPPSBS2000\HP LaserJet 4200 PCL 6
  4
Letter
  6

 40
6.805083274841308
 41
5.027085304260253
 42
6.805084228515625
 43
5.027069091796875
 44
215.8999938964844
 45
279.3999938964844
 46
0.0
 47
0.0
 48
120.9167362812821
 49
-39.13881555869787
140
241.2191310642925
141
116.5466365134331
142
1.0
143
15.10545973552864
 70
 11952
 72
     0
 73
     0
 74
     4
  7
JIM.ctb
 75
     0
147
0.066201229059448
148
-3071.285101544566
149
994.1259151909259
100
AcDbLayout
  1
Model
 70
     1
 71
     0
 10
0.0
 20
0.0
 11
12.0
 21
9.0
 12
0.0
 22
0.0
 32
0.0
 14
0.0
 24
0.0
 34
0.0
 15
0.0
 25
0.0
 35
0.0
146
0.0
 13
0.0
 23
0.0
 33
0.0
 16
1.0
 26
0.0
 36
0.0
 17
0.0
 27
1.0
 37
0.0
 76
     0
330
17
  0
MLINESTYLE
  5
1B
102
{ACAD_REACTORS
330
1A
102
}
330
1A
100
AcDbMlineStyle
  2
STANDARD
 70
     0
  3

 62
   256
 51
90.0
 52
90.0
 71
     2
 49
0.5
 62
   256
  6
BYLAYER
 49
-0.5
 62
   256
  6
BYLAYER
  0
ACDBPLACEHOLDER
  5
36A3
102
{ACAD_REACTORS
330
36A2
102
}
330
36A2
  0
XRECORD
  5
391C
102
{ACAD_REACTORS
330
391A
102
}
330
391A
100
AcDbXrecord
280
     1
340
36A5
  0
XRECORD
  5
391B
102
{ACAD_REACTORS
330
391A
102
}
330
391A
100
AcDbXrecord
280
     1
340
36A4
  0
DICTIONARYVAR
  5
46
102
{ACAD_REACTORS
330
45
102
}
330
45
100
DictionaryVariables
280
     0
  1
0
  0
DICTIONARYVAR
  5
3917
102
{ACAD_REACTORS
330
45
102
}
330
45
100
DictionaryVariables
280
     0
  1
1
  0
DICTIONARYVAR
  5
3918
102
{ACAD_REACTORS
330
45
102
}
330
45
100
DictionaryVariables
280
     0
  1

  0
DICTIONARY
  5
391F
330
36A9
100
AcDbDictionary
280
     1
281
     1
  3
ACAD_XREC_ROUNDTRIP
360
3920
  0
DICTIONARY
  5
391D
330
36A8
100
AcDbDictionary
280
     1
281
     1
  3
ACAD_XREC_ROUNDTRIP
360
391E
  0
XRECORD
  5
3920
102
{ACAD_REACTORS
330
391F
102
}
330
391F
100
AcDbXrecord
280
     1
102
SHADEPLOT
 70
     0
102
SHADEPLOTRESLEVEL
 70
     2
102
SHADEPLOTCUSTOMDPI
 70
   300
  0
XRECORD
  5
391E
102
{ACAD_REACTORS
330
391D
102
}
330
391D
100
AcDbXrecord
280
     1
102
SHADEPLOT
 70
     0
102
SHADEPLOTRESLEVEL
 70
     2
102
SHADEPLOTCUSTOMDPI
 70
   300
  0
ENDSEC
  0
EOF
