  0
SECTION
  2
HEADER
  9
$ACADVER
  1
AC1014
  9
$ACADMAINTVER
 70
     0
  9
$DWGCODEPAGE
  3
ANSI_1252
  9
$INSBASE
 10
0.0
 20
0.0
 30
0.0
  9
$EXTMIN
 10
179.08105
 20
147.039749
 30
0.0
  9
$EXTMAX
 10
215.532676
 20
194.212441
 30
6.064453
  9
$LIMMIN
 10
136.465492
 20
146.846421
  9
$LIMMAX
 10
173.598533
 20
195.31802
  9
$ORTHOMODE
 70
     0
  9
$REGENMODE
 70
     1
  9
$FILLMODE
 70
     1
  9
$QTEXTMODE
 70
     0
  9
$MIRRTEXT
 70
     1
  9
$DRAGMODE
 70
     2
  9
$LTSCALE
 40
0.5
  9
$OSMODE
 70
   675
  9
$ATTMODE
 70
     1
  9
$TEXTSIZE
 40
0.4
  9
$TRACEWID
 40
0.05
  9
$TEXTSTYLE
  7
ROMANS
  9
$CLAYER
  8
DIM
  9
$CELTYPE
  6
BYLAYER
  9
$CECOLOR
 62
   256
  9
$CELTSCALE
 40
1.0
  9
$DELOBJ
 70
     1
  9
$DISPSILH
 70
     0
  9
$DIMSCALE
 40
1.0
  9
$DIMASZ
 40
0.35
  9
$DIMEXO
 40
0.0625
  9
$DIMDLI
 40
0.38
  9
$DIMRND
 40
0.0
  9
$DIMDLE
 40
0.0
  9
$DIMEXE
 40
0.18
  9
$DIMTP
 40
0.0
  9
$DIMTM
 40
0.0
  9
$DIMTXT
 40
0.18
  9
$DIMCEN
 40
0.09
  9
$DIMTSZ
 40
0.0
  9
$DIMTOL
 70
     0
  9
$DIMLIM
 70
     0
  9
$DIMTIH
 70
     1
  9
$DIMTOH
 70
     1
  9
$DIMSE1
 70
     0
  9
$DIMSE2
 70
     0
  9
$DIMTAD
 70
     0
  9
$DIMZIN
 70
     0
  9
$DIMBLK
  1

  9
$DIMASO
 70
     1
  9
$DIMSHO
 70
     1
  9
$DIMPOST
  1

  9
$DIMAPOST
  1

  9
$DIMALT
 70
     0
  9
$DIMALTD
 70
     2
  9
$DIMALTF
 40
25.4
  9
$DIMLFAC
 40
1.0
  9
$DIMTOFL
 70
     0
  9
$DIMTVP
 40
0.0
  9
$DIMTIX
 70
     0
  9
$DIMSOXD
 70
     0
  9
$DIMSAH
 70
     0
  9
$DIMBLK1
  1

  9
$DIMBLK2
  1

  9
$DIMSTYLE
  2
STANDARD
  9
$DIMCLRD
 70
     0
  9
$DIMCLRE
 70
     0
  9
$DIMCLRT
 70
     0
  9
$DIMTFAC
 40
1.0
  9
$DIMGAP
 40
0.09
  9
$DIMJUST
 70
     0
  9
$DIMSD1
 70
     0
  9
$DIMSD2
 70
     0
  9
$DIMTOLJ
 70
     1
  9
$DIMTZIN
 70
     0
  9
$DIMALTZ
 70
     0
  9
$DIMALTTZ
 70
     0
  9
$DIMFIT
 70
     5
  9
$DIMUPT
 70
     0
  9
$DIMUNIT
 70
     5
  9
$DIMDEC
 70
     4
  9
$DIMTDEC
 70
     4
  9
$DIMALTU
 70
     5
  9
$DIMALTTD
 70
     2
  9
$DIMTXSTY
  7
ROMANS
  9
$DIMAUNIT
 70
     0
  9
$LUNITS
 70
     5
  9
$LUPREC
 70
     4
  9
$SKETCHINC
 40
0.1
  9
$FILLETRAD
 40
0.0
  9
$AUNITS
 70
     0
  9
$AUPREC
 70
     0
  9
$MENU
  1
acad
  9
$ELEVATION
 40
0.0
  9
$PELEVATION
 40
0.0
  9
$THICKNESS
 40
0.0
  9
$LIMCHECK
 70
     0
  9
$BLIPMODE
 70
     0
  9
$CHAMFERA
 40
0.0
  9
$CHAMFERB
 40
0.0
  9
$CHAMFERC
 40
0.0
  9
$CHAMFERD
 40
0.0
  9
$SKPOLY
 70
     0
  9
$TDCREATE
 40
2449610.590414699
  9
$TDUPDATE
 40
2452829.448119734
  9
$TDINDWG
 40
0.2242609144
  9
$TDUSRTIMER
 40
0.2242609144
  9
$USRTIMER
 70
     1
  9
$ANGBASE
 50
0.0
  9
$ANGDIR
 70
     0
  9
$PDMODE
 70
     0
  9
$PDSIZE
 40
0.0
  9
$PLINEWID
 40
0.0
  9
$COORDS
 70
     1
  9
$SPLFRAME
 70
     0
  9
$SPLINETYPE
 70
     6
  9
$SPLINESEGS
 70
     8
  9
$ATTDIA
 70
     0
  9
$ATTREQ
 70
     1
  9
$HANDLING
 70
     1
  9
$HANDSEED
  5
170F
  9
$SURFTAB1
 70
     6
  9
$SURFTAB2
 70
     6
  9
$SURFTYPE
 70
     6
  9
$SURFU
 70
     6
  9
$SURFV
 70
     6
  9
$UCSNAME
  2

  9
$UCSORG
 10
0.0
 20
0.0
 30
0.0
  9
$UCSXDIR
 10
1.0
 20
0.0
 30
0.0
  9
$UCSYDIR
 10
0.0
 20
1.0
 30
0.0
  9
$PUCSNAME
  2

  9
$PUCSORG
 10
0.0
 20
0.0
 30
0.0
  9
$PUCSXDIR
 10
1.0
 20
0.0
 30
0.0
  9
$PUCSYDIR
 10
0.0
 20
1.0
 30
0.0
  9
$USERI1
 70
     0
  9
$USERI2
 70
     0
  9
$USERI3
 70
     0
  9
$USERI4
 70
     0
  9
$USERI5
 70
     0
  9
$USERR1
 40
0.0
  9
$USERR2
 40
0.0
  9
$USERR3
 40
0.0
  9
$USERR4
 40
0.0
  9
$USERR5
 40
0.0
  9
$WORLDVIEW
 70
     1
  9
$SHADEDGE
 70
     3
  9
$SHADEDIF
 70
    70
  9
$TILEMODE
 70
     1
  9
$MAXACTVP
 70
    16
  9
$PINSBASE
 10
0.0
 20
0.0
 30
0.0
  9
$PLIMCHECK
 70
     0
  9
$PEXTMIN
 10
1.000000E+20
 20
1.000000E+20
 30
1.000000E+20
  9
$PEXTMAX
 10
-1.000000E+20
 20
-1.000000E+20
 30
-1.000000E+20
  9
$PLIMMIN
 10
0.0
 20
0.0
  9
$PLIMMAX
 10
12.0
 20
9.0
  9
$UNITMODE
 70
     0
  9
$VISRETAIN
 70
     0
  9
$PLINEGEN
 70
     0
  9
$PSLTSCALE
 70
     1
  9
$TREEDEPTH
 70
  3020
  9
$PICKSTYLE
 70
     1
  9
$CMLSTYLE
  2
STANDARD
  9
$CMLJUST
 70
     0
  9
$CMLSCALE
 40
1.0
  9
$PROXYGRAPHICS
 70
     1
  9
$MEASUREMENT
 70
     0
  0
ENDSEC
  0
SECTION
  2
CLASSES
  0
CLASS
  1
DICTIONARYVAR
  2
AcDbDictionaryVar
  3
"AutoCAD"
 90
        0
280
     0
281
     0
  0
CLASS
  1
LWPOLYLINE
  2
AcDbPolyline
  3
"AutoCAD"
 90
        0
280
     0
281
     1
  0
CLASS
  1
HATCH
  2
AcDbHatch
  3
"ACAD_SEDONA"
 90
        0
280
     0
281
     1
  0
ENDSEC
  0
SECTION
  2
TABLES
  0
TABLE
  2
VPORT
  5
8
100
AcDbSymbolTable
 70
     1
  0
VPORT
  5
1707
100
AcDbSymbolTableRecord
100
AcDbViewportTableRecord
  2
*ACTIVE
 70
     0
 10
0.0
 20
0.0
 11
1.0
 21
1.0
 12
197.305327
 22
170.626146
 13
0.0
 23
0.0
 14
1.0
 24
1.0
 15
0.0
 25
0.0
 16
0.0
 26
0.0
 36
1.0
 17
0.0
 27
0.0
 37
0.0
 40
47.689578
 41
1.71048
 42
50.0
 43
0.0
 44
0.0
 50
0.0
 51
0.0
 71
     0
 72
   100
 73
     1
 74
     0
 75
     0
 76
     0
 77
     0
 78
     0
  0
ENDTAB
  0
TABLE
  2
LTYPE
  5
5
100
AcDbSymbolTable
 70
     3
  0
LTYPE
  5
11
100
AcDbSymbolTableRecord
100
AcDbLinetypeTableRecord
  2
BYBLOCK
 70
     0
  3

 72
    65
 73
     0
 40
0.0
  0
LTYPE
  5
12
100
AcDbSymbolTableRecord
100
AcDbLinetypeTableRecord
  2
BYLAYER
 70
     0
  3

 72
    65
 73
     0
 40
0.0
  0
LTYPE
  5
13
100
AcDbSymbolTableRecord
100
AcDbLinetypeTableRecord
  2
CONTINUOUS
 70
     0
  3
Solid line
 72
    65
 73
     0
 40
0.0
  0
LTYPE
  5
3B
100
AcDbSymbolTableRecord
100
AcDbLinetypeTableRecord
  2
CENTER
 70
     0
  3
____ _ ____ _ ____ _ ____ _ ____ _ ____ _ ____ 
 72
    65
 73
     4
 40
2.0
 49
1.25
 74
     0
 49
-0.25
 74
     0
 49
0.25
 74
     0
 49
-0.25
 74
     0
  0
LTYPE
  5
3C
100
AcDbSymbolTableRecord
100
AcDbLinetypeTableRecord
  2
HIDDEN
 70
     0
  3
__ __ __ __ __ __ __ __ __ __ __ __ __ __ __ __
 72
    65
 73
     2
 40
0.375
 49
0.25
 74
     0
 49
-0.125
 74
     0
  0
ENDTAB
  0
TABLE
  2
LAYER
  5
2
100
AcDbSymbolTable
 70
     9
  0
LAYER
  5
E
100
AcDbSymbolTableRecord
100
AcDbLayerTableRecord
  2
0
 70
     0
 62
     7
  6
CONTINUOUS
  0
LAYER
  5
3F
100
AcDbSymbolTableRecord
100
AcDbLayerTableRecord
  2
DIM
 70
     0
 62
     6
  6
CONTINUOUS
  0
LAYER
  5
40
100
AcDbSymbolTableRecord
100
AcDbLayerTableRecord
  2
BORDER
 70
     0
 62
     5
  6
CONTINUOUS
  0
LAYER
  5
41
100
AcDbSymbolTableRecord
100
AcDbLayerTableRecord
  2
OBJECT
 70
     0
 62
     2
  6
CONTINUOUS
  0
LAYER
  5
42
100
AcDbSymbolTableRecord
100
AcDbLayerTableRecord
  2
HIDDEN
 70
     0
 62
     1
  6
HIDDEN
  0
LAYER
  5
43
100
AcDbSymbolTableRecord
100
AcDbLayerTableRecord
  2
CENTER
 70
     0
 62
     3
  6
CENTER
  0
LAYER
  5
44
100
AcDbSymbolTableRecord
100
AcDbLayerTableRecord
  2
DEFPOINTS
 70
     0
 62
     7
  6
CONTINUOUS
  0
LAYER
  5
45
100
AcDbSymbolTableRecord
100
AcDbLayerTableRecord
  2
HATCH
 70
     0
 62
     4
  6
CONTINUOUS
  0
LAYER
  5
1543
100
AcDbSymbolTableRecord
100
AcDbLayerTableRecord
  2
LIMITS
 70
     0
 62
     7
  6
CONTINUOUS
  0
ENDTAB
  0
TABLE
  2
STYLE
  5
3
100
AcDbSymbolTable
 70
     5
  0
STYLE
  5
F
100
AcDbSymbolTableRecord
100
AcDbTextStyleTableRecord
  2
STANDARD
 70
     0
 40
0.0
 41
1.0
 50
0.0
 71
     0
 42
0.2
  3
txt
  4

  0
STYLE
  5
36
100
AcDbSymbolTableRecord
100
AcDbTextStyleTableRecord
  2
ROMANS
 70
     0
 40
0.4
 41
1.0
 50
0.0
 71
     0
 42
0.4
  3
romans
  4

  0
STYLE
  5
38
100
AcDbSymbolTableRecord
100
AcDbTextStyleTableRecord
  2
ROMAND
 70
     0
 40
1.5
 41
1.0
 50
0.0
 71
     0
 42
1.5
  3
ROMAND.SHX
  4

  0
STYLE
  5
39
100
AcDbSymbolTableRecord
100
AcDbTextStyleTableRecord
  2
ROMANC
 70
     0
 40
0.0531
 41
1.0
 50
0.0
 71
     0
 42
0.0531
  3
romanc
  4

  0
STYLE
  5
1544
100
AcDbSymbolTableRecord
100
AcDbTextStyleTableRecord
  2
COUNTRYBLUEPRINT
 70
     0
 40
0.061059
 41
1.0
 50
0.0
 71
     0
 42
0.061059
  3
cobt____.pfb
  4

  0
ENDTAB
  0
TABLE
  2
VIEW
  5
6
100
AcDbSymbolTable
 70
     0
  0
ENDTAB
  0
TABLE
  2
UCS
  5
7
100
AcDbSymbolTable
 70
     0
  0
ENDTAB
  0
TABLE
  2
APPID
  5
9
100
AcDbSymbolTable
 70
     1
  0
APPID
  5
10
100
AcDbSymbolTableRecord
100
AcDbRegAppTableRecord
  2
ACAD
 70
     0
  0
ENDTAB
  0
TABLE
  2
DIMSTYLE
  5
A
100
AcDbSymbolTable
 70
     1
  0
DIMSTYLE
105
10C8
100
AcDbSymbolTableRecord
100
AcDbDimStyleTableRecord
  2
STANDARD
 70
     0
  3

  4

  5

  6

  7

 40
1.0
 41
0.18
 42
0.0625
 43
0.38
 44
0.18
 45
0.0
 46
0.0
 47
0.0
 48
0.0
140
0.18
141
0.09
142
0.0
143
25.4
144
1.0
145
0.0
146
1.0
147
0.09
 71
     0
 72
     0
 73
     1
 74
     1
 75
     0
 76
     0
 77
     0
 78
     0
170
     0
171
     2
172
     0
173
     0
174
     0
175
     0
176
     0
177
     0
178
     0
270
     2
271
     4
272
     4
273
     2
274
     2
340
F
275
     0
280
     0
281
     0
282
     0
283
     1
284
     0
285
     0
286
     0
287
     3
288
     0
  0
ENDTAB
  0
TABLE
  2
BLOCK_RECORD
  5
1
100
AcDbSymbolTable
 70
    18
  0
BLOCK_RECORD
  5
17
100
AcDbSymbolTableRecord
100
AcDbBlockTableRecord
  2
*MODEL_SPACE
  0
BLOCK_RECORD
  5
14
100
AcDbSymbolTableRecord
100
AcDbBlockTableRecord
  2
*PAPER_SPACE
  0
BLOCK_RECORD
  5
22
100
AcDbSymbolTableRecord
100
AcDbBlockTableRecord
  2
*X0
  0
BLOCK_RECORD
  5
23
100
AcDbSymbolTableRecord
100
AcDbBlockTableRecord
  2
*X1
  0
BLOCK_RECORD
  5
24
100
AcDbSymbolTableRecord
100
AcDbBlockTableRecord
  2
*X2
  0
BLOCK_RECORD
  5
25
100
AcDbSymbolTableRecord
100
AcDbBlockTableRecord
  2
*X3
  0
BLOCK_RECORD
  5
26
100
AcDbSymbolTableRecord
100
AcDbBlockTableRecord
  2
*X4
  0
BLOCK_RECORD
  5
27
100
AcDbSymbolTableRecord
100
AcDbBlockTableRecord
  2
*D5
  0
BLOCK_RECORD
  5
28
100
AcDbSymbolTableRecord
100
AcDbBlockTableRecord
  2
*D6
  0
BLOCK_RECORD
  5
29
100
AcDbSymbolTableRecord
100
AcDbBlockTableRecord
  2
*D7
  0
BLOCK_RECORD
  5
2A
100
AcDbSymbolTableRecord
100
AcDbBlockTableRecord
  2
*D8
  0
BLOCK_RECORD
  5
2B
100
AcDbSymbolTableRecord
100
AcDbBlockTableRecord
  2
*D9
  0
BLOCK_RECORD
  5
2C
100
AcDbSymbolTableRecord
100
AcDbBlockTableRecord
  2
*D10
  0
BLOCK_RECORD
  5
2E
100
AcDbSymbolTableRecord
100
AcDbBlockTableRecord
  2
*D11
  0
BLOCK_RECORD
  5
2F
100
AcDbSymbolTableRecord
100
AcDbBlockTableRecord
  2
*X12
  0
BLOCK_RECORD
  5
30
100
AcDbSymbolTableRecord
100
AcDbBlockTableRecord
  2
*D13
  0
BLOCK_RECORD
  5
31
100
AcDbSymbolTableRecord
100
AcDbBlockTableRecord
  2
*D14
  0
BLOCK_RECORD
  5
32
100
AcDbSymbolTableRecord
100
AcDbBlockTableRecord
  2
*D15
  0
BLOCK_RECORD
  5
34
100
AcDbSymbolTableRecord
100
AcDbBlockTableRecord
  2
*D16
  0
BLOCK_RECORD
  5
35
100
AcDbSymbolTableRecord
100
AcDbBlockTableRecord
  2
*D17
  0
ENDTAB
  0
ENDSEC
  0
SECTION
  2
BLOCKS
  0
BLOCK
  5
48
100
AcDbEntity
  8
0
100
AcDbBlockBegin
  2
*MODEL_SPACE
 70
     0
 10
0.0
 20
0.0
 30
0.0
  3
*MODEL_SPACE
  1

  0
ENDBLK
  5
49
100
AcDbEntity
  8
0
100
AcDbBlockEnd
  0
BLOCK
  5
46
100
AcDbEntity
 67
     1
  8
0
100
AcDbBlockBegin
  2
*PAPER_SPACE
 70
     0
 10
0.0
 20
0.0
 30
0.0
  3
*PAPER_SPACE
  1

  0
ENDBLK
  5
47
100
AcDbEntity
 67
     1
  8
0
100
AcDbBlockEnd
  0
BLOCK
  5
8D8
100
AcDbEntity
  8
0
100
AcDbBlockBegin
  2
*X0
 70
     1
 10
0.0
 20
0.0
 30
0.0
  3
*X0
  1

  0
LINE
  5
8D9
100
AcDbEntity
  8
0
 62
     0
100
AcDbLine
 10
143.869771
 20
179.667052
 30
0.0
 11
144.213771
 21
180.011052
 31
0.0
  0
LINE
  5
8DA
100
AcDbEntity
  8
0
 62
     0
100
AcDbLine
 10
143.869771
 20
180.064799
 30
0.0
 11
144.213771
 21
180.408799
 31
0.0
  0
LINE
  5
8DB
100
AcDbEntity
  8
0
 62
     0
100
AcDbLine
 10
143.869771
 20
180.462547
 30
0.0
 11
144.213771
 21
180.806547
 31
0.0
  0
LINE
  5
8DC
100
AcDbEntity
  8
0
 62
     0
100
AcDbLine
 10
143.869771
 20
180.860294
 30
0.0
 11
144.213771
 21
181.204294
 31
0.0
  0
LINE
  5
8DD
100
AcDbEntity
  8
0
 62
     0
100
AcDbLine
 10
143.869771
 20
181.258042
 30
0.0
 11
143.934521
 21
181.322792
 31
0.0
  0
LINE
  5
8DE
100
AcDbEntity
  8
0
 62
     0
100
AcDbLine
 10
143.677283
 20
179.076816
 30
0.0
 11
144.213771
 21
179.613304
 31
0.0
  0
LINE
  5
8DF
100
AcDbEntity
  8
0
 62
     0
100
AcDbLine
 10
144.101232
 20
179.103017
 30
0.0
 11
144.420063
 21
179.421849
 31
0.0
  0
LINE
  5
8E0
100
AcDbEntity
  8
0
 62
     0
100
AcDbLine
 10
144.51884
 20
179.122878
 30
0.0
 11
144.576925
 21
179.180963
 31
0.0
  0
LINE
  5
8E1
100
AcDbEntity
  8
0
 62
     0
100
AcDbLine
 10
143.869771
 20
179.932217
 30
0.0
 11
144.213771
 21
180.276217
 31
0.0
  0
LINE
  5
8E2
100
AcDbEntity
  8
0
 62
     0
100
AcDbLine
 10
143.869771
 20
180.329964
 30
0.0
 11
144.213771
 21
180.673964
 31
0.0
  0
LINE
  5
8E3
100
AcDbEntity
  8
0
 62
     0
100
AcDbLine
 10
143.869771
 20
180.727712
 30
0.0
 11
144.213771
 21
181.071712
 31
0.0
  0
LINE
  5
8E4
100
AcDbEntity
  8
0
 62
     0
100
AcDbLine
 10
143.869771
 20
181.125459
 30
0.0
 11
144.067104
 21
181.322792
 31
0.0
  0
LINE
  5
8E5
100
AcDbEntity
  8
0
 62
     0
100
AcDbLine
 10
143.619771
 20
179.284469
 30
0.0
 11
143.728551
 21
179.393249
 31
0.0
  0
LINE
  5
8E6
100
AcDbEntity
  8
0
 62
     0
100
AcDbLine
 10
143.869771
 20
179.534469
 30
0.0
 11
144.213771
 21
179.878469
 31
0.0
  0
LINE
  5
8E7
100
AcDbEntity
  8
0
 62
     0
100
AcDbLine
 10
143.819323
 20
179.086273
 30
0.0
 11
144.213771
 21
179.480722
 31
0.0
  0
LINE
  5
8E8
100
AcDbEntity
  8
0
 62
     0
100
AcDbLine
 10
144.241124
 20
179.110327
 30
0.0
 11
144.512061
 21
179.381264
 31
0.0
  0
ENDBLK
  5
8E9
100
AcDbEntity
  8
0
100
AcDbBlockEnd
  0
BLOCK
  5
8EA
100
AcDbEntity
  8
0
100
AcDbBlockBegin
  2
*X1
 70
     1
 10
0.0
 20
0.0
 30
0.0
  3
*X1
  1

  0
LINE
  5
8EB
100
AcDbEntity
  8
0
 62
     0
100
AcDbLine
 10
151.623494
 20
180.659067
 30
0.0
 11
151.948494
 21
180.984067
 31
0.0
  0
LINE
  5
8EC
100
AcDbEntity
  8
0
 62
     0
100
AcDbLine
 10
151.623494
 20
181.056814
 30
0.0
 11
151.948494
 21
181.381814
 31
0.0
  0
LINE
  5
8ED
100
AcDbEntity
  8
0
 62
     0
100
AcDbLine
 10
151.623494
 20
181.454562
 30
0.0
 11
151.948494
 21
181.779562
 31
0.0
  0
LINE
  5
8EE
100
AcDbEntity
  8
0
 62
     0
100
AcDbLine
 10
151.623494
 20
181.852309
 30
0.0
 11
151.948494
 21
182.177309
 31
0.0
  0
LINE
  5
8EF
100
AcDbEntity
  8
0
 62
     0
100
AcDbLine
 10
151.623494
 20
182.250057
 30
0.0
 11
151.852501
 21
182.479064
 31
0.0
  0
LINE
  5
8F0
100
AcDbEntity
  8
0
 62
     0
100
AcDbLine
 10
151.256494
 20
179.894319
 30
0.0
 11
151.411068
 21
180.048893
 31
0.0
  0
LINE
  5
8F1
100
AcDbEntity
  8
0
 62
     0
100
AcDbLine
 10
151.623494
 20
180.261319
 30
0.0
 11
151.948494
 21
180.586319
 31
0.0
  0
LINE
  5
8F2
100
AcDbEntity
  8
0
 62
     0
100
AcDbLine
 10
151.500058
 20
179.740135
 30
0.0
 11
151.948494
 21
180.188571
 31
0.0
  0
LINE
  5
8F3
100
AcDbEntity
  8
0
 62
     0
100
AcDbLine
 10
151.930079
 20
179.772409
 30
0.0
 11
152.267215
 21
180.109545
 31
0.0
  0
LINE
  5
8F4
100
AcDbEntity
  8
0
 62
     0
100
AcDbLine
 10
152.353473
 20
179.798055
 30
0.0
 11
152.39633
 21
179.840912
 31
0.0
  0
LINE
  5
8F5
100
AcDbEntity
  8
0
 62
     0
100
AcDbLine
 10
151.623494
 20
180.526484
 30
0.0
 11
151.948494
 21
180.851484
 31
0.0
  0
LINE
  5
8F6
100
AcDbEntity
  8
0
 62
     0
100
AcDbLine
 10
151.623494
 20
180.924232
 30
0.0
 11
151.948494
 21
181.249232
 31
0.0
  0
LINE
  5
8F7
100
AcDbEntity
  8
0
 62
     0
100
AcDbLine
 10
151.623494
 20
181.321979
 30
0.0
 11
151.948494
 21
181.646979
 31
0.0
  0
LINE
  5
8F8
100
AcDbEntity
  8
0
 62
     0
100
AcDbLine
 10
151.623494
 20
181.719727
 30
0.0
 11
151.948494
 21
182.044727
 31
0.0
  0
LINE
  5
8F9
100
AcDbEntity
  8
0
 62
     0
100
AcDbLine
 10
151.623494
 20
182.117474
 30
0.0
 11
151.948494
 21
182.442474
 31
0.0
  0
LINE
  5
8FA
100
AcDbEntity
  8
0
 62
     0
100
AcDbLine
 10
151.256494
 20
179.761736
 30
0.0
 11
151.55564
 21
180.060883
 31
0.0
  0
LINE
  5
8FB
100
AcDbEntity
  8
0
 62
     0
100
AcDbLine
 10
151.623494
 20
180.128736
 30
0.0
 11
151.948494
 21
180.453736
 31
0.0
  0
LINE
  5
8FC
100
AcDbEntity
  8
0
 62
     0
100
AcDbLine
 10
151.644155
 20
179.75165
 30
0.0
 11
151.984793
 21
180.092287
 31
0.0
  0
LINE
  5
8FD
100
AcDbEntity
  8
0
 62
     0
100
AcDbLine
 10
152.071931
 20
179.781678
 30
0.0
 11
152.324992
 21
180.034739
 31
0.0
  0
ENDBLK
  5
8FE
100
AcDbEntity
  8
0
100
AcDbBlockEnd
  0
BLOCK
  5
8FF
100
AcDbEntity
  8
0
100
AcDbBlockBegin
  2
*X2
 70
     1
 10
0.0
 20
0.0
 30
0.0
  3
*X2
  1

  0
LINE
  5
900
100
AcDbEntity
  8
0
 62
     0
100
AcDbLine
 10
160.257162
 20
180.409706
 30
0.0
 11
160.582162
 21
180.734706
 31
0.0
  0
LINE
  5
901
100
AcDbEntity
  8
0
 62
     0
100
AcDbLine
 10
160.257162
 20
180.940036
 30
0.0
 11
160.582162
 21
181.265036
 31
0.0
  0
LINE
  5
902
100
AcDbEntity
  8
0
 62
     0
100
AcDbLine
 10
160.257162
 20
181.470366
 30
0.0
 11
160.582162
 21
181.795366
 31
0.0
  0
LINE
  5
903
100
AcDbEntity
  8
0
 62
     0
100
AcDbLine
 10
160.257162
 20
182.000696
 30
0.0
 11
160.582162
 21
182.325696
 31
0.0
  0
LINE
  5
904
100
AcDbEntity
  8
0
 62
     0
100
AcDbLine
 10
159.869662
 20
179.491876
 30
0.0
 11
160.206296
 21
179.828509
 31
0.0
  0
LINE
  5
905
100
AcDbEntity
  8
0
 62
     0
100
AcDbLine
 10
160.257162
 20
179.879376
 30
0.0
 11
160.582162
 21
180.204376
 31
0.0
  0
LINE
  5
906
100
AcDbEntity
  8
0
 62
     0
100
AcDbLine
 10
160.376086
 20
179.467969
 30
0.0
 11
160.787553
 21
179.879436
 31
0.0
  0
LINE
  5
907
100
AcDbEntity
  8
0
 62
     0
100
AcDbLine
 10
160.954415
 20
179.515968
 30
0.0
 11
161.008023
 21
179.569576
 31
0.0
  0
LINE
  5
908
100
AcDbEntity
  8
0
 62
     0
100
AcDbLine
 10
160.257162
 20
180.232929
 30
0.0
 11
160.582162
 21
180.557929
 31
0.0
  0
LINE
  5
909
100
AcDbEntity
  8
0
 62
     0
100
AcDbLine
 10
160.257162
 20
180.763259
 30
0.0
 11
160.582162
 21
181.088259
 31
0.0
  0
LINE
  5
90A
100
AcDbEntity
  8
0
 62
     0
100
AcDbLine
 10
160.257162
 20
181.293589
 30
0.0
 11
160.582162
 21
181.618589
 31
0.0
  0
LINE
  5
90B
100
AcDbEntity
  8
0
 62
     0
100
AcDbLine
 10
160.257162
 20
181.823919
 30
0.0
 11
160.582162
 21
182.148919
 31
0.0
  0
LINE
  5
90C
100
AcDbEntity
  8
0
 62
     0
100
AcDbLine
 10
160.257162
 20
182.354249
 30
0.0
 11
160.381977
 21
182.479064
 31
0.0
  0
LINE
  5
90D
100
AcDbEntity
  8
0
 62
     0
100
AcDbLine
 10
159.983441
 20
179.428878
 30
0.0
 11
160.582162
 21
180.027599
 31
0.0
  0
LINE
  5
90E
100
AcDbEntity
  8
0
 62
     0
100
AcDbLine
 10
160.570247
 20
179.485354
 30
0.0
 11
160.912905
 21
179.828011
 31
0.0
  0
ENDBLK
  5
90F
100
AcDbEntity
  8
0
100
AcDbBlockEnd
  0
BLOCK
  5
910
100
AcDbEntity
  8
0
100
AcDbBlockBegin
  2
*X3
 70
     1
 10
0.0
 20
0.0
 30
0.0
  3
*X3
  1

  0
LINE
  5
911
100
AcDbEntity
  8
0
 62
     0
100
AcDbLine
 10
140.116297
 20
157.61719
 30
0.0
 11
140.459297
 21
157.96019
 31
0.0
  0
LINE
  5
912
100
AcDbEntity
  8
0
 62
     0
100
AcDbLine
 10
140.116297
 20
158.14752
 30
0.0
 11
140.459297
 21
158.49052
 31
0.0
  0
LINE
  5
913
100
AcDbEntity
  8
0
 62
     0
100
AcDbLine
 10
140.116297
 20
158.67785
 30
0.0
 11
140.459297
 21
159.02085
 31
0.0
  0
LINE
  5
914
100
AcDbEntity
  8
0
 62
     0
100
AcDbLine
 10
140.116297
 20
159.20818
 30
0.0
 11
140.459297
 21
159.55118
 31
0.0
  0
LINE
  5
915
100
AcDbEntity
  8
0
 62
     0
100
AcDbLine
 10
140.116297
 20
159.73851
 30
0.0
 11
140.305102
 21
159.927315
 31
0.0
  0
LINE
  5
916
100
AcDbEntity
  8
0
 62
     0
100
AcDbLine
 10
139.866297
 20
156.83686
 30
0.0
 11
140.587151
 21
157.557714
 31
0.0
  0
LINE
  5
917
100
AcDbEntity
  8
0
 62
     0
100
AcDbLine
 10
140.293829
 20
156.734061
 30
0.0
 11
140.866297
 21
157.30653
 31
0.0
  0
LINE
  5
918
100
AcDbEntity
  8
0
 62
     0
100
AcDbLine
 10
140.116297
 20
157.970743
 30
0.0
 11
140.459297
 21
158.313743
 31
0.0
  0
LINE
  5
919
100
AcDbEntity
  8
0
 62
     0
100
AcDbLine
 10
140.116297
 20
158.501073
 30
0.0
 11
140.459297
 21
158.844073
 31
0.0
  0
LINE
  5
91A
100
AcDbEntity
  8
0
 62
     0
100
AcDbLine
 10
140.116297
 20
159.031404
 30
0.0
 11
140.459297
 21
159.374404
 31
0.0
  0
LINE
  5
91B
100
AcDbEntity
  8
0
 62
     0
100
AcDbLine
 10
140.116297
 20
159.561734
 30
0.0
 11
140.459297
 21
159.904734
 31
0.0
  0
LINE
  5
91C
100
AcDbEntity
  8
0
 62
     0
100
AcDbLine
 10
140.116297
 20
157.440413
 30
0.0
 11
140.459297
 21
157.783413
 31
0.0
  0
LINE
  5
91D
100
AcDbEntity
  8
0
 62
     0
100
AcDbLine
 10
139.866297
 20
156.660083
 30
0.0
 11
140.691689
 21
157.485475
 31
0.0
  0
LINE
  5
91E
100
AcDbEntity
  8
0
 62
     0
100
AcDbLine
 10
140.511589
 20
156.775045
 30
0.0
 11
140.866297
 21
157.129753
 31
0.0
  0
ENDBLK
  5
91F
100
AcDbEntity
  8
0
100
AcDbBlockEnd
  0
BLOCK
  5
920
100
AcDbEntity
  8
0
100
AcDbBlockBegin
  2
*X4
 70
     1
 10
0.0
 20
0.0
 30
0.0
  3
*X4
  1

  0
LINE
  5
921
100
AcDbEntity
  8
0
 62
     0
100
AcDbLine
 10
156.182357
 20
155.121697
 30
0.0
 11
156.525357
 21
155.464697
 31
0.0
  0
LINE
  5
922
100
AcDbEntity
  8
0
 62
     0
100
AcDbLine
 10
156.182357
 20
155.652027
 30
0.0
 11
156.525357
 21
155.995027
 31
0.0
  0
LINE
  5
923
100
AcDbEntity
  8
0
 62
     0
100
AcDbLine
 10
156.182357
 20
156.182357
 30
0.0
 11
156.525357
 21
156.525357
 31
0.0
  0
LINE
  5
924
100
AcDbEntity
  8
0
 62
     0
100
AcDbLine
 10
156.182357
 20
154.591367
 30
0.0
 11
156.525357
 21
154.934367
 31
0.0
  0
LINE
  5
925
100
AcDbEntity
  8
0
 62
     0
100
AcDbLine
 10
155.058284
 20
152.936964
 30
0.0
 11
155.527894
 21
153.406574
 31
0.0
  0
LINE
  5
926
100
AcDbEntity
  8
0
 62
     0
100
AcDbLine
 10
156.182357
 20
154.061037
 30
0.0
 11
156.597389
 21
154.476069
 31
0.0
  0
LINE
  5
927
100
AcDbEntity
  8
0
 62
     0
100
AcDbLine
 10
155.759868
 20
153.108218
 30
0.0
 11
156.890975
 21
154.239324
 31
0.0
  0
LINE
  5
928
100
AcDbEntity
  8
0
 62
     0
100
AcDbLine
 10
156.43367
 20
153.25169
 30
0.0
 11
157.057357
 21
153.875377
 31
0.0
  0
LINE
  5
929
100
AcDbEntity
  8
0
 62
     0
100
AcDbLine
 10
156.182357
 20
154.944921
 30
0.0
 11
156.525357
 21
155.287921
 31
0.0
  0
LINE
  5
92A
100
AcDbEntity
  8
0
 62
     0
100
AcDbLine
 10
156.182357
 20
155.475251
 30
0.0
 11
156.525357
 21
155.818251
 31
0.0
  0
LINE
  5
92B
100
AcDbEntity
  8
0
 62
     0
100
AcDbLine
 10
156.182357
 20
156.005581
 30
0.0
 11
156.525357
 21
156.348581
 31
0.0
  0
LINE
  5
92C
100
AcDbEntity
  8
0
 62
     0
100
AcDbLine
 10
156.182357
 20
156.535911
 30
0.0
 11
156.236601
 21
156.590155
 31
0.0
  0
LINE
  5
92D
100
AcDbEntity
  8
0
 62
     0
100
AcDbLine
 10
155.047499
 20
153.279732
 30
0.0
 11
155.059224
 21
153.291457
 31
0.0
  0
LINE
  5
92E
100
AcDbEntity
  8
0
 62
     0
100
AcDbLine
 10
156.182357
 20
154.41459
 30
0.0
 11
156.525357
 21
154.75759
 31
0.0
  0
LINE
  5
92F
100
AcDbEntity
  8
0
 62
     0
100
AcDbLine
 10
155.295486
 20
152.997389
 30
0.0
 11
155.757451
 21
153.459354
 31
0.0
  0
LINE
  5
930
100
AcDbEntity
  8
0
 62
     0
100
AcDbLine
 10
156.182357
 20
153.88426
 30
0.0
 11
156.695251
 21
154.397154
 31
0.0
  0
LINE
  5
931
100
AcDbEntity
  8
0
 62
     0
100
AcDbLine
 10
155.987366
 20
153.158939
 30
0.0
 11
156.988837
 21
154.160409
 31
0.0
  0
LINE
  5
932
100
AcDbEntity
  8
0
 62
     0
100
AcDbLine
 10
156.652724
 20
153.293966
 30
0.0
 11
157.057357
 21
153.6986
 31
0.0
  0
ENDBLK
  5
933
100
AcDbEntity
  8
0
100
AcDbBlockEnd
  0
BLOCK
  5
934
100
AcDbEntity
  8
0
100
AcDbBlockBegin
  2
*D5
 70
     1
 10
0.0
 20
0.0
 30
0.0
  3
*D5
  1

  0
LINE
  5
935
100
AcDbEntity
  8
0
  6
BYBLOCK
 62
     0
100
AcDbLine
 10
162.958101
 20
172.495955
 30
0.0
 11
162.958101
 21
171.366284
 31
0.0
  0
LINE
  5
936
100
AcDbEntity
  8
0
  6
BYBLOCK
 62
     0
100
AcDbLine
 10
169.208101
 20
172.495955
 30
0.0
 11
169.208101
 21
171.366284
 31
0.0
  0
LINE
  5
937
100
AcDbEntity
  8
0
  6
BYBLOCK
 62
     0
100
AcDbLine
 10
163.308101
 20
171.546284
 30
0.0
 11
164.935959
 21
171.546284
 31
0.0
  0
LINE
  5
938
100
AcDbEntity
  8
0
  6
BYBLOCK
 62
     0
100
AcDbLine
 10
168.858101
 20
171.546284
 30
0.0
 11
167.230244
 21
171.546284
 31
0.0
  0
SOLID
  5
939
100
AcDbEntity
  8
0
  6
BYBLOCK
 62
     0
100
AcDbTrace
 10
163.308101
 20
171.604617
 30
0.0
 11
163.308101
 21
171.48795
 31
0.0
 12
162.958101
 22
171.546284
 32
0.0
 13
162.958101
 23
171.546284
 33
0.0
  0
SOLID
  5
93A
100
AcDbEntity
  8
0
  6
BYBLOCK
 62
     0
100
AcDbTrace
 10
168.858101
 20
171.604617
 30
0.0
 11
168.858101
 21
171.48795
 31
0.0
 12
169.208101
 22
171.546284
 32
0.0
 13
169.208101
 23
171.546284
 33
0.0
  0
TEXT
  5
93B
100
AcDbEntity
  8
0
  6
BYBLOCK
 62
     0
100
AcDbText
 10
164.949768
 20
171.346284
 30
0.0
 40
0.4
  1
6 1/4"
  7
ROMANS
 72
     1
 11
166.083101
 21
171.546284
 31
0.0
100
AcDbText
 73
     2
  0
POINT
  5
93D
100
AcDbEntity
  8
DEFPOINTS
  6
BYBLOCK
 62
     0
100
AcDbPoint
 10
162.958101
 20
172.558455
 30
0.0
  0
POINT
  5
93E
100
AcDbEntity
  8
DEFPOINTS
  6
BYBLOCK
 62
     0
100
AcDbPoint
 10
169.208101
 20
172.558455
 30
0.0
  0
POINT
  5
93F
100
AcDbEntity
  8
DEFPOINTS
  6
BYBLOCK
 62
     0
100
AcDbPoint
 10
169.208101
 20
171.546284
 30
0.0
  0
ENDBLK
  5
940
100
AcDbEntity
  8
0
100
AcDbBlockEnd
  0
BLOCK
  5
941
100
AcDbEntity
  8
0
100
AcDbBlockBegin
  2
*D6
 70
     1
 10
0.0
 20
0.0
 30
0.0
  3
*D6
  1

  0
LINE
  5
942
100
AcDbEntity
  8
0
  6
BYBLOCK
 62
     0
100
AcDbLine
 10
162.551101
 20
173.305706
 30
0.0
 11
162.551101
 21
170.299266
 31
0.0
  0
LINE
  5
943
100
AcDbEntity
  8
0
  6
BYBLOCK
 62
     0
100
AcDbLine
 10
169.615101
 20
173.305706
 30
0.0
 11
169.615101
 21
170.299266
 31
0.0
  0
LINE
  5
944
100
AcDbEntity
  8
0
  6
BYBLOCK
 62
     0
100
AcDbLine
 10
162.901101
 20
170.479266
 30
0.0
 11
164.735959
 21
170.479266
 31
0.0
  0
LINE
  5
945
100
AcDbEntity
  8
0
  6
BYBLOCK
 62
     0
100
AcDbLine
 10
169.265101
 20
170.479266
 30
0.0
 11
167.430244
 21
170.479266
 31
0.0
  0
SOLID
  5
946
100
AcDbEntity
  8
0
  6
BYBLOCK
 62
     0
100
AcDbTrace
 10
162.901101
 20
170.537599
 30
0.0
 11
162.901101
 21
170.420933
 31
0.0
 12
162.551101
 22
170.479266
 32
0.0
 13
162.551101
 23
170.479266
 33
0.0
  0
SOLID
  5
947
100
AcDbEntity
  8
0
  6
BYBLOCK
 62
     0
100
AcDbTrace
 10
169.265101
 20
170.537599
 30
0.0
 11
169.265101
 21
170.420933
 31
0.0
 12
169.615101
 22
170.479266
 32
0.0
 13
169.615101
 23
170.479266
 33
0.0
  0
TEXT
  5
948
100
AcDbEntity
  8
0
  6
BYBLOCK
 62
     0
100
AcDbText
 10
164.768816
 20
170.279266
 30
0.0
 40
0.4
  1
7 1/16"
  7
ROMANS
 72
     1
 11
166.083101
 21
170.479266
 31
0.0
100
AcDbText
 73
     2
  0
POINT
  5
949
100
AcDbEntity
  8
DEFPOINTS
  6
BYBLOCK
 62
     0
100
AcDbPoint
 10
162.551101
 20
173.368206
 30
0.0
  0
POINT
  5
94A
100
AcDbEntity
  8
DEFPOINTS
  6
BYBLOCK
 62
     0
100
AcDbPoint
 10
169.615101
 20
173.368206
 30
0.0
  0
POINT
  5
94B
100
AcDbEntity
  8
DEFPOINTS
  6
BYBLOCK
 62
     0
100
AcDbPoint
 10
169.615101
 20
170.479266
 30
0.0
  0
ENDBLK
  5
94C
100
AcDbEntity
  8
0
100
AcDbBlockEnd
  0
BLOCK
  5
94D
100
AcDbEntity
  8
0
100
AcDbBlockBegin
  2
*D7
 70
     1
 10
0.0
 20
0.0
 30
0.0
  3
*D7
  1

  0
LINE
  5
94E
100
AcDbEntity
  8
0
  6
BYBLOCK
 62
     0
100
AcDbLine
 10
140.110866
 20
175.66134
 30
0.0
 11
140.110866
 21
173.222405
 31
0.0
  0
LINE
  5
94F
100
AcDbEntity
  8
0
  6
BYBLOCK
 62
     0
100
AcDbLine
 10
143.122866
 20
175.66134
 30
0.0
 11
143.122866
 21
173.222405
 31
0.0
  0
LINE
  5
950
100
AcDbEntity
  8
0
  6
BYBLOCK
 62
     0
100
AcDbLine
 10
140.460866
 20
173.402405
 30
0.0
 11
141.250676
 21
173.402405
 31
0.0
  0
LINE
  5
951
100
AcDbEntity
  8
0
  6
BYBLOCK
 62
     0
100
AcDbLine
 10
142.772866
 20
173.402405
 30
0.0
 11
141.983057
 21
173.402405
 31
0.0
  0
SOLID
  5
952
100
AcDbEntity
  8
0
  6
BYBLOCK
 62
     0
100
AcDbTrace
 10
140.460866
 20
173.460739
 30
0.0
 11
140.460866
 21
173.344072
 31
0.0
 12
140.110866
 22
173.402405
 32
0.0
 13
140.110866
 23
173.402405
 33
0.0
  0
SOLID
  5
953
100
AcDbEntity
  8
0
  6
BYBLOCK
 62
     0
100
AcDbTrace
 10
142.772866
 20
173.460739
 30
0.0
 11
142.772866
 21
173.344072
 31
0.0
 12
143.122866
 22
173.402405
 32
0.0
 13
143.122866
 23
173.402405
 33
0.0
  0
TEXT
  5
954
100
AcDbEntity
  8
0
  6
BYBLOCK
 62
     0
100
AcDbText
 10
141.283533
 20
173.202405
 30
0.0
 40
0.4
  1
3"
  7
ROMANS
 72
     1
 11
141.616866
 21
173.402405
 31
0.0
100
AcDbText
 73
     2
  0
POINT
  5
955
100
AcDbEntity
  8
DEFPOINTS
  6
BYBLOCK
 62
     0
100
AcDbPoint
 10
140.110866
 20
175.72384
 30
0.0
  0
POINT
  5
956
100
AcDbEntity
  8
DEFPOINTS
  6
BYBLOCK
 62
     0
100
AcDbPoint
 10
143.122866
 20
175.72384
 30
0.0
  0
POINT
  5
957
100
AcDbEntity
  8
DEFPOINTS
  6
BYBLOCK
 62
     0
100
AcDbPoint
 10
143.122866
 20
173.402405
 30
0.0
  0
ENDBLK
  5
958
100
AcDbEntity
  8
0
100
AcDbBlockEnd
  0
BLOCK
  5
959
100
AcDbEntity
  8
0
100
AcDbBlockBegin
  2
*D8
 70
     1
 10
0.0
 20
0.0
 30
0.0
  3
*D8
  1

  0
LINE
  5
95A
100
AcDbEntity
  8
0
  6
BYBLOCK
 62
     0
100
AcDbLine
 10
140.491866
 20
175.365347
 30
0.0
 11
140.491866
 21
174.091736
 31
0.0
  0
LINE
  5
95B
100
AcDbEntity
  8
0
  6
BYBLOCK
 62
     0
100
AcDbLine
 10
142.741866
 20
175.365347
 30
0.0
 11
142.741866
 21
174.091736
 31
0.0
  0
LINE
  5
95C
100
AcDbEntity
  8
0
  6
BYBLOCK
 62
     0
100
AcDbLine
 10
140.841866
 20
174.271736
 30
0.0
 11
142.391866
 21
174.271736
 31
0.0
  0
SOLID
  5
95D
100
AcDbEntity
  8
0
  6
BYBLOCK
 62
     0
100
AcDbTrace
 10
140.841866
 20
174.330069
 30
0.0
 11
140.841866
 21
174.213403
 31
0.0
 12
140.491866
 22
174.271736
 32
0.0
 13
140.491866
 23
174.271736
 33
0.0
  0
SOLID
  5
95E
100
AcDbEntity
  8
0
  6
BYBLOCK
 62
     0
100
AcDbTrace
 10
142.391866
 20
174.330069
 30
0.0
 11
142.391866
 21
174.213403
 31
0.0
 12
142.741866
 22
174.271736
 32
0.0
 13
142.741866
 23
174.271736
 33
0.0
  0
TEXT
  5
95F
100
AcDbEntity
  8
0
  6
BYBLOCK
 62
     0
100
AcDbText
 10
140.494674
 20
174.451183
 30
0.0
 40
0.4
  1
2 1/4"
  7
ROMANS
 72
     1
 11
141.618484
 21
174.651183
 31
0.0
100
AcDbText
 73
     2
  0
POINT
  5
960
100
AcDbEntity
  8
DEFPOINTS
  6
BYBLOCK
 62
     0
100
AcDbPoint
 10
140.491866
 20
175.427847
 30
0.0
  0
POINT
  5
961
100
AcDbEntity
  8
DEFPOINTS
  6
BYBLOCK
 62
     0
100
AcDbPoint
 10
142.741866
 20
175.427847
 30
0.0
  0
POINT
  5
962
100
AcDbEntity
  8
DEFPOINTS
  6
BYBLOCK
 62
     0
100
AcDbPoint
 10
142.741866
 20
174.271736
 30
0.0
  0
ENDBLK
  5
963
100
AcDbEntity
  8
0
100
AcDbBlockEnd
  0
BLOCK
  5
964
100
AcDbEntity
  8
0
100
AcDbBlockBegin
  2
*D9
 70
     1
 10
0.0
 20
0.0
 30
0.0
  3
*D9
  1

  0
LINE
  5
965
100
AcDbEntity
  8
0
  6
BYBLOCK
 62
     0
100
AcDbLine
 10
146.147798
 20
175.173092
 30
0.0
 11
146.147798
 21
172.756873
 31
0.0
  0
LINE
  5
966
100
AcDbEntity
  8
0
  6
BYBLOCK
 62
     0
100
AcDbLine
 10
150.122798
 20
175.173092
 30
0.0
 11
150.122798
 21
172.756873
 31
0.0
  0
LINE
  5
967
100
AcDbEntity
  8
0
  6
BYBLOCK
 62
     0
100
AcDbLine
 10
146.497798
 20
172.936873
 30
0.0
 11
147.769108
 21
172.936873
 31
0.0
  0
LINE
  5
968
100
AcDbEntity
  8
0
  6
BYBLOCK
 62
     0
100
AcDbLine
 10
149.772798
 20
172.936873
 30
0.0
 11
148.501489
 21
172.936873
 31
0.0
  0
SOLID
  5
969
100
AcDbEntity
  8
0
  6
BYBLOCK
 62
     0
100
AcDbTrace
 10
146.497798
 20
172.995207
 30
0.0
 11
146.497798
 21
172.87854
 31
0.0
 12
146.147798
 22
172.936873
 32
0.0
 13
146.147798
 23
172.936873
 33
0.0
  0
SOLID
  5
96A
100
AcDbEntity
  8
0
  6
BYBLOCK
 62
     0
100
AcDbTrace
 10
149.772798
 20
172.995207
 30
0.0
 11
149.772798
 21
172.87854
 31
0.0
 12
150.122798
 22
172.936873
 32
0.0
 13
150.122798
 23
172.936873
 33
0.0
  0
TEXT
  5
96B
100
AcDbEntity
  8
0
  6
BYBLOCK
 62
     0
100
AcDbText
 10
147.801965
 20
172.736873
 30
0.0
 40
0.4
  1
4"
  7
ROMANS
 72
     1
 11
148.135298
 21
172.936873
 31
0.0
100
AcDbText
 73
     2
  0
POINT
  5
96C
100
AcDbEntity
  8
DEFPOINTS
  6
BYBLOCK
 62
     0
100
AcDbPoint
 10
146.147798
 20
175.235592
 30
0.0
  0
POINT
  5
96D
100
AcDbEntity
  8
DEFPOINTS
  6
BYBLOCK
 62
     0
100
AcDbPoint
 10
150.122798
 20
175.235592
 30
0.0
  0
POINT
  5
96E
100
AcDbEntity
  8
DEFPOINTS
  6
BYBLOCK
 62
     0
100
AcDbPoint
 10
150.122798
 20
172.936873
 30
0.0
  0
ENDBLK
  5
96F
100
AcDbEntity
  8
0
100
AcDbBlockEnd
  0
BLOCK
  5
970
100
AcDbEntity
  8
0
100
AcDbBlockBegin
  2
*D10
 70
     1
 10
0.0
 20
0.0
 30
0.0
  3
*D10
  1

  0
LINE
  5
971
100
AcDbEntity
  8
0
  6
BYBLOCK
 62
     0
100
AcDbLine
 10
146.610298
 20
174.884289
 30
0.0
 11
146.610298
 21
173.628059
 31
0.0
  0
LINE
  5
972
100
AcDbEntity
  8
0
  6
BYBLOCK
 62
     0
100
AcDbLine
 10
149.660298
 20
174.884289
 30
0.0
 11
149.660298
 21
173.628059
 31
0.0
  0
LINE
  5
973
100
AcDbEntity
  8
0
  6
BYBLOCK
 62
     0
100
AcDbLine
 10
146.960298
 20
173.808059
 30
0.0
 11
147.769108
 21
173.808059
 31
0.0
  0
LINE
  5
974
100
AcDbEntity
  8
0
  6
BYBLOCK
 62
     0
100
AcDbLine
 10
149.310298
 20
173.808059
 30
0.0
 11
148.501489
 21
173.808059
 31
0.0
  0
SOLID
  5
975
100
AcDbEntity
  8
0
  6
BYBLOCK
 62
     0
100
AcDbTrace
 10
146.960298
 20
173.866393
 30
0.0
 11
146.960298
 21
173.749726
 31
0.0
 12
146.610298
 22
173.808059
 32
0.0
 13
146.610298
 23
173.808059
 33
0.0
  0
SOLID
  5
976
100
AcDbEntity
  8
0
  6
BYBLOCK
 62
     0
100
AcDbTrace
 10
149.310298
 20
173.866393
 30
0.0
 11
149.310298
 21
173.749726
 31
0.0
 12
149.660298
 22
173.808059
 32
0.0
 13
149.660298
 23
173.808059
 33
0.0
  0
TEXT
  5
977
100
AcDbEntity
  8
0
  6
BYBLOCK
 62
     0
100
AcDbText
 10
147.801965
 20
173.608059
 30
0.0
 40
0.4
  1
3"
  7
ROMANS
 72
     1
 11
148.135298
 21
173.808059
 31
0.0
100
AcDbText
 73
     2
  0
POINT
  5
978
100
AcDbEntity
  8
DEFPOINTS
  6
BYBLOCK
 62
     0
100
AcDbPoint
 10
146.610298
 20
174.946789
 30
0.0
  0
POINT
  5
979
100
AcDbEntity
  8
DEFPOINTS
  6
BYBLOCK
 62
     0
100
AcDbPoint
 10
149.660298
 20
174.946789
 30
0.0
  0
POINT
  5
97A
100
AcDbEntity
  8
DEFPOINTS
  6
BYBLOCK
 62
     0
100
AcDbPoint
 10
149.660298
 20
173.808059
 30
0.0
  0
ENDBLK
  5
97B
100
AcDbEntity
  8
0
100
AcDbBlockEnd
  0
BLOCK
  5
988
100
AcDbEntity
  8
0
100
AcDbBlockBegin
  2
*D11
 70
     1
 10
0.0
 20
0.0
 30
0.0
  3
*D11
  1

  0
LINE
  5
989
100
AcDbEntity
  8
0
  6
BYBLOCK
 62
     0
100
AcDbLine
 10
153.980121
 20
174.604327
 30
0.0
 11
153.980121
 21
173.179253
 31
0.0
  0
LINE
  5
98A
100
AcDbEntity
  8
0
  6
BYBLOCK
 62
     0
100
AcDbLine
 10
158.167721
 20
174.604327
 30
0.0
 11
158.167721
 21
173.179253
 31
0.0
  0
LINE
  5
98B
100
AcDbEntity
  8
0
  6
BYBLOCK
 62
     0
100
AcDbLine
 10
154.330121
 20
173.359253
 30
0.0
 11
154.726778
 21
173.359253
 31
0.0
  0
LINE
  5
98C
100
AcDbEntity
  8
0
  6
BYBLOCK
 62
     0
100
AcDbLine
 10
157.817721
 20
173.359253
 30
0.0
 11
157.421064
 21
173.359253
 31
0.0
  0
SOLID
  5
98D
100
AcDbEntity
  8
0
  6
BYBLOCK
 62
     0
100
AcDbTrace
 10
154.330121
 20
173.417586
 30
0.0
 11
154.330121
 21
173.30092
 31
0.0
 12
153.980121
 22
173.359253
 32
0.0
 13
153.980121
 23
173.359253
 33
0.0
  0
SOLID
  5
98E
100
AcDbEntity
  8
0
  6
BYBLOCK
 62
     0
100
AcDbTrace
 10
157.817721
 20
173.417586
 30
0.0
 11
157.817721
 21
173.30092
 31
0.0
 12
158.167721
 22
173.359253
 32
0.0
 13
158.167721
 23
173.359253
 33
0.0
  0
TEXT
  5
98F
100
AcDbEntity
  8
0
  6
BYBLOCK
 62
     0
100
AcDbText
 10
154.759635
 20
173.159253
 30
0.0
 40
0.4
  1
4 3/16"
  7
ROMANS
 72
     1
 11
156.073921
 21
173.359253
 31
0.0
100
AcDbText
 73
     2
  0
POINT
  5
990
100
AcDbEntity
  8
DEFPOINTS
  6
BYBLOCK
 62
     0
100
AcDbPoint
 10
153.980121
 20
174.666827
 30
0.0
  0
POINT
  5
991
100
AcDbEntity
  8
DEFPOINTS
  6
BYBLOCK
 62
     0
100
AcDbPoint
 10
158.167721
 20
174.666827
 30
0.0
  0
POINT
  5
992
100
AcDbEntity
  8
DEFPOINTS
  6
BYBLOCK
 62
     0
100
AcDbPoint
 10
158.167721
 20
173.359253
 30
0.0
  0
ENDBLK
  5
993
100
AcDbEntity
  8
0
100
AcDbBlockEnd
  0
BLOCK
  5
994
100
AcDbEntity
  8
0
100
AcDbBlockBegin
  2
*X12
 70
     1
 10
0.0
 20
0.0
 30
0.0
  3
*X12
  1

  0
LINE
  5
995
100
AcDbEntity
  8
0
 62
     0
100
AcDbLine
 10
178.971041
 20
176.186808
 30
0.0
 11
179.296041
 21
176.511808
 31
0.0
  0
LINE
  5
996
100
AcDbEntity
  8
0
 62
     0
100
AcDbLine
 10
178.971041
 20
176.584555
 30
0.0
 11
179.296041
 21
176.909555
 31
0.0
  0
LINE
  5
997
100
AcDbEntity
  8
0
 62
     0
100
AcDbLine
 10
178.971041
 20
176.982303
 30
0.0
 11
179.296041
 21
177.307303
 31
0.0
  0
LINE
  5
998
100
AcDbEntity
  8
0
 62
     0
100
AcDbLine
 10
178.971041
 20
177.38005
 30
0.0
 11
179.215773
 21
177.624783
 31
0.0
  0
LINE
  5
999
100
AcDbEntity
  8
0
 62
     0
100
AcDbLine
 10
178.971041
 20
175.78906
 30
0.0
 11
179.296041
 21
176.11406
 31
0.0
  0
LINE
  5
99A
100
AcDbEntity
  8
0
 62
     0
100
AcDbLine
 10
177.721041
 20
174.141313
 30
0.0
 11
177.798458
 21
174.21873
 31
0.0
  0
LINE
  5
99B
100
AcDbEntity
  8
0
 62
     0
100
AcDbLine
 10
178.971041
 20
175.391313
 30
0.0
 11
179.296041
 21
175.716313
 31
0.0
  0
LINE
  5
99C
100
AcDbEntity
  8
0
 62
     0
100
AcDbLine
 10
177.757095
 20
173.77962
 30
0.0
 11
178.486515
 21
174.509039
 31
0.0
  0
LINE
  5
99D
100
AcDbEntity
  8
0
 62
     0
100
AcDbLine
 10
178.971041
 20
174.993565
 30
0.0
 11
179.296041
 21
175.318565
 31
0.0
  0
LINE
  5
99E
100
AcDbEntity
  8
0
 62
     0
100
AcDbLine
 10
178.47575
 20
174.100527
 30
0.0
 11
179.296041
 21
174.920817
 31
0.0
  0
LINE
  5
99F
100
AcDbEntity
  8
0
 62
     0
100
AcDbLine
 10
179.09226
 20
174.319289
 30
0.0
 11
179.613441
 21
174.84047
 31
0.0
  0
LINE
  5
9A0
100
AcDbEntity
  8
0
 62
     0
100
AcDbLine
 10
179.645219
 20
174.474501
 30
0.0
 11
179.720449
 21
174.549731
 31
0.0
  0
LINE
  5
9A1
100
AcDbEntity
  8
0
 62
     0
100
AcDbLine
 10
178.971041
 20
176.054225
 30
0.0
 11
179.296041
 21
176.379225
 31
0.0
  0
LINE
  5
9A2
100
AcDbEntity
  8
0
 62
     0
100
AcDbLine
 10
178.971041
 20
176.451973
 30
0.0
 11
179.296041
 21
176.776973
 31
0.0
  0
LINE
  5
9A3
100
AcDbEntity
  8
0
 62
     0
100
AcDbLine
 10
178.971041
 20
176.84972
 30
0.0
 11
179.296041
 21
177.17472
 31
0.0
  0
LINE
  5
9A4
100
AcDbEntity
  8
0
 62
     0
100
AcDbLine
 10
178.971041
 20
177.247468
 30
0.0
 11
179.296041
 21
177.572468
 31
0.0
  0
LINE
  5
9A5
100
AcDbEntity
  8
0
 62
     0
100
AcDbLine
 10
178.971041
 20
175.656478
 30
0.0
 11
179.296041
 21
175.981478
 31
0.0
  0
LINE
  5
9A6
100
AcDbEntity
  8
0
 62
     0
100
AcDbLine
 10
177.721041
 20
174.00873
 30
0.0
 11
178.04044
 21
174.328129
 31
0.0
  0
LINE
  5
9A7
100
AcDbEntity
  8
0
 62
     0
100
AcDbLine
 10
178.971041
 20
175.25873
 30
0.0
 11
179.296041
 21
175.58373
 31
0.0
  0
LINE
  5
9A8
100
AcDbEntity
  8
0
 62
     0
100
AcDbLine
 10
178.012116
 20
173.902058
 30
0.0
 11
178.694686
 21
174.584628
 31
0.0
  0
LINE
  5
9A9
100
AcDbEntity
  8
0
 62
     0
100
AcDbLine
 10
178.971041
 20
174.860982
 30
0.0
 11
179.296041
 21
175.185982
 31
0.0
  0
LINE
  5
9AA
100
AcDbEntity
  8
0
 62
     0
100
AcDbLine
 10
178.690036
 20
174.18223
 30
0.0
 11
179.296041
 21
174.788235
 31
0.0
  0
LINE
  5
9AB
100
AcDbEntity
  8
0
 62
     0
100
AcDbLine
 10
179.282487
 20
174.376934
 30
0.0
 11
179.64911
 21
174.743557
 31
0.0
  0
ENDBLK
  5
9AC
100
AcDbEntity
  8
0
100
AcDbBlockEnd
  0
BLOCK
  5
9AD
100
AcDbEntity
  8
0
100
AcDbBlockBegin
  2
*D13
 70
     1
 10
0.0
 20
0.0
 30
0.0
  3
*D13
  1

  0
LINE
  5
9AE
100
AcDbEntity
  8
0
  6
BYBLOCK
 62
     0
100
AcDbLine
 10
140.877284
 20
156.900446
 30
0.0
 11
140.877284
 21
155.788661
 31
0.0
  0
LINE
  5
9AF
100
AcDbEntity
  8
0
  6
BYBLOCK
 62
     0
100
AcDbLine
 10
148.877284
 20
156.900446
 30
0.0
 11
148.877284
 21
155.788661
 31
0.0
  0
LINE
  5
9B0
100
AcDbEntity
  8
0
  6
BYBLOCK
 62
     0
100
AcDbLine
 10
141.227284
 20
155.968661
 30
0.0
 11
144.511094
 21
155.968661
 31
0.0
  0
LINE
  5
9B1
100
AcDbEntity
  8
0
  6
BYBLOCK
 62
     0
100
AcDbLine
 10
148.527284
 20
155.968661
 30
0.0
 11
145.243475
 21
155.968661
 31
0.0
  0
SOLID
  5
9B2
100
AcDbEntity
  8
0
  6
BYBLOCK
 62
     0
100
AcDbTrace
 10
141.227284
 20
156.026994
 30
0.0
 11
141.227284
 21
155.910327
 31
0.0
 12
140.877284
 22
155.968661
 32
0.0
 13
140.877284
 23
155.968661
 33
0.0
  0
SOLID
  5
9B3
100
AcDbEntity
  8
0
  6
BYBLOCK
 62
     0
100
AcDbTrace
 10
148.527284
 20
156.026994
 30
0.0
 11
148.527284
 21
155.910327
 31
0.0
 12
148.877284
 22
155.968661
 32
0.0
 13
148.877284
 23
155.968661
 33
0.0
  0
TEXT
  5
9B4
100
AcDbEntity
  8
0
  6
BYBLOCK
 62
     0
100
AcDbText
 10
144.543951
 20
155.768661
 30
0.0
 40
0.4
  1
8"
  7
ROMANS
 72
     1
 11
144.877284
 21
155.968661
 31
0.0
100
AcDbText
 73
     2
  0
POINT
  5
9B5
100
AcDbEntity
  8
DEFPOINTS
  6
BYBLOCK
 62
     0
100
AcDbPoint
 10
140.877284
 20
156.962946
 30
0.0
  0
POINT
  5
9B6
100
AcDbEntity
  8
DEFPOINTS
  6
BYBLOCK
 62
     0
100
AcDbPoint
 10
148.877284
 20
156.962946
 30
0.0
  0
POINT
  5
9B7
100
AcDbEntity
  8
DEFPOINTS
  6
BYBLOCK
 62
     0
100
AcDbPoint
 10
148.877284
 20
155.968661
 30
0.0
  0
ENDBLK
  5
9B8
100
AcDbEntity
  8
0
100
AcDbBlockEnd
  0
BLOCK
  5
9B9
100
AcDbEntity
  8
0
100
AcDbBlockBegin
  2
*D14
 70
     1
 10
0.0
 20
0.0
 30
0.0
  3
*D14
  1

  0
LINE
  5
9BA
100
AcDbEntity
  8
0
  6
BYBLOCK
 62
     0
100
AcDbLine
 10
140.345284
 20
158.068114
 30
0.0
 11
140.345284
 21
154.92625
 31
0.0
  0
LINE
  5
9BB
100
AcDbEntity
  8
0
  6
BYBLOCK
 62
     0
100
AcDbLine
 10
149.409284
 20
158.068114
 30
0.0
 11
149.409284
 21
154.92625
 31
0.0
  0
LINE
  5
9BC
100
AcDbEntity
  8
0
  6
BYBLOCK
 62
     0
100
AcDbLine
 10
140.695284
 20
155.10625
 30
0.0
 11
143.530141
 21
155.10625
 31
0.0
  0
LINE
  5
9BD
100
AcDbEntity
  8
0
  6
BYBLOCK
 62
     0
100
AcDbLine
 10
149.059284
 20
155.10625
 30
0.0
 11
146.224427
 21
155.10625
 31
0.0
  0
SOLID
  5
9BE
100
AcDbEntity
  8
0
  6
BYBLOCK
 62
     0
100
AcDbTrace
 10
140.695284
 20
155.164584
 30
0.0
 11
140.695284
 21
155.047917
 31
0.0
 12
140.345284
 22
155.10625
 32
0.0
 13
140.345284
 23
155.10625
 33
0.0
  0
SOLID
  5
9BF
100
AcDbEntity
  8
0
  6
BYBLOCK
 62
     0
100
AcDbTrace
 10
149.059284
 20
155.164584
 30
0.0
 11
149.059284
 21
155.047917
 31
0.0
 12
149.409284
 22
155.10625
 32
0.0
 13
149.409284
 23
155.10625
 33
0.0
  0
TEXT
  5
9C0
100
AcDbEntity
  8
0
  6
BYBLOCK
 62
     0
100
AcDbText
 10
143.562998
 20
154.90625
 30
0.0
 40
0.4
  1
9 1/16"
  7
ROMANS
 72
     1
 11
144.877284
 21
155.10625
 31
0.0
100
AcDbText
 73
     2
  0
POINT
  5
9C1
100
AcDbEntity
  8
DEFPOINTS
  6
BYBLOCK
 62
     0
100
AcDbPoint
 10
140.345284
 20
158.130614
 30
0.0
  0
POINT
  5
9C2
100
AcDbEntity
  8
DEFPOINTS
  6
BYBLOCK
 62
     0
100
AcDbPoint
 10
149.409284
 20
158.130614
 30
0.0
  0
POINT
  5
9C3
100
AcDbEntity
  8
DEFPOINTS
  6
BYBLOCK
 62
     0
100
AcDbPoint
 10
149.409284
 20
155.10625
 30
0.0
  0
ENDBLK
  5
9C4
100
AcDbEntity
  8
0
100
AcDbBlockEnd
  0
BLOCK
  5
9C5
100
AcDbEntity
  8
0
100
AcDbBlockBegin
  2
*D15
 70
     1
 10
0.0
 20
0.0
 30
0.0
  3
*D15
  1

  0
LINE
  5
9C6
100
AcDbEntity
  8
0
  6
BYBLOCK
 62
     0
100
AcDbLine
 10
175.101553
 20
164.451275
 30
0.0
 11
175.101553
 21
163.573999
 31
0.0
  0
LINE
  5
9C7
100
AcDbEntity
  8
0
  6
BYBLOCK
 62
     0
100
AcDbLine
 10
179.289153
 20
164.451275
 30
0.0
 11
179.289153
 21
163.573999
 31
0.0
  0
LINE
  5
9C8
100
AcDbEntity
  8
0
  6
BYBLOCK
 62
     0
100
AcDbLine
 10
175.451553
 20
163.753999
 30
0.0
 11
175.848211
 21
163.753999
 31
0.0
  0
LINE
  5
9C9
100
AcDbEntity
  8
0
  6
BYBLOCK
 62
     0
100
AcDbLine
 10
178.939153
 20
163.753999
 30
0.0
 11
178.542496
 21
163.753999
 31
0.0
  0
SOLID
  5
9CA
100
AcDbEntity
  8
0
  6
BYBLOCK
 62
     0
100
AcDbTrace
 10
175.451553
 20
163.812333
 30
0.0
 11
175.451553
 21
163.695666
 31
0.0
 12
175.101553
 22
163.753999
 32
0.0
 13
175.101553
 23
163.753999
 33
0.0
  0
SOLID
  5
9CB
100
AcDbEntity
  8
0
  6
BYBLOCK
 62
     0
100
AcDbTrace
 10
178.939153
 20
163.812333
 30
0.0
 11
178.939153
 21
163.695666
 31
0.0
 12
179.289153
 22
163.753999
 32
0.0
 13
179.289153
 23
163.753999
 33
0.0
  0
TEXT
  5
9CC
100
AcDbEntity
  8
0
  6
BYBLOCK
 62
     0
100
AcDbText
 10
175.881068
 20
163.553999
 30
0.0
 40
0.4
  1
4 3/16"
  7
ROMANS
 72
     1
 11
177.195353
 21
163.753999
 31
0.0
100
AcDbText
 73
     2
  0
POINT
  5
9CD
100
AcDbEntity
  8
DEFPOINTS
  6
BYBLOCK
 62
     0
100
AcDbPoint
 10
175.101553
 20
164.513775
 30
0.0
  0
POINT
  5
9CE
100
AcDbEntity
  8
DEFPOINTS
  6
BYBLOCK
 62
     0
100
AcDbPoint
 10
179.289153
 20
164.513775
 30
0.0
  0
POINT
  5
9CF
100
AcDbEntity
  8
DEFPOINTS
  6
BYBLOCK
 62
     0
100
AcDbPoint
 10
179.289153
 20
163.753999
 30
0.0
  0
ENDBLK
  5
9D0
100
AcDbEntity
  8
0
100
AcDbBlockEnd
  0
BLOCK
  5
9DD
100
AcDbEntity
  8
0
100
AcDbBlockBegin
  2
*D16
 70
     1
 10
0.0
 20
0.0
 30
0.0
  3
*D16
  1

  0
LINE
  5
9DE
100
AcDbEntity
  8
0
  6
BYBLOCK
 62
     0
100
AcDbLine
 10
153.536421
 20
175.820959
 30
0.0
 11
153.536421
 21
173.000749
 31
0.0
  0
LINE
  5
9DF
100
AcDbEntity
  8
0
  6
BYBLOCK
 62
     0
100
AcDbLine
 10
158.611421
 20
175.820959
 30
0.0
 11
158.611421
 21
173.000749
 31
0.0
  0
LINE
  5
9E0
100
AcDbEntity
  8
0
  6
BYBLOCK
 62
     0
100
AcDbLine
 10
153.886421
 20
173.180749
 30
0.0
 11
154.869635
 21
173.180749
 31
0.0
  0
LINE
  5
9E1
100
AcDbEntity
  8
0
  6
BYBLOCK
 62
     0
100
AcDbLine
 10
158.261421
 20
173.180749
 30
0.0
 11
157.278207
 21
173.180749
 31
0.0
  0
SOLID
  5
9E2
100
AcDbEntity
  8
0
  6
BYBLOCK
 62
     0
100
AcDbTrace
 10
153.886421
 20
173.239082
 30
0.0
 11
153.886421
 21
173.122416
 31
0.0
 12
153.536421
 22
173.180749
 32
0.0
 13
153.536421
 23
173.180749
 33
0.0
  0
SOLID
  5
9E3
100
AcDbEntity
  8
0
  6
BYBLOCK
 62
     0
100
AcDbTrace
 10
158.261421
 20
173.239082
 30
0.0
 11
158.261421
 21
173.122416
 31
0.0
 12
158.611421
 22
173.180749
 32
0.0
 13
158.611421
 23
173.180749
 33
0.0
  0
TEXT
  5
9E4
100
AcDbEntity
  8
0
  6
BYBLOCK
 62
     0
100
AcDbText
 10
154.902492
 20
172.980749
 30
0.0
 40
0.4
  1
5 1/16
  7
ROMANS
 72
     1
 11
156.073921
 21
173.180749
 31
0.0
100
AcDbText
 73
     2
  0
POINT
  5
9E5
100
AcDbEntity
  8
DEFPOINTS
  6
BYBLOCK
 62
     0
100
AcDbPoint
 10
153.536421
 20
175.883459
 30
0.0
  0
POINT
  5
9E6
100
AcDbEntity
  8
DEFPOINTS
  6
BYBLOCK
 62
     0
100
AcDbPoint
 10
158.611421
 20
175.883459
 30
0.0
  0
POINT
  5
9E7
100
AcDbEntity
  8
DEFPOINTS
  6
BYBLOCK
 62
     0
100
AcDbPoint
 10
158.611421
 20
173.180749
 30
0.0
  0
ENDBLK
  5
9E8
100
AcDbEntity
  8
0
100
AcDbBlockEnd
  0
BLOCK
  5
9E9
100
AcDbEntity
  8
0
100
AcDbBlockBegin
  2
*D17
 70
     1
 10
0.0
 20
0.0
 30
0.0
  3
*D17
  1

  0
LINE
  5
9EA
100
AcDbEntity
  8
0
  6
BYBLOCK
 62
     0
100
AcDbLine
 10
164.350771
 20
162.564953
 30
0.0
 11
164.350771
 21
160.449398
 31
0.0
  0
LINE
  5
9EB
100
AcDbEntity
  8
0
  6
BYBLOCK
 62
     0
100
AcDbLine
 10
169.425771
 20
162.564953
 30
0.0
 11
169.425771
 21
160.449398
 31
0.0
  0
LINE
  5
9EC
100
AcDbEntity
  8
0
  6
BYBLOCK
 62
     0
100
AcDbLine
 10
164.700771
 20
160.629398
 30
0.0
 11
165.683986
 21
160.629398
 31
0.0
  0
LINE
  5
9ED
100
AcDbEntity
  8
0
  6
BYBLOCK
 62
     0
100
AcDbLine
 10
169.075771
 20
160.629398
 30
0.0
 11
168.092557
 21
160.629398
 31
0.0
  0
SOLID
  5
9EE
100
AcDbEntity
  8
0
  6
BYBLOCK
 62
     0
100
AcDbTrace
 10
164.700771
 20
160.687731
 30
0.0
 11
164.700771
 21
160.571065
 31
0.0
 12
164.350771
 22
160.629398
 32
0.0
 13
164.350771
 23
160.629398
 33
0.0
  0
SOLID
  5
9EF
100
AcDbEntity
  8
0
  6
BYBLOCK
 62
     0
100
AcDbTrace
 10
169.075771
 20
160.687731
 30
0.0
 11
169.075771
 21
160.571065
 31
0.0
 12
169.425771
 22
160.629398
 32
0.0
 13
169.425771
 23
160.629398
 33
0.0
  0
TEXT
  5
9F0
100
AcDbEntity
  8
0
  6
BYBLOCK
 62
     0
100
AcDbText
 10
165.716843
 20
160.429398
 30
0.0
 40
0.4
  1
5 1/16
  7
ROMANS
 72
     1
 11
166.888271
 21
160.629398
 31
0.0
100
AcDbText
 73
     2
  0
POINT
  5
9F1
100
AcDbEntity
  8
DEFPOINTS
  6
BYBLOCK
 62
     0
100
AcDbPoint
 10
164.350771
 20
162.627453
 30
0.0
  0
POINT
  5
9F2
100
AcDbEntity
  8
DEFPOINTS
  6
BYBLOCK
 62
     0
100
AcDbPoint
 10
169.425771
 20
162.627453
 30
0.0
  0
POINT
  5
9F3
100
AcDbEntity
  8
DEFPOINTS
  6
BYBLOCK
 62
     0
100
AcDbPoint
 10
169.425771
 20
160.629398
 30
0.0
  0
ENDBLK
  5
9F4
100
AcDbEntity
  8
0
100
AcDbBlockEnd
  0
ENDSEC
  0
SECTION
  2
ENTITIES
  0
CIRCLE
  5
9F5
100
AcDbEntity
  8
OBJECT
100
AcDbCircle
 10
183.827875
 20
186.14634
 30
0.0
 40
1.85
  0
CIRCLE
  5
9F6
100
AcDbEntity
  8
OBJECT
100
AcDbCircle
 10
183.827875
 20
186.14634
 30
0.0
 40
1.506
  0
CIRCLE
  5
9F7
100
AcDbEntity
  8
OBJECT
100
AcDbCircle
 10
183.827875
 20
186.14634
 30
0.0
 40
1.125
  0
LINE
  5
9F8
100
AcDbEntity
  8
OBJECT
100
AcDbLine
 10
181.727875
 20
187.99634
 30
0.0
 11
181.727875
 21
186.732726
 31
0.0
  0
LINE
  5
9F9
100
AcDbEntity
  8
OBJECT
100
AcDbLine
 10
181.977875
 20
188.24634
 30
0.0
 11
183.24149
 21
188.24634
 31
0.0
  0
LINE
  5
9FA
100
AcDbEntity
  8
OBJECT
100
AcDbLine
 10
182.001086
 20
186.438469
 30
0.0
 11
181.862025
 21
186.511188
 31
0.0
  0
LINE
  5
9FB
100
AcDbEntity
  8
OBJECT
100
AcDbLine
 10
183.535747
 20
187.97313
 30
0.0
 11
183.463027
 21
188.11219
 31
0.0
  0
ARC
  5
9FC
100
AcDbEntity
  8
OBJECT
100
AcDbCircle
 10
181.977875
 20
186.732726
 30
0.0
 40
0.25
100
AcDbArc
 50
180.0
 51
242.393262
  0
ARC
  5
9FD
100
AcDbEntity
  8
OBJECT
100
AcDbCircle
 10
183.24149
 20
187.99634
 30
0.0
 40
0.25
100
AcDbArc
 50
27.606738
 51
90.0
  0
CIRCLE
  5
9FE
100
AcDbEntity
  8
OBJECT
100
AcDbCircle
 10
182.101809
 20
187.872407
 30
0.0
 40
0.125
  0
CIRCLE
  5
9FF
100
AcDbEntity
  8
OBJECT
100
AcDbCircle
 10
182.101809
 20
187.872407
 30
0.0
 40
0.25
  0
ARC
  5
A00
100
AcDbEntity
  8
OBJECT
100
AcDbCircle
 10
181.977875
 20
187.99634
 30
0.0
 40
0.25
100
AcDbArc
 50
90.0
 51
180.0
  0
CIRCLE
  5
A01
100
AcDbEntity
  8
OBJECT
100
AcDbCircle
 10
185.553942
 20
187.872407
 30
0.0
 40
0.25
  0
CIRCLE
  5
A02
100
AcDbEntity
  8
OBJECT
100
AcDbCircle
 10
185.553942
 20
187.872407
 30
0.0
 40
0.125
  0
LINE
  5
A03
100
AcDbEntity
  8
OBJECT
100
AcDbLine
 10
185.677875
 20
188.24634
 30
0.0
 11
184.414261
 21
188.24634
 31
0.0
  0
LINE
  5
A04
100
AcDbEntity
  8
OBJECT
100
AcDbLine
 10
185.654665
 20
186.438469
 30
0.0
 11
185.793725
 21
186.511188
 31
0.0
  0
ARC
  5
A05
100
AcDbEntity
  8
OBJECT
100
AcDbCircle
 10
185.677875
 20
187.99634
 30
0.0
 40
0.25
100
AcDbArc
 50
0.0
 51
90.0
  0
LINE
  5
A06
100
AcDbEntity
  8
OBJECT
100
AcDbLine
 10
185.927875
 20
187.99634
 30
0.0
 11
185.927875
 21
186.732726
 31
0.0
  0
ARC
  5
A07
100
AcDbEntity
  8
OBJECT
100
AcDbCircle
 10
185.677875
 20
186.732726
 30
0.0
 40
0.25
100
AcDbArc
 50
297.606738
 51
0.0
  0
LINE
  5
A08
100
AcDbEntity
  8
OBJECT
100
AcDbLine
 10
184.120004
 20
187.97313
 30
0.0
 11
184.192723
 21
188.11219
 31
0.0
  0
ARC
  5
A09
100
AcDbEntity
  8
OBJECT
100
AcDbCircle
 10
184.414261
 20
187.99634
 30
0.0
 40
0.25
100
AcDbArc
 50
90.0
 51
152.393262
  0
CIRCLE
  5
A0A
100
AcDbEntity
  8
OBJECT
100
AcDbCircle
 10
182.101809
 20
184.420274
 30
0.0
 40
0.25
  0
CIRCLE
  5
A0B
100
AcDbEntity
  8
OBJECT
100
AcDbCircle
 10
182.101809
 20
184.420274
 30
0.0
 40
0.125
  0
LINE
  5
A0C
100
AcDbEntity
  8
OBJECT
100
AcDbLine
 10
181.977875
 20
184.04634
 30
0.0
 11
183.24149
 21
184.04634
 31
0.0
  0
LINE
  5
A0D
100
AcDbEntity
  8
OBJECT
100
AcDbLine
 10
182.001086
 20
185.854212
 30
0.0
 11
181.862025
 21
185.781492
 31
0.0
  0
ARC
  5
A0E
100
AcDbEntity
  8
OBJECT
100
AcDbCircle
 10
181.977875
 20
184.29634
 30
0.0
 40
0.25
100
AcDbArc
 50
180.0
 51
270.0
  0
LINE
  5
A0F
100
AcDbEntity
  8
OBJECT
100
AcDbLine
 10
181.727875
 20
184.29634
 30
0.0
 11
181.727875
 21
185.559955
 31
0.0
  0
ARC
  5
A10
100
AcDbEntity
  8
OBJECT
100
AcDbCircle
 10
181.977875
 20
185.559955
 30
0.0
 40
0.25
100
AcDbArc
 50
117.606738
 51
180.0
  0
LINE
  5
A11
100
AcDbEntity
  8
OBJECT
100
AcDbLine
 10
183.535747
 20
184.319551
 30
0.0
 11
183.463027
 21
184.18049
 31
0.0
  0
ARC
  5
A12
100
AcDbEntity
  8
OBJECT
100
AcDbCircle
 10
183.24149
 20
184.29634
 30
0.0
 40
0.25
100
AcDbArc
 50
270.0
 51
332.393262
  0
LINE
  5
A13
100
AcDbEntity
  8
OBJECT
100
AcDbLine
 10
185.677875
 20
184.04634
 30
0.0
 11
184.414261
 21
184.04634
 31
0.0
  0
ARC
  5
A14
100
AcDbEntity
  8
OBJECT
100
AcDbCircle
 10
184.414261
 20
184.29634
 30
0.0
 40
0.25
100
AcDbArc
 50
207.606738
 51
270.0
  0
LINE
  5
A15
100
AcDbEntity
  8
OBJECT
100
AcDbLine
 10
184.120004
 20
184.319551
 30
0.0
 11
184.192723
 21
184.18049
 31
0.0
  0
ARC
  5
A16
100
AcDbEntity
  8
OBJECT
100
AcDbCircle
 10
185.677875
 20
185.559955
 30
0.0
 40
0.25
100
AcDbArc
 50
0.0
 51
62.393262
  0
LINE
  5
A17
100
AcDbEntity
  8
OBJECT
100
AcDbLine
 10
185.927875
 20
184.29634
 30
0.0
 11
185.927875
 21
185.559955
 31
0.0
  0
ARC
  5
A18
100
AcDbEntity
  8
OBJECT
100
AcDbCircle
 10
185.677875
 20
184.29634
 30
0.0
 40
0.25
100
AcDbArc
 50
270.0
 51
0.0
  0
LINE
  5
A19
100
AcDbEntity
  8
OBJECT
100
AcDbLine
 10
185.654665
 20
185.854212
 30
0.0
 11
185.793725
 21
185.781492
 31
0.0
  0
CIRCLE
  5
A1A
100
AcDbEntity
  8
OBJECT
100
AcDbCircle
 10
185.553942
 20
184.420274
 30
0.0
 40
0.125
  0
CIRCLE
  5
A1B
100
AcDbEntity
  8
OBJECT
100
AcDbCircle
 10
185.553942
 20
184.420274
 30
0.0
 40
0.25
  0
TEXT
  5
A1C
100
AcDbEntity
  8
OBJECT
100
AcDbText
 10
184.383014
 20
184.067288
 30
0.0
 40
0.25
  1
TOPP
  7
ROMANS
100
AcDbText
  0
TEXT
  5
A1D
100
AcDbEntity
  8
OBJECT
100
AcDbText
 10
185.871018
 20
184.701308
 30
0.0
 40
0.25
  1
IND
 50
90.0
  7
ROMANS
100
AcDbText
  0
LINE
  5
A1E
100
AcDbEntity
  8
OBJECT
100
AcDbLine
 10
181.727875
 20
180.529593
 30
0.0
 11
181.727875
 21
180.216316
 31
0.0
  0
LINE
  5
A1F
100
AcDbEntity
  8
OBJECT
100
AcDbLine
 10
185.927875
 20
180.529593
 30
0.0
 11
185.927875
 21
180.216316
 31
0.0
  0
ARC
  5
A20
100
AcDbEntity
  8
OBJECT
100
AcDbCircle
 10
183.827875
 20
150.61476
 30
0.0
 40
29.675952
100
AcDbArc
 50
85.942109
 51
89.295565
  0
ARC
  5
A21
100
AcDbEntity
  8
OBJECT
100
AcDbCircle
 10
183.827875
 20
150.61476
 30
0.0
 40
29.988452
100
AcDbArc
 50
85.984464
 51
86.463154
  0
LINE
  5
A22
100
AcDbEntity
  8
OBJECT
100
AcDbLine
 10
181.977875
 20
182.466316
 30
0.0
 11
185.677875
 21
182.466316
 31
0.0
  0
LINE
  5
A23
100
AcDbEntity
  8
OBJECT
100
AcDbLine
 10
181.977875
 20
182.466316
 30
0.0
 11
181.977875
 21
180.546093
 31
0.0
  0
LINE
  5
A24
100
AcDbEntity
  8
OBJECT
100
AcDbLine
 10
185.677875
 20
182.466316
 30
0.0
 11
185.677875
 21
180.546093
 31
0.0
  0
ARC
  5
A25
100
AcDbEntity
  8
OBJECT
100
AcDbCircle
 10
183.827875
 20
150.61476
 30
0.0
 40
29.675952
100
AcDbArc
 50
90.564025
 51
92.172574
  0
LINE
  5
A26
100
AcDbEntity
  8
OBJECT
100
AcDbLine
 10
183.535747
 20
180.289274
 30
0.0
 11
184.192723
 21
180.288469
 31
0.0
  0
LINE
  5
A27
100
AcDbEntity
  8
OBJECT
100
AcDbLine
 10
182.321875
 20
182.466316
 30
0.0
 11
182.321875
 21
180.565372
 31
0.0
  0
LINE
  5
A28
100
AcDbEntity
  8
OBJECT
100
AcDbLine
 10
185.333875
 20
182.466316
 30
0.0
 11
185.333875
 21
180.565372
 31
0.0
  0
LINE
  5
A29
100
AcDbEntity
  8
OBJECT
100
AcDbLine
 10
182.702875
 20
180.26938
 30
0.0
 11
182.607023
 21
180.565372
 31
0.0
  0
LINE
  5
A2A
100
AcDbEntity
  8
OBJECT
100
AcDbLine
 10
184.952875
 20
180.26938
 30
0.0
 11
185.048728
 21
180.565372
 31
0.0
  0
ARC
  5
A2B
100
AcDbEntity
  8
OBJECT
100
AcDbCircle
 10
183.827875
 20
150.61476
 30
0.0
 40
29.988452
100
AcDbArc
 50
93.536846
 51
94.015536
  0
LINE
  5
A2C
100
AcDbEntity
  8
HIDDEN
100
AcDbLine
 10
181.976809
 20
180.341891
 30
0.0
 11
181.976809
 21
180.232924
 31
0.0
  0
LINE
  5
A2D
100
AcDbEntity
  8
HIDDEN
100
AcDbLine
 10
182.226809
 20
180.341891
 30
0.0
 11
182.226809
 21
180.24749
 31
0.0
  0
LINE
  5
A2E
100
AcDbEntity
  8
HIDDEN
100
AcDbLine
 10
181.851809
 20
180.538035
 30
0.0
 11
181.976809
 21
180.341891
 31
0.0
  0
LINE
  5
A2F
100
AcDbEntity
  8
HIDDEN
100
AcDbLine
 10
182.369231
 20
180.565372
 30
0.0
 11
182.226809
 21
180.341891
 31
0.0
  0
LINE
  5
A30
100
AcDbEntity
  8
HIDDEN
100
AcDbLine
 10
185.803942
 20
180.538035
 30
0.0
 11
185.678942
 21
180.341891
 31
0.0
  0
LINE
  5
A31
100
AcDbEntity
  8
HIDDEN
100
AcDbLine
 10
185.678942
 20
180.341891
 30
0.0
 11
185.678942
 21
180.232924
 31
0.0
  0
LINE
  5
A32
100
AcDbEntity
  8
HIDDEN
100
AcDbLine
 10
185.428942
 20
180.341891
 30
0.0
 11
185.428942
 21
180.24749
 31
0.0
  0
LINE
  5
A33
100
AcDbEntity
  8
HIDDEN
100
AcDbLine
 10
185.28652
 20
180.565372
 30
0.0
 11
185.428942
 21
180.341891
 31
0.0
  0
ARC
  5
A34
100
AcDbEntity
  8
OBJECT
100
AcDbCircle
 10
183.827875
 20
150.61476
 30
0.0
 40
29.675952
100
AcDbArc
 50
92.172574
 51
94.057891
  0
LWPOLYLINE
  5
A35
100
AcDbEntity
  8
OBJECT
100
AcDbPolyline
 90
        4
 70
     0
 43
0.0
 10
181.977875
 20
180.546093
 10
181.977875
 20
182.466316
 10
182.321875
 20
182.466316
 10
182.321875
 20
180.565372
  0
LINE
  5
A3B
100
AcDbEntity
  8
OBJECT
100
AcDbLine
 10
182.321875
 20
180.565372
 30
0.0
 11
182.607023
 21
180.565372
 31
0.0
  0
LINE
  5
A3C
100
AcDbEntity
  8
OBJECT
100
AcDbLine
 10
182.607023
 20
180.565372
 30
0.0
 11
185.333875
 21
180.565372
 31
0.0
  0
INSERT
  5
A3D
100
AcDbEntity
  8
HATCH
100
AcDbBlockReference
  2
*X0
 10
38.108105
 20
1.143523
 30
0.0
1001
ACAD
1000
HATCH
1002
{
1070
    16
1000
ANSI32
1040
0.75
1040
0.0
1002
}
  0
INSERT
  5
A3E
100
AcDbEntity
  8
HATCH
100
AcDbBlockReference
  2
*X0
 10
329.547646
 20
1.143523
 30
0.0
 41
-1.0
1001
ACAD
1000
HATCH
1002
{
1070
    16
1000
ANSI32
1040
0.75
1040
0.0
1002
}
  0
LINE
  5
A3F
100
AcDbEntity
  8
CENTER
100
AcDbLine
 10
186.177875
 20
186.14634
 30
0.0
 11
181.477875
 21
186.14634
 31
0.0
  0
LINE
  5
A40
100
AcDbEntity
  8
CENTER
100
AcDbLine
 10
183.827875
 20
183.79634
 30
0.0
 11
183.827875
 21
188.49634
 31
0.0
  0
LINE
  5
A41
100
AcDbEntity
  8
CENTER
100
AcDbLine
 10
181.477875
 20
186.14634
 30
0.0
 11
181.477875
 21
186.699966
 31
0.0
  0
TEXT
  5
A42
100
AcDbEntity
  8
DIM
100
AcDbText
 10
181.373412
 20
186.79224
 30
0.0
 40
0.25
  1
A
  7
ROMANS
100
AcDbText
  0
SOLID
  5
A43
100
AcDbEntity
  8
DIM
100
AcDbTrace
 10
181.447875
 20
186.519966
 30
0.0
 11
181.507875
 21
186.519966
 31
0.0
 12
181.477875
 22
186.699966
 32
0.0
 13
181.477875
 23
186.699966
 33
0.0
  0
LINE
  5
A44
100
AcDbEntity
  8
CENTER
100
AcDbLine
 10
186.177875
 20
186.14634
 30
0.0
 11
186.177875
 21
186.699966
 31
0.0
  0
SOLID
  5
A45
100
AcDbEntity
  8
DIM
100
AcDbTrace
 10
186.207875
 20
186.519966
 30
0.0
 11
186.147875
 21
186.519966
 31
0.0
 12
186.177875
 22
186.699966
 32
0.0
 13
186.177875
 23
186.699966
 33
0.0
  0
TEXT
  5
A46
100
AcDbEntity
  8
DIM
100
AcDbText
 10
186.282339
 20
186.79224
 30
0.0
 40
0.25
  1
A
  7
ROMANS
 71
     2
100
AcDbText
  0
DIMENSION
  5
A47
100
AcDbEntity
  8
DIM
100
AcDbDimension
  2
*D8
 10
184.952875
 20
179.113269
 30
0.0
 11
183.829492
 21
179.492716
 31
0.0
 12
42.211009
 22
4.841533
 32
0.0
 70
   128
  1
2 1/4"
100
AcDbAlignedDimension
 13
182.702875
 23
180.26938
 33
0.0
 14
184.952875
 24
180.26938
 34
0.0
100
AcDbRotatedDimension
  0
TEXT
  5
A48
100
AcDbEntity
  8
DIM
100
AcDbText
 10
183.695304
 20
183.508119
 30
0.0
 40
0.25
  1
C
  7
ROMANS
100
AcDbText
  0
TEXT
  5
A49
100
AcDbEntity
  8
DIM
100
AcDbText
 10
183.773973
 20
183.339077
 30
0.0
 40
0.25
  1
L
  7
ROMANS
100
AcDbText
  0
LINE
  5
A4A
100
AcDbEntity
  8
OBJECT
100
AcDbLine
 10
191.443513
 20
182.88734
 30
0.0
 11
192.525807
 21
182.88734
 31
0.0
  0
LINE
  5
A4B
100
AcDbEntity
  8
OBJECT
100
AcDbLine
 10
193.025807
 20
184.469634
 30
0.0
 11
193.025807
 21
183.38734
 31
0.0
  0
LINE
  5
A4C
100
AcDbEntity
  8
CENTER
100
AcDbLine
 10
187.666807
 20
185.56684
 30
0.0
 11
193.025807
 21
185.56684
 31
0.0
  0
LINE
  5
A4D
100
AcDbEntity
  8
CENTER
100
AcDbLine
 10
190.346307
 20
188.24634
 30
0.0
 11
190.346307
 21
182.70984
 31
0.0
  0
CIRCLE
  5
A4E
100
AcDbEntity
  8
OBJECT
100
AcDbCircle
 10
190.346307
 20
185.56684
 30
0.0
 40
2.3125
  0
CIRCLE
  5
A4F
100
AcDbEntity
  8
OBJECT
100
AcDbCircle
 10
190.346307
 20
185.56684
 30
0.0
 40
1.9875
  0
CIRCLE
  5
A50
100
AcDbEntity
  8
OBJECT
100
AcDbCircle
 10
190.346307
 20
185.56684
 30
0.0
 40
1.525
  0
LINE
  5
A51
100
AcDbEntity
  8
OBJECT
100
AcDbLine
 10
190.828656
 20
183.225324
 30
0.0
 11
191.142019
 21
182.988465
 31
0.0
  0
LINE
  5
A52
100
AcDbEntity
  8
OBJECT
100
AcDbLine
 10
192.687823
 20
185.084492
 30
0.0
 11
192.924682
 21
184.771128
 31
0.0
  0
ARC
  5
A53
100
AcDbEntity
  8
OBJECT
100
AcDbCircle
 10
192.525807
 20
183.38734
 30
0.0
 40
0.5
100
AcDbArc
 50
270.0
 51
0.0
  0
ARC
  5
A54
100
AcDbEntity
  8
OBJECT
100
AcDbCircle
 10
191.443513
 20
183.38734
 30
0.0
 40
0.5
100
AcDbArc
 50
232.915821
 51
270.0
  0
ARC
  5
A55
100
AcDbEntity
  8
OBJECT
100
AcDbCircle
 10
192.525807
 20
184.469634
 30
0.0
 40
0.5
100
AcDbArc
 50
0.0
 51
37.084179
  0
ARC
  5
A56
100
AcDbEntity
  8
OBJECT
100
AcDbCircle
 10
190.677909
 20
183.025887
 30
0.0
 40
0.25
100
AcDbArc
 50
52.915821
 51
97.435245
  0
ARC
  5
A57
100
AcDbEntity
  8
OBJECT
100
AcDbCircle
 10
192.887261
 20
185.235239
 30
0.0
 40
0.25
100
AcDbArc
 50
172.564755
 51
217.084179
  0
CIRCLE
  5
A58
100
AcDbEntity
  8
OBJECT
100
AcDbCircle
 10
192.480172
 20
183.432976
 30
0.0
 40
0.25
  0
CIRCLE
  5
A59
100
AcDbEntity
  8
OBJECT
100
AcDbCircle
 10
192.480172
 20
183.432976
 30
0.0
 40
0.125
  0
LINE
  5
A5A
100
AcDbEntity
  8
OBJECT
100
AcDbLine
 10
189.249101
 20
182.88734
 30
0.0
 11
188.166807
 21
182.88734
 31
0.0
  0
ARC
  5
A5B
100
AcDbEntity
  8
OBJECT
100
AcDbCircle
 10
190.014705
 20
183.025887
 30
0.0
 40
0.25
100
AcDbArc
 50
82.564755
 51
127.084179
  0
LINE
  5
A5C
100
AcDbEntity
  8
OBJECT
100
AcDbLine
 10
189.863958
 20
183.225324
 30
0.0
 11
189.550595
 21
182.988465
 31
0.0
  0
ARC
  5
A5D
100
AcDbEntity
  8
OBJECT
100
AcDbCircle
 10
189.249101
 20
183.38734
 30
0.0
 40
0.5
100
AcDbArc
 50
270.0
 51
307.084179
  0
CIRCLE
  5
A5E
100
AcDbEntity
  8
OBJECT
100
AcDbCircle
 10
188.212442
 20
183.432976
 30
0.0
 40
0.125
  0
CIRCLE
  5
A5F
100
AcDbEntity
  8
OBJECT
100
AcDbCircle
 10
188.212442
 20
183.432976
 30
0.0
 40
0.25
  0
ARC
  5
A60
100
AcDbEntity
  8
OBJECT
100
AcDbCircle
 10
187.805353
 20
185.235239
 30
0.0
 40
0.25
100
AcDbArc
 50
322.915821
 51
7.435245
  0
LINE
  5
A61
100
AcDbEntity
  8
OBJECT
100
AcDbLine
 10
188.004791
 20
185.084492
 30
0.0
 11
187.767932
 21
184.771128
 31
0.0
  0
ARC
  5
A62
100
AcDbEntity
  8
OBJECT
100
AcDbCircle
 10
188.166807
 20
184.469634
 30
0.0
 40
0.5
100
AcDbArc
 50
142.915821
 51
180.0
  0
LINE
  5
A63
100
AcDbEntity
  8
OBJECT
100
AcDbLine
 10
187.666807
 20
184.469634
 30
0.0
 11
187.666807
 21
183.38734
 31
0.0
  0
ARC
  5
A64
100
AcDbEntity
  8
OBJECT
100
AcDbCircle
 10
188.166807
 20
183.38734
 30
0.0
 40
0.5
100
AcDbArc
 50
180.0
 51
270.0
  0
LINE
  5
A65
100
AcDbEntity
  8
OBJECT
100
AcDbLine
 10
191.443513
 20
188.24634
 30
0.0
 11
192.525807
 21
188.24634
 31
0.0
  0
LINE
  5
A66
100
AcDbEntity
  8
CENTER
100
AcDbLine
 10
187.533807
 20
185.56684
 30
0.0
 11
193.158807
 21
185.56684
 31
0.0
  0
LINE
  5
A67
100
AcDbEntity
  8
OBJECT
100
AcDbLine
 10
189.249101
 20
188.24634
 30
0.0
 11
188.166807
 21
188.24634
 31
0.0
  0
ARC
  5
A68
100
AcDbEntity
  8
OBJECT
100
AcDbCircle
 10
188.166807
 20
187.74634
 30
0.0
 40
0.5
100
AcDbArc
 50
90.0
 51
180.0
  0
LINE
  5
A69
100
AcDbEntity
  8
OBJECT
100
AcDbLine
 10
187.666807
 20
186.664047
 30
0.0
 11
187.666807
 21
187.74634
 31
0.0
  0
ARC
  5
A6A
100
AcDbEntity
  8
OBJECT
100
AcDbCircle
 10
188.166807
 20
186.664047
 30
0.0
 40
0.5
100
AcDbArc
 50
180.0
 51
217.084179
  0
LINE
  5
A6B
100
AcDbEntity
  8
OBJECT
100
AcDbLine
 10
188.004791
 20
186.049189
 30
0.0
 11
187.767932
 21
186.362553
 31
0.0
  0
ARC
  5
A6C
100
AcDbEntity
  8
OBJECT
100
AcDbCircle
 10
187.805353
 20
185.898442
 30
0.0
 40
0.25
100
AcDbArc
 50
352.564755
 51
37.084179
  0
CIRCLE
  5
A6D
100
AcDbEntity
  8
OBJECT
100
AcDbCircle
 10
188.212442
 20
187.700705
 30
0.0
 40
0.25
  0
CIRCLE
  5
A6E
100
AcDbEntity
  8
OBJECT
100
AcDbCircle
 10
188.212442
 20
187.700705
 30
0.0
 40
0.125
  0
ARC
  5
A6F
100
AcDbEntity
  8
OBJECT
100
AcDbCircle
 10
189.249101
 20
187.74634
 30
0.0
 40
0.5
100
AcDbArc
 50
52.915821
 51
90.0
  0
LINE
  5
A70
100
AcDbEntity
  8
OBJECT
100
AcDbLine
 10
189.863958
 20
187.908357
 30
0.0
 11
189.550595
 21
188.145216
 31
0.0
  0
ARC
  5
A71
100
AcDbEntity
  8
OBJECT
100
AcDbCircle
 10
190.014705
 20
188.107794
 30
0.0
 40
0.25
100
AcDbArc
 50
232.915821
 51
277.435245
  0
ARC
  5
A72
100
AcDbEntity
  8
OBJECT
100
AcDbCircle
 10
190.677909
 20
188.107794
 30
0.0
 40
0.25
100
AcDbArc
 50
262.564755
 51
307.084179
  0
LINE
  5
A73
100
AcDbEntity
  8
OBJECT
100
AcDbLine
 10
190.828656
 20
187.908357
 30
0.0
 11
191.142019
 21
188.145216
 31
0.0
  0
ARC
  5
A74
100
AcDbEntity
  8
OBJECT
100
AcDbCircle
 10
191.443513
 20
187.74634
 30
0.0
 40
0.5
100
AcDbArc
 50
90.0
 51
127.084179
  0
CIRCLE
  5
A75
100
AcDbEntity
  8
OBJECT
100
AcDbCircle
 10
192.480172
 20
187.700705
 30
0.0
 40
0.125
  0
CIRCLE
  5
A76
100
AcDbEntity
  8
OBJECT
100
AcDbCircle
 10
192.480172
 20
187.700705
 30
0.0
 40
0.25
  0
ARC
  5
A77
100
AcDbEntity
  8
OBJECT
100
AcDbCircle
 10
192.887261
 20
185.898442
 30
0.0
 40
0.25
100
AcDbArc
 50
142.915821
 51
187.435245
  0
LINE
  5
A78
100
AcDbEntity
  8
OBJECT
100
AcDbLine
 10
192.687823
 20
186.049189
 30
0.0
 11
192.924682
 21
186.362553
 31
0.0
  0
ARC
  5
A79
100
AcDbEntity
  8
OBJECT
100
AcDbCircle
 10
192.525807
 20
186.664047
 30
0.0
 40
0.5
100
AcDbArc
 50
322.915821
 51
0.0
  0
LINE
  5
A7A
100
AcDbEntity
  8
OBJECT
100
AcDbLine
 10
193.025807
 20
186.664047
 30
0.0
 11
193.025807
 21
187.74634
 31
0.0
  0
ARC
  5
A7B
100
AcDbEntity
  8
OBJECT
100
AcDbCircle
 10
192.525807
 20
187.74634
 30
0.0
 40
0.5
100
AcDbArc
 50
0.0
 51
90.0
  0
LINE
  5
A7C
100
AcDbEntity
  8
OBJECT
100
AcDbLine
 10
187.666807
 20
178.863538
 30
0.0
 11
187.666807
 21
178.547316
 31
0.0
  0
LINE
  5
A7D
100
AcDbEntity
  8
OBJECT
100
AcDbLine
 10
193.025807
 20
178.863538
 30
0.0
 11
193.025807
 21
178.547316
 31
0.0
  0
TEXT
  5
A7E
100
AcDbEntity
  8
OBJECT
100
AcDbText
 10
188.273309
 20
182.924767
 30
0.0
 40
0.25
  1
IND
  7
ROMANS
100
AcDbText
  0
TEXT
  5
A7F
100
AcDbEntity
  8
OBJECT
100
AcDbText
 10
187.699931
 20
184.304838
 30
0.0
 40
0.25
  1
TOPP
 50
270.0
  7
ROMANS
100
AcDbText
  0
LINE
  5
A80
100
AcDbEntity
  8
OBJECT
100
AcDbLine
 10
188.033807
 20
181.307316
 30
0.0
 11
188.033807
 21
178.894516
 31
0.0
  0
LINE
  5
A81
100
AcDbEntity
  8
OBJECT
100
AcDbLine
 10
192.658807
 20
181.307316
 30
0.0
 11
192.658807
 21
178.894516
 31
0.0
  0
LINE
  5
A82
100
AcDbEntity
  8
OBJECT
100
AcDbLine
 10
188.358807
 20
181.307316
 30
0.0
 11
188.358807
 21
178.918125
 31
0.0
  0
LINE
  5
A83
100
AcDbEntity
  8
OBJECT
100
AcDbLine
 10
192.333807
 20
181.307316
 30
0.0
 11
192.333807
 21
178.918125
 31
0.0
  0
ARC
  5
A84
100
AcDbEntity
  8
OBJECT
100
AcDbCircle
 10
190.346307
 20
148.99258
 30
0.0
 40
29.675952
100
AcDbArc
 50
84.819596
 51
92.945637
  0
LINE
  5
A85
100
AcDbEntity
  8
OBJECT
100
AcDbLine
 10
188.033807
 20
181.307316
 30
0.0
 11
192.658807
 21
181.307316
 31
0.0
  0
ARC
  5
A86
100
AcDbEntity
  8
OBJECT
100
AcDbCircle
 10
190.346307
 20
149.308803
 30
0.0
 40
29.675952
100
AcDbArc
 50
84.819596
 51
85.530693
  0
LINE
  5
A87
100
AcDbEntity
  8
OBJECT
100
AcDbLine
 10
188.821307
 20
178.629322
 30
0.0
 11
188.707163
 21
178.939451
 31
0.0
  0
LINE
  5
A88
100
AcDbEntity
  8
OBJECT
100
AcDbLine
 10
191.871307
 20
178.629322
 30
0.0
 11
191.985452
 21
178.939451
 31
0.0
  0
ARC
  5
A89
100
AcDbEntity
  8
OBJECT
100
AcDbCircle
 10
190.346307
 20
149.308803
 30
0.0
 40
29.675952
100
AcDbArc
 50
93.166331
 51
93.840169
  0
LINE
  5
A8A
100
AcDbEntity
  8
OBJECT
100
AcDbLine
 10
188.707163
 20
178.939451
 30
0.0
 11
191.985452
 21
178.939451
 31
0.0
  0
LINE
  5
A8B
100
AcDbEntity
  8
HIDDEN
100
AcDbLine
 10
187.947948
 20
178.88768
 30
0.0
 11
188.087442
 21
178.668792
 31
0.0
  0
LINE
  5
A8C
100
AcDbEntity
  8
HIDDEN
100
AcDbLine
 10
188.466809
 20
178.925177
 30
0.0
 11
188.337442
 21
178.72218
 31
0.0
  0
LINE
  5
A8D
100
AcDbEntity
  8
HIDDEN
100
AcDbLine
 10
188.337442
 20
178.72218
 30
0.0
 11
188.337442
 21
178.60046
 31
0.0
  0
LINE
  5
A8E
100
AcDbEntity
  8
HIDDEN
100
AcDbLine
 10
188.087442
 20
178.668792
 30
0.0
 11
188.087442
 21
178.574391
 31
0.0
  0
LINE
  5
A8F
100
AcDbEntity
  8
HIDDEN
100
AcDbLine
 10
192.744667
 20
178.88768
 30
0.0
 11
192.605172
 21
178.668792
 31
0.0
  0
LINE
  5
A90
100
AcDbEntity
  8
HIDDEN
100
AcDbLine
 10
192.225805
 20
178.925177
 30
0.0
 11
192.355172
 21
178.72218
 31
0.0
  0
LINE
  5
A91
100
AcDbEntity
  8
HIDDEN
100
AcDbLine
 10
192.355172
 20
178.72218
 30
0.0
 11
192.355172
 21
178.60046
 31
0.0
  0
LINE
  5
A92
100
AcDbEntity
  8
HIDDEN
100
AcDbLine
 10
192.605172
 20
178.668792
 30
0.0
 11
192.605172
 21
178.574391
 31
0.0
  0
ARC
  5
A93
100
AcDbEntity
  8
OBJECT
100
AcDbCircle
 10
190.346307
 20
149.308803
 30
0.0
 40
29.675952
100
AcDbArc
 50
94.469307
 51
95.180404
  0
ARC
  5
A94
100
AcDbEntity
  8
OBJECT
100
AcDbCircle
 10
190.346307
 20
149.308803
 30
0.0
 40
29.675952
100
AcDbArc
 50
86.159831
 51
86.833669
  0
ARC
  5
A95
100
AcDbEntity
  8
OBJECT
100
AcDbCircle
 10
190.346307
 20
148.99258
 30
0.0
 40
29.675952
100
AcDbArc
 50
92.945637
 51
95.180404
  0
INSERT
  5
A96
100
AcDbEntity
  8
HATCH
100
AcDbBlockReference
  2
*X1
 10
36.410313
 20
-1.171748
 30
0.0
1001
ACAD
1000
HATCH
1002
{
1070
    16
1000
ANSI32
1040
0.75
1040
0.0
1002
}
  0
INSERT
  5
A97
100
AcDbEntity
  8
HATCH
100
AcDbBlockReference
  2
*X1
 10
344.282301
 20
-1.171748
 30
0.0
 41
-1.0
1001
ACAD
1000
HATCH
1002
{
1070
    16
1000
ANSI32
1040
0.75
1040
0.0
1002
}
  0
TEXT
  5
A98
100
AcDbEntity
  8
DIM
100
AcDbText
 10
190.22562
 20
182.462631
 30
0.0
 40
0.25
  1
C
  7
ROMANS
100
AcDbText
  0
TEXT
  5
A99
100
AcDbEntity
  8
DIM
100
AcDbText
 10
190.304289
 20
182.293589
 30
0.0
 40
0.25
  1
L
  7
ROMANS
100
AcDbText
  0
LINE
  5
A9A
100
AcDbEntity
  8
CENTER
100
AcDbLine
 10
190.346307
 20
181.587086
 30
0.0
 11
190.346307
 21
178.441534
 31
0.0
  0
LINE
  5
A9B
100
AcDbEntity
  8
OBJECT
100
AcDbLine
 10
199.367739
 20
181.74634
 30
0.0
 11
201.03493
 21
181.74634
 31
0.0
  0
LINE
  5
A9C
100
AcDbEntity
  8
OBJECT
100
AcDbLine
 10
201.53493
 20
183.913532
 30
0.0
 11
201.53493
 21
182.24634
 31
0.0
  0
LINE
  5
A9D
100
AcDbEntity
  8
CENTER
100
AcDbLine
 10
198.28493
 20
188.24634
 30
0.0
 11
198.28493
 21
181.56884
 31
0.0
  0
LINE
  5
A9E
100
AcDbEntity
  8
CENTER
100
AcDbLine
 10
194.67243
 20
184.99634
 30
0.0
 11
201.89743
 21
184.99634
 31
0.0
  0
CIRCLE
  5
A9F
100
AcDbEntity
  8
OBJECT
100
AcDbCircle
 10
198.28493
 20
184.99634
 30
0.0
 40
2.8625
  0
CIRCLE
  5
AA0
100
AcDbEntity
  8
OBJECT
100
AcDbCircle
 10
198.28493
 20
184.99634
 30
0.0
 40
2.5375
  0
CIRCLE
  5
AA1
100
AcDbEntity
  8
OBJECT
100
AcDbCircle
 10
198.28493
 20
184.99634
 30
0.0
 40
2.0938
  0
LINE
  5
AA2
100
AcDbEntity
  8
OBJECT
100
AcDbLine
 10
198.70993
 20
182.165566
 30
0.0
 11
199.033333
 21
181.874624
 31
0.0
  0
LINE
  5
AA3
100
AcDbEntity
  8
OBJECT
100
AcDbLine
 10
201.115704
 20
184.57134
 30
0.0
 11
201.406646
 21
184.247937
 31
0.0
  0
ARC
  5
AA4
100
AcDbEntity
  8
OBJECT
100
AcDbCircle
 10
201.03493
 20
182.24634
 30
0.0
 40
0.5
100
AcDbArc
 50
270.0
 51
0.0
  0
ARC
  5
AA5
100
AcDbEntity
  8
OBJECT
100
AcDbCircle
 10
199.367739
 20
182.24634
 30
0.0
 40
0.5
100
AcDbArc
 50
228.024607
 51
270.0
  0
ARC
  5
AA6
100
AcDbEntity
  8
OBJECT
100
AcDbCircle
 10
201.03493
 20
183.913532
 30
0.0
 40
0.5
100
AcDbArc
 50
0.0
 51
41.975393
  0
DIMENSION
  5
AA7
100
AcDbEntity
  8
DIM
100
AcDbDimension
  2
*D7
 10
185.333875
 20
178.243938
 30
0.0
 11
183.827875
 21
178.243938
 31
0.0
 12
42.211009
 22
4.841533
 32
0.0
  1
3"
100
AcDbAlignedDimension
 13
182.321875
 23
180.565372
 33
0.0
 14
185.333875
 24
180.565372
 34
0.0
100
AcDbRotatedDimension
  0
DIMENSION
  5
AA8
100
AcDbEntity
  8
DIM
100
AcDbDimension
  2
*D9
 10
192.333807
 20
176.619406
 30
0.0
 11
190.346307
 21
176.619406
 31
0.0
 12
42.211009
 22
3.682533
 32
0.0
  1
4"
100
AcDbAlignedDimension
 13
188.358807
 23
178.918125
 33
0.0
 14
192.333807
 24
178.918125
 34
0.0
100
AcDbRotatedDimension
  0
DIMENSION
  5
AA9
100
AcDbEntity
  8
DIM
100
AcDbDimension
  2
*D10
 10
191.871307
 20
177.490592
 30
0.0
 11
190.346307
 21
177.490592
 31
0.0
 12
42.211009
 22
3.682533
 32
0.0
  1
3"
100
AcDbAlignedDimension
 13
188.821307
 23
178.629322
 33
0.0
 14
191.871307
 24
178.629322
 34
0.0
100
AcDbRotatedDimension
  0
CIRCLE
  5
AAA
100
AcDbEntity
  8
OBJECT
100
AcDbCircle
 10
200.921564
 20
182.359706
 30
0.0
 40
0.1795
  0
CIRCLE
  5
AAB
100
AcDbEntity
  8
OBJECT
100
AcDbCircle
 10
200.921564
 20
182.359706
 30
0.0
 40
0.32
  0
LINE
  5
AAC
100
AcDbEntity
  8
OBJECT
100
AcDbLine
 10
201.53493
 20
186.079149
 30
0.0
 11
201.53493
 21
187.74634
 31
0.0
  0
LINE
  5
AAD
100
AcDbEntity
  8
OBJECT
100
AcDbLine
 10
199.367739
 20
188.24634
 30
0.0
 11
201.03493
 21
188.24634
 31
0.0
  0
ARC
  5
AAE
100
AcDbEntity
  8
OBJECT
100
AcDbCircle
 10
201.03493
 20
187.74634
 30
0.0
 40
0.5
100
AcDbArc
 50
0.0
 51
90.0
  0
CIRCLE
  5
AAF
100
AcDbEntity
  8
OBJECT
100
AcDbCircle
 10
200.921564
 20
187.632974
 30
0.0
 40
0.32
  0
CIRCLE
  5
AB0
100
AcDbEntity
  8
OBJECT
100
AcDbCircle
 10
200.921564
 20
187.632974
 30
0.0
 40
0.1795
  0
ARC
  5
AB1
100
AcDbEntity
  8
OBJECT
100
AcDbCircle
 10
201.03493
 20
186.079149
 30
0.0
 40
0.5
100
AcDbArc
 50
318.024607
 51
0.0
  0
LINE
  5
AB2
100
AcDbEntity
  8
OBJECT
100
AcDbLine
 10
201.115704
 20
185.42134
 30
0.0
 11
201.406646
 21
185.744744
 31
0.0
  0
ARC
  5
AB3
100
AcDbEntity
  8
OBJECT
100
AcDbCircle
 10
199.367739
 20
187.74634
 30
0.0
 40
0.5
100
AcDbArc
 50
90.0
 51
131.975393
  0
LINE
  5
AB4
100
AcDbEntity
  8
OBJECT
100
AcDbLine
 10
198.70993
 20
187.827114
 30
0.0
 11
199.033333
 21
188.118056
 31
0.0
  0
LINE
  5
AB5
100
AcDbEntity
  8
OBJECT
100
AcDbLine
 10
195.03493
 20
183.913532
 30
0.0
 11
195.03493
 21
182.24634
 31
0.0
  0
LINE
  5
AB6
100
AcDbEntity
  8
OBJECT
100
AcDbLine
 10
197.202121
 20
181.74634
 30
0.0
 11
195.53493
 21
181.74634
 31
0.0
  0
ARC
  5
AB7
100
AcDbEntity
  8
OBJECT
100
AcDbCircle
 10
195.53493
 20
182.24634
 30
0.0
 40
0.5
100
AcDbArc
 50
180.0
 51
270.0
  0
CIRCLE
  5
AB8
100
AcDbEntity
  8
OBJECT
100
AcDbCircle
 10
195.648296
 20
182.359706
 30
0.0
 40
0.32
  0
CIRCLE
  5
AB9
100
AcDbEntity
  8
OBJECT
100
AcDbCircle
 10
195.648296
 20
182.359706
 30
0.0
 40
0.1795
  0
ARC
  5
ABA
100
AcDbEntity
  8
OBJECT
100
AcDbCircle
 10
197.202121
 20
182.24634
 30
0.0
 40
0.5
100
AcDbArc
 50
270.0
 51
311.975393
  0
LINE
  5
ABB
100
AcDbEntity
  8
OBJECT
100
AcDbLine
 10
197.85993
 20
182.165566
 30
0.0
 11
197.536527
 21
181.874624
 31
0.0
  0
ARC
  5
ABC
100
AcDbEntity
  8
OBJECT
100
AcDbCircle
 10
195.53493
 20
183.913532
 30
0.0
 40
0.5
100
AcDbArc
 50
138.024607
 51
180.0
  0
LINE
  5
ABD
100
AcDbEntity
  8
OBJECT
100
AcDbLine
 10
195.454156
 20
184.57134
 30
0.0
 11
195.163214
 21
184.247937
 31
0.0
  0
LINE
  5
ABE
100
AcDbEntity
  8
OBJECT
100
AcDbLine
 10
195.03493
 20
186.079149
 30
0.0
 11
195.03493
 21
187.74634
 31
0.0
  0
ARC
  5
ABF
100
AcDbEntity
  8
OBJECT
100
AcDbCircle
 10
195.53493
 20
186.079149
 30
0.0
 40
0.5
100
AcDbArc
 50
180.0
 51
221.975393
  0
ARC
  5
AC0
100
AcDbEntity
  8
OBJECT
100
AcDbCircle
 10
195.53493
 20
187.74634
 30
0.0
 40
0.5
100
AcDbArc
 50
90.0
 51
180.0
  0
CIRCLE
  5
AC1
100
AcDbEntity
  8
OBJECT
100
AcDbCircle
 10
195.648296
 20
187.632974
 30
0.0
 40
0.1795
  0
CIRCLE
  5
AC2
100
AcDbEntity
  8
OBJECT
100
AcDbCircle
 10
195.648296
 20
187.632974
 30
0.0
 40
0.32
  0
LINE
  5
AC3
100
AcDbEntity
  8
OBJECT
100
AcDbLine
 10
195.454156
 20
185.42134
 30
0.0
 11
195.163214
 21
185.744744
 31
0.0
  0
LINE
  5
AC4
100
AcDbEntity
  8
OBJECT
100
AcDbLine
 10
197.202121
 20
188.24634
 30
0.0
 11
195.53493
 21
188.24634
 31
0.0
  0
ARC
  5
AC5
100
AcDbEntity
  8
OBJECT
100
AcDbCircle
 10
197.202121
 20
187.74634
 30
0.0
 40
0.5
100
AcDbArc
 50
48.024607
 51
90.0
  0
LINE
  5
AC6
100
AcDbEntity
  8
OBJECT
100
AcDbLine
 10
197.85993
 20
187.827114
 30
0.0
 11
197.536527
 21
188.118056
 31
0.0
  0
LINE
  5
AC7
100
AcDbEntity
  8
OBJECT
100
AcDbLine
 10
195.42243
 20
180.166316
 30
0.0
 11
201.14743
 21
180.166316
 31
0.0
  0
LINE
  5
AC8
100
AcDbEntity
  8
OBJECT
100
AcDbLine
 10
195.03493
 20
177.481056
 30
0.0
 11
195.03493
 21
177.103816
 31
0.0
  0
LINE
  5
AC9
100
AcDbEntity
  8
OBJECT
100
AcDbLine
 10
201.53493
 20
177.481056
 30
0.0
 11
201.53493
 21
177.103816
 31
0.0
  0
ARC
  5
ACA
100
AcDbEntity
  8
OBJECT
100
AcDbCircle
 10
198.28493
 20
147.606365
 30
0.0
 40
29.675952
100
AcDbArc
 50
83.712568
 51
94.045891
  0
ARC
  5
ACB
100
AcDbEntity
  8
OBJECT
100
AcDbCircle
 10
198.28493
 20
147.606365
 30
0.0
 40
30.050952
100
AcDbArc
 50
83.712568
 51
84.53401
  0
LINE
  5
ACC
100
AcDbEntity
  8
OBJECT
100
AcDbLine
 10
195.42243
 20
180.166316
 30
0.0
 11
195.42243
 21
177.520672
 31
0.0
  0
LINE
  5
ACD
100
AcDbEntity
  8
OBJECT
100
AcDbLine
 10
195.74743
 20
180.166316
 30
0.0
 11
195.74743
 21
177.549992
 31
0.0
  0
LINE
  5
ACE
100
AcDbEntity
  8
OBJECT
100
AcDbLine
 10
200.82243
 20
180.166316
 30
0.0
 11
200.82243
 21
177.549992
 31
0.0
  0
LINE
  5
ACF
100
AcDbEntity
  8
OBJECT
100
AcDbLine
 10
201.14743
 20
180.166316
 30
0.0
 11
201.14743
 21
177.520672
 31
0.0
  0
LINE
  5
AD0
100
AcDbEntity
  8
OBJECT
100
AcDbLine
 10
200.37873
 20
177.20836
 30
0.0
 11
200.513514
 21
177.574566
 31
0.0
  0
LINE
  5
AD1
100
AcDbEntity
  8
OBJECT
100
AcDbLine
 10
196.19113
 20
177.20836
 30
0.0
 11
196.056346
 21
177.574566
 31
0.0
  0
ARC
  5
AD2
100
AcDbEntity
  8
OBJECT
100
AcDbCircle
 10
198.28493
 20
147.606365
 30
0.0
 40
30.050952
100
AcDbArc
 50
95.46599
 51
96.208662
  0
ARC
  5
AD3
100
AcDbEntity
  8
OBJECT
100
AcDbCircle
 10
198.28493
 20
147.606365
 30
0.0
 40
30.050952
100
AcDbArc
 50
85.156181
 51
85.74703
  0
ARC
  5
AD4
100
AcDbEntity
  8
OBJECT
100
AcDbCircle
 10
198.28493
 20
147.606365
 30
0.0
 40
30.050952
100
AcDbArc
 50
94.25297
 51
94.843819
  0
LINE
  5
AD5
100
AcDbEntity
  8
OBJECT
100
AcDbLine
 10
196.056346
 20
177.574566
 30
0.0
 11
200.513514
 21
177.574566
 31
0.0
  0
LINE
  5
AD6
100
AcDbEntity
  8
HIDDEN
100
AcDbLine
 10
195.468796
 20
177.327864
 30
0.0
 11
195.468796
 21
177.148394
 31
0.0
  0
LINE
  5
AD7
100
AcDbEntity
  8
HIDDEN
100
AcDbLine
 10
195.468796
 20
177.327864
 30
0.0
 11
195.328296
 21
177.511515
 31
0.0
  0
LINE
  5
AD8
100
AcDbEntity
  8
HIDDEN
100
AcDbLine
 10
195.827796
 20
177.384237
 30
0.0
 11
195.827796
 21
177.180418
 31
0.0
  0
LINE
  5
AD9
100
AcDbEntity
  8
HIDDEN
100
AcDbLine
 10
195.827796
 20
177.384237
 30
0.0
 11
195.968296
 21
177.567889
 31
0.0
  0
LINE
  5
ADA
100
AcDbEntity
  8
HIDDEN
100
AcDbLine
 10
200.742064
 20
177.384237
 30
0.0
 11
200.601564
 21
177.567889
 31
0.0
  0
LINE
  5
ADB
100
AcDbEntity
  8
HIDDEN
100
AcDbLine
 10
200.742064
 20
177.384237
 30
0.0
 11
200.742064
 21
177.180418
 31
0.0
  0
LINE
  5
ADC
100
AcDbEntity
  8
HIDDEN
100
AcDbLine
 10
201.101064
 20
177.327864
 30
0.0
 11
201.241564
 21
177.511515
 31
0.0
  0
LINE
  5
ADD
100
AcDbEntity
  8
HIDDEN
100
AcDbLine
 10
201.101064
 20
177.327864
 30
0.0
 11
201.101064
 21
177.148394
 31
0.0
  0
ARC
  5
ADE
100
AcDbEntity
  8
OBJECT
100
AcDbCircle
 10
198.28493
 20
147.606365
 30
0.0
 40
29.675952
100
AcDbArc
 50
94.045891
 51
96.287432
  0
INSERT
  5
ADF
100
AcDbEntity
  8
HATCH
100
AcDbBlockReference
  2
*X2
 10
35.165267
 20
-2.312748
 30
0.0
1001
ACAD
1000
HATCH
1002
{
1070
    16
1000
ANSI32
1040
1.0
1040
0.0
1002
}
  0
INSERT
  5
AE0
100
AcDbEntity
  8
HATCH
100
AcDbBlockReference
  2
*X2
 10
361.404592
 20
-2.312748
 30
0.0
 41
-1.0
1001
ACAD
1000
HATCH
1002
{
1070
    16
1000
ANSI32
1040
1.0
1040
0.0
1002
}
  0
LINE
  5
AE1
100
AcDbEntity
  8
CENTER
100
AcDbLine
 10
198.28493
 20
180.446086
 30
0.0
 11
198.28493
 21
176.879418
 31
0.0
  0
DIMENSION
  5
AE2
100
AcDbEntity
  8
DIM
100
AcDbDimension
  2
*D11
 10
200.37873
 20
175.900786
 30
0.0
 11
198.28493
 21
175.900786
 31
0.0
 12
42.211009
 22
2.541533
 32
0.0
  1
4 3/16"
100
AcDbAlignedDimension
 13
196.19113
 23
177.20836
 33
0.0
 14
200.37873
 24
177.20836
 34
0.0
100
AcDbRotatedDimension
  0
TEXT
  5
AE3
100
AcDbEntity
  8
DIM
100
AcDbText
 10
198.23592
 20
181.148782
 30
0.0
 40
0.25
  1
L
  7
ROMANS
100
AcDbText
  0
TEXT
  5
AE4
100
AcDbEntity
  8
DIM
100
AcDbText
 10
198.157251
 20
181.317825
 30
0.0
 40
0.25
  1
C
  7
ROMANS
100
AcDbText
  0
SOLID
  5
AE5
100
AcDbEntity
  8
DIM
100
AcDbTrace
 10
187.503807
 20
185.940466
 30
0.0
 11
187.563807
 21
185.940466
 31
0.0
 12
187.533807
 22
186.120466
 32
0.0
 13
187.533807
 23
186.120466
 33
0.0
  0
TEXT
  5
AE6
100
AcDbEntity
  8
DIM
100
AcDbText
 10
187.429343
 20
186.21274
 30
0.0
 40
0.25
  1
B
  7
ROMANS
100
AcDbText
  0
LINE
  5
AE7
100
AcDbEntity
  8
CENTER
100
AcDbLine
 10
187.533807
 20
185.56684
 30
0.0
 11
187.533807
 21
186.120466
 31
0.0
  0
SOLID
  5
AE8
100
AcDbEntity
  8
DIM
100
AcDbTrace
 10
193.188807
 20
185.940466
 30
0.0
 11
193.128807
 21
185.940466
 31
0.0
 12
193.158807
 22
186.120466
 32
0.0
 13
193.158807
 23
186.120466
 33
0.0
  0
LINE
  5
AE9
100
AcDbEntity
  8
CENTER
100
AcDbLine
 10
193.158807
 20
185.56684
 30
0.0
 11
193.158807
 21
186.120466
 31
0.0
  0
TEXT
  5
AEA
100
AcDbEntity
  8
DIM
100
AcDbText
 10
193.028232
 20
186.21274
 30
0.0
 40
0.25
  1
B
  7
ROMANS
100
AcDbText
  0
TEXT
  5
AEB
100
AcDbEntity
  8
DIM
100
AcDbText
 10
194.567966
 20
185.64224
 30
0.0
 40
0.25
  1
C
  7
ROMANS
100
AcDbText
  0
SOLID
  5
AEC
100
AcDbEntity
  8
DIM
100
AcDbTrace
 10
194.64243
 20
185.369966
 30
0.0
 11
194.70243
 21
185.369966
 31
0.0
 12
194.67243
 22
185.549966
 32
0.0
 13
194.67243
 23
185.549966
 33
0.0
  0
LINE
  5
AED
100
AcDbEntity
  8
CENTER
100
AcDbLine
 10
194.67243
 20
184.99634
 30
0.0
 11
194.67243
 21
185.549966
 31
0.0
  0
LINE
  5
AEE
100
AcDbEntity
  8
CENTER
100
AcDbLine
 10
201.89743
 20
184.99634
 30
0.0
 11
201.89743
 21
185.549966
 31
0.0
  0
SOLID
  5
AEF
100
AcDbEntity
  8
DIM
100
AcDbTrace
 10
201.86743
 20
185.369966
 30
0.0
 11
201.92743
 21
185.369966
 31
0.0
 12
201.89743
 22
185.549966
 32
0.0
 13
201.89743
 23
185.549966
 33
0.0
  0
TEXT
  5
AF0
100
AcDbEntity
  8
DIM
100
AcDbText
 10
201.765537
 20
185.64224
 30
0.0
 40
0.25
  1
C
  7
ROMANS
100
AcDbText
  0
TEXT
  5
AF1
100
AcDbEntity
  8
OBJECT
100
AcDbText
 10
195.068016
 20
183.294799
 30
0.0
 40
0.25
  1
TOPP
 50
270.0
  7
ROMANS
100
AcDbText
  0
TEXT
  5
AF2
100
AcDbEntity
  8
OBJECT
100
AcDbText
 10
195.697589
 20
181.783767
 30
0.0
 40
0.25
  1
IND
  7
ROMANS
100
AcDbText
  0
LINE
  5
AF3
100
AcDbEntity
  8
OBJECT
100
AcDbLine
 10
209.696676
 20
179.99634
 30
0.0
 11
211.41911
 21
179.99634
 31
0.0
  0
LINE
  5
AF4
100
AcDbEntity
  8
OBJECT
100
AcDbLine
 10
212.41911
 20
182.718775
 30
0.0
 11
212.41911
 21
180.99634
 31
0.0
  0
LINE
  5
AF5
100
AcDbEntity
  8
CENTER
100
AcDbLine
 10
203.66911
 20
184.12134
 30
0.0
 11
212.91911
 21
184.12134
 31
0.0
  0
LINE
  5
AF6
100
AcDbEntity
  8
CENTER
100
AcDbLine
 10
208.29411
 20
188.74634
 30
0.0
 11
208.29411
 21
179.49634
 31
0.0
  0
CIRCLE
  5
AF7
100
AcDbEntity
  8
OBJECT
100
AcDbCircle
 10
208.29411
 20
184.12134
 30
0.0
 40
3.875
  0
CIRCLE
  5
AF8
100
AcDbEntity
  8
OBJECT
100
AcDbCircle
 10
208.29411
 20
184.12134
 30
0.0
 40
3.532
  0
CIRCLE
  5
AF9
100
AcDbEntity
  8
OBJECT
100
AcDbCircle
 10
208.29411
 20
184.12134
 30
0.0
 40
3.125
  0
LINE
  5
AFA
100
AcDbEntity
  8
OBJECT
100
AcDbLine
 10
208.91911
 20
180.297076
 30
0.0
 11
209.181254
 21
180.139404
 31
0.0
  0
LINE
  5
AFB
100
AcDbEntity
  8
OBJECT
100
AcDbLine
 10
212.118375
 20
183.49634
 30
0.0
 11
212.276047
 21
183.234197
 31
0.0
  0
CIRCLE
  5
AFC
100
AcDbEntity
  8
OBJECT
100
AcDbCircle
 10
211.445032
 20
180.970419
 30
0.0
 40
0.1795
  0
CIRCLE
  5
AFD
100
AcDbEntity
  8
OBJECT
100
AcDbCircle
 10
211.445032
 20
180.970419
 30
0.0
 40
0.3985
  0
ARC
  5
AFE
100
AcDbEntity
  8
OBJECT
100
AcDbCircle
 10
211.41911
 20
180.99634
 30
0.0
 40
1.0
100
AcDbArc
 50
270.0
 51
0.0
  0
ARC
  5
AFF
100
AcDbEntity
  8
OBJECT
100
AcDbCircle
 10
209.696676
 20
180.99634
 30
0.0
 40
1.0
100
AcDbArc
 50
238.974323
 51
270.0
  0
ARC
  5
B00
100
AcDbEntity
  8
OBJECT
100
AcDbCircle
 10
211.41911
 20
182.718775
 30
0.0
 40
1.0
100
AcDbArc
 50
0.0
 51
31.025677
  0
ARC
  5
B01
100
AcDbEntity
  8
OBJECT
100
AcDbCircle
 10
205.16911
 20
180.99634
 30
0.0
 40
1.0
100
AcDbArc
 50
180.0
 51
270.0
  0
LINE
  5
B02
100
AcDbEntity
  8
OBJECT
100
AcDbLine
 10
206.891544
 20
179.99634
 30
0.0
 11
205.16911
 21
179.99634
 31
0.0
  0
CIRCLE
  5
B03
100
AcDbEntity
  8
OBJECT
100
AcDbCircle
 10
205.143189
 20
180.970419
 30
0.0
 40
0.3985
  0
CIRCLE
  5
B04
100
AcDbEntity
  8
OBJECT
100
AcDbCircle
 10
205.143189
 20
180.970419
 30
0.0
 40
0.1795
  0
LINE
  5
B05
100
AcDbEntity
  8
OBJECT
100
AcDbLine
 10
204.16911
 20
182.718775
 30
0.0
 11
204.16911
 21
180.99634
 31
0.0
  0
LINE
  5
B06
100
AcDbEntity
  8
OBJECT
100
AcDbLine
 10
204.469846
 20
183.49634
 30
0.0
 11
204.312174
 21
183.234197
 31
0.0
  0
ARC
  5
B07
100
AcDbEntity
  8
OBJECT
100
AcDbCircle
 10
205.16911
 20
182.718775
 30
0.0
 40
1.0
100
AcDbArc
 50
148.974323
 51
180.0
  0
ARC
  5
B08
100
AcDbEntity
  8
OBJECT
100
AcDbCircle
 10
206.891544
 20
180.99634
 30
0.0
 40
1.0
100
AcDbArc
 50
270.0
 51
301.025677
  0
LINE
  5
B09
100
AcDbEntity
  8
OBJECT
100
AcDbLine
 10
207.66911
 20
180.297076
 30
0.0
 11
207.406967
 21
180.139404
 31
0.0
  0
LINE
  5
B0A
100
AcDbEntity
  8
OBJECT
100
AcDbLine
 10
206.891544
 20
188.24634
 30
0.0
 11
205.16911
 21
188.24634
 31
0.0
  0
LINE
  5
B0B
100
AcDbEntity
  8
OBJECT
100
AcDbLine
 10
204.16911
 20
185.523906
 30
0.0
 11
204.16911
 21
187.24634
 31
0.0
  0
ARC
  5
B0C
100
AcDbEntity
  8
OBJECT
100
AcDbCircle
 10
205.16911
 20
187.24634
 30
0.0
 40
1.0
100
AcDbArc
 50
90.0
 51
180.0
  0
CIRCLE
  5
B0D
100
AcDbEntity
  8
OBJECT
100
AcDbCircle
 10
205.143189
 20
187.272262
 30
0.0
 40
0.3985
  0
CIRCLE
  5
B0E
100
AcDbEntity
  8
OBJECT
100
AcDbCircle
 10
205.143189
 20
187.272262
 30
0.0
 40
0.1795
  0
ARC
  5
B0F
100
AcDbEntity
  8
OBJECT
100
AcDbCircle
 10
205.16911
 20
185.523906
 30
0.0
 40
1.0
100
AcDbArc
 50
180.0
 51
211.025677
  0
LINE
  5
B10
100
AcDbEntity
  8
OBJECT
100
AcDbLine
 10
204.469846
 20
184.74634
 30
0.0
 11
204.312174
 21
185.008484
 31
0.0
  0
ARC
  5
B11
100
AcDbEntity
  8
OBJECT
100
AcDbCircle
 10
206.891544
 20
187.24634
 30
0.0
 40
1.0
100
AcDbArc
 50
58.974323
 51
90.0
  0
ARC
  5
B12
100
AcDbEntity
  8
OBJECT
100
AcDbCircle
 10
209.696676
 20
187.24634
 30
0.0
 40
1.0
100
AcDbArc
 50
90.0
 51
121.025677
  0
LINE
  5
B13
100
AcDbEntity
  8
OBJECT
100
AcDbLine
 10
209.696676
 20
188.24634
 30
0.0
 11
211.41911
 21
188.24634
 31
0.0
  0
LINE
  5
B14
100
AcDbEntity
  8
OBJECT
100
AcDbLine
 10
207.66911
 20
187.945605
 30
0.0
 11
207.406967
 21
188.103277
 31
0.0
  0
LINE
  5
B15
100
AcDbEntity
  8
OBJECT
100
AcDbLine
 10
208.91911
 20
187.945605
 30
0.0
 11
209.181254
 21
188.103277
 31
0.0
  0
ARC
  5
B16
100
AcDbEntity
  8
OBJECT
100
AcDbCircle
 10
211.41911
 20
187.24634
 30
0.0
 40
1.0
100
AcDbArc
 50
0.0
 51
90.0
  0
CIRCLE
  5
B17
100
AcDbEntity
  8
OBJECT
100
AcDbCircle
 10
211.445032
 20
187.272262
 30
0.0
 40
0.3985
  0
CIRCLE
  5
B18
100
AcDbEntity
  8
OBJECT
100
AcDbCircle
 10
211.445032
 20
187.272262
 30
0.0
 40
0.1795
  0
LINE
  5
B19
100
AcDbEntity
  8
OBJECT
100
AcDbLine
 10
212.41911
 20
185.523906
 30
0.0
 11
212.41911
 21
187.24634
 31
0.0
  0
ARC
  5
B1A
100
AcDbEntity
  8
OBJECT
100
AcDbCircle
 10
211.41911
 20
185.523906
 30
0.0
 40
1.0
100
AcDbArc
 50
328.974323
 51
0.0
  0
LINE
  5
B1B
100
AcDbEntity
  8
OBJECT
100
AcDbLine
 10
212.118375
 20
184.74634
 30
0.0
 11
212.276047
 21
185.008484
 31
0.0
  0
TEXT
  5
B1C
100
AcDbEntity
  8
OBJECT
100
AcDbText
 10
204.852775
 20
180.085338
 30
0.0
 40
0.25
  1
TOPP IND
  7
ROMANS
100
AcDbText
  0
LINE
  5
B1D
100
AcDbEntity
  8
OBJECT
100
AcDbLine
 10
204.41911
 20
177.315989
 30
0.0
 11
212.16911
 21
177.315989
 31
0.0
  0
LINE
  5
B1E
100
AcDbEntity
  8
OBJECT
100
AcDbLine
 10
204.16911
 20
174.450292
 30
0.0
 11
204.16911
 21
174.034739
 31
0.0
  0
LINE
  5
B1F
100
AcDbEntity
  8
OBJECT
100
AcDbLine
 10
212.41911
 20
174.450292
 30
0.0
 11
212.41911
 21
174.034739
 31
0.0
  0
ARC
  5
B20
100
AcDbEntity
  8
OBJECT
100
AcDbCircle
 10
208.29411
 20
155.075932
 30
0.0
 40
19.40237
100
AcDbArc
 50
77.725068
 51
86.446029
  0
ARC
  5
B21
100
AcDbEntity
  8
OBJECT
100
AcDbCircle
 10
208.29411
 20
155.075932
 30
0.0
 40
19.80862
100
AcDbArc
 50
77.980612
 51
78.718944
  0
LINE
  5
B22
100
AcDbEntity
  8
OBJECT
100
AcDbLine
 10
204.41911
 20
177.315989
 30
0.0
 11
204.41911
 21
174.501838
 31
0.0
  0
LINE
  5
B23
100
AcDbEntity
  8
OBJECT
100
AcDbLine
 10
212.16911
 20
177.315989
 30
0.0
 11
212.16911
 21
174.501838
 31
0.0
  0
LINE
  5
B24
100
AcDbEntity
  8
OBJECT
100
AcDbLine
 10
204.76211
 20
177.315989
 30
0.0
 11
204.76211
 21
175.034739
 31
0.0
  0
LINE
  5
B25
100
AcDbEntity
  8
OBJECT
100
AcDbLine
 10
211.82611
 20
177.315989
 30
0.0
 11
211.82611
 21
175.034739
 31
0.0
  0
LINE
  5
B26
100
AcDbEntity
  8
OBJECT
100
AcDbLine
 10
205.16911
 20
174.753489
 30
0.0
 11
205.16911
 21
174.224988
 31
0.0
  0
LINE
  5
B27
100
AcDbEntity
  8
OBJECT
100
AcDbLine
 10
211.41911
 20
174.753489
 30
0.0
 11
211.41911
 21
174.224988
 31
0.0
  0
LINE
  5
B28
100
AcDbEntity
  8
OBJECT
100
AcDbLine
 10
205.16911
 20
174.753489
 30
0.0
 11
211.41911
 21
174.753489
 31
0.0
  0
ARC
  5
B29
100
AcDbEntity
  8
OBJECT
100
AcDbCircle
 10
208.29411
 20
155.075932
 30
0.0
 40
19.80862
100
AcDbArc
 50
101.281056
 51
102.019388
  0
LINE
  5
B2A
100
AcDbEntity
  8
OBJECT
100
AcDbLine
 10
207.091382
 20
174.440989
 30
0.0
 11
209.496839
 21
174.440989
 31
0.0
  0
LINE
  5
B2B
100
AcDbEntity
  8
OBJECT
100
AcDbLine
 10
205.16911
 20
174.753489
 30
0.0
 11
204.76211
 21
175.034739
 31
0.0
  0
LINE
  5
B2C
100
AcDbEntity
  8
OBJECT
100
AcDbLine
 10
211.41911
 20
174.753489
 30
0.0
 11
211.82611
 21
175.034739
 31
0.0
  0
ARC
  5
B2D
100
AcDbEntity
  8
OBJECT
100
AcDbCircle
 10
208.29411
 20
155.075932
 30
0.0
 40
19.40237
100
AcDbArc
 50
93.553971
 51
99.26859
  0
LINE
  5
B2E
100
AcDbEntity
  8
HIDDEN
100
AcDbLine
 10
204.963689
 20
174.292893
 30
0.0
 11
204.963689
 21
174.190332
 31
0.0
  0
LINE
  5
B2F
100
AcDbEntity
  8
OBJECT
100
AcDbLine
 10
208.29411
 20
180.24634
 30
0.0
 11
208.29411
 21
180.24634
 31
0.0
  0
LINE
  5
B30
100
AcDbEntity
  8
HIDDEN
100
AcDbLine
 10
204.744689
 20
174.563955
 30
0.0
 11
204.963689
 21
174.292893
 31
0.0
  0
LINE
  5
B31
100
AcDbEntity
  8
HIDDEN
100
AcDbLine
 10
205.541689
 20
174.563955
 30
0.0
 11
205.322689
 21
174.292893
 31
0.0
  0
LINE
  5
B32
100
AcDbEntity
  8
HIDDEN
100
AcDbLine
 10
205.322689
 20
174.292893
 30
0.0
 11
205.322689
 21
174.24942
 31
0.0
  0
LINE
  5
B33
100
AcDbEntity
  8
HIDDEN
100
AcDbLine
 10
211.046532
 20
174.563955
 30
0.0
 11
211.265532
 21
174.292893
 31
0.0
  0
LINE
  5
B34
100
AcDbEntity
  8
HIDDEN
100
AcDbLine
 10
211.843532
 20
174.563955
 30
0.0
 11
211.624532
 21
174.292893
 31
0.0
  0
LINE
  5
B35
100
AcDbEntity
  8
HIDDEN
100
AcDbLine
 10
211.624532
 20
174.292893
 30
0.0
 11
211.624532
 21
174.190332
 31
0.0
  0
LINE
  5
B36
100
AcDbEntity
  8
HIDDEN
100
AcDbLine
 10
211.265532
 20
174.292893
 30
0.0
 11
211.265532
 21
174.24942
 31
0.0
  0
ARC
  5
B37
100
AcDbEntity
  8
OBJECT
100
AcDbCircle
 10
208.29411
 20
155.075932
 30
0.0
 40
19.40237
100
AcDbArc
 50
99.26859
 51
102.274932
  0
INSERT
  5
B38
100
AcDbEntity
  8
HATCH
100
AcDbBlockReference
  2
*X3
 10
64.302813
 20
17.388674
 30
0.0
1001
ACAD
1000
HATCH
1002
{
1070
    16
1000
ANSI32
1040
1.0
1040
0.0
1002
}
  0
INSERT
  5
B39
100
AcDbEntity
  8
HATCH
100
AcDbBlockReference
  2
*X3
 10
352.285407
 20
17.388674
 30
0.0
 41
-1.0
1001
ACAD
1000
HATCH
1002
{
1070
    16
1000
ANSI32
1040
1.0
1040
0.0
1002
}
  0
LINE
  5
B3A
100
AcDbEntity
  8
CENTER
100
AcDbLine
 10
203.66911
 20
184.12134
 30
0.0
 11
203.66911
 21
184.674966
 31
0.0
  0
TEXT
  5
B3B
100
AcDbEntity
  8
DIM
100
AcDbText
 10
203.564647
 20
184.76724
 30
0.0
 40
0.25
  1
D
  7
ROMANS
100
AcDbText
  0
SOLID
  5
B3C
100
AcDbEntity
  8
DIM
100
AcDbTrace
 10
203.63911
 20
184.494966
 30
0.0
 11
203.69911
 21
184.494966
 31
0.0
 12
203.66911
 22
184.674966
 32
0.0
 13
203.66911
 23
184.674966
 33
0.0
  0
LINE
  5
B3D
100
AcDbEntity
  8
CENTER
100
AcDbLine
 10
212.91911
 20
184.12134
 30
0.0
 11
212.91911
 21
184.674966
 31
0.0
  0
SOLID
  5
B3E
100
AcDbEntity
  8
DIM
100
AcDbTrace
 10
212.94911
 20
184.494966
 30
0.0
 11
212.88911
 21
184.494966
 31
0.0
 12
212.91911
 22
184.674966
 32
0.0
 13
212.91911
 23
184.674966
 33
0.0
  0
TEXT
  5
B3F
100
AcDbEntity
  8
DIM
100
AcDbText
 10
212.788535
 20
184.76724
 30
0.0
 40
0.25
  1
D
  7
ROMANS
100
AcDbText
  0
DIMENSION
  5
B40
100
AcDbEntity
  8
DIM
100
AcDbDimension
  2
*D5
 10
211.41911
 20
173.212817
 30
0.0
 11
208.29411
 21
173.212817
 31
0.0
 12
42.211009
 22
1.666533
 32
0.0
  1
6 1/4"
100
AcDbAlignedDimension
 13
205.16911
 23
174.224988
 33
0.0
 14
211.41911
 24
174.224988
 34
0.0
100
AcDbRotatedDimension
  0
DIMENSION
  5
B41
100
AcDbEntity
  8
DIM
100
AcDbDimension
  2
*D6
 10
211.82611
 20
172.145799
 30
0.0
 11
208.29411
 21
172.145799
 31
0.0
 12
42.211009
 22
1.666533
 32
0.0
  1
7 1/16"
100
AcDbAlignedDimension
 13
204.76211
 23
175.034739
 33
0.0
 14
211.82611
 24
175.034739
 34
0.0
100
AcDbRotatedDimension
  0
TEXT
  5
B42
100
AcDbEntity
  8
DIM
100
AcDbText
 10
208.162997
 20
179.247972
 30
0.0
 40
0.25
  1
C
  7
ROMANS
100
AcDbText
  0
TEXT
  5
B43
100
AcDbEntity
  8
DIM
100
AcDbText
 10
208.241665
 20
179.07893
 30
0.0
 40
0.25
  1
L
  7
ROMANS
100
AcDbText
  0
LINE
  5
B44
100
AcDbEntity
  8
CENTER
100
AcDbLine
 10
187.088293
 20
174.780766
 30
0.0
 11
187.088293
 21
162.955814
 31
0.0
  0
LINE
  5
B45
100
AcDbEntity
  8
CENTER
100
AcDbLine
 10
180.713293
 20
168.405766
 30
0.0
 11
193.463293
 21
168.405766
 31
0.0
  0
CIRCLE
  5
B46
100
AcDbEntity
  8
OBJECT
100
AcDbCircle
 10
187.088293
 20
168.405766
 30
0.0
 40
4.875
  0
CIRCLE
  5
B47
100
AcDbEntity
  8
OBJECT
100
AcDbCircle
 10
187.088293
 20
168.405766
 30
0.0
 40
4.532
  0
CIRCLE
  5
B48
100
AcDbEntity
  8
OBJECT
100
AcDbCircle
 10
187.088293
 20
168.405766
 30
0.0
 40
4.0
  0
LINE
  5
B49
100
AcDbEntity
  8
OBJECT
100
AcDbLine
 10
192.905614
 20
167.815846
 30
0.0
 11
192.521063
 21
167.289486
 31
0.0
  0
LINE
  5
B4A
100
AcDbEntity
  8
OBJECT
100
AcDbLine
 10
192.905614
 20
168.995685
 30
0.0
 11
192.521063
 21
169.522046
 31
0.0
  0
ARC
  5
B4B
100
AcDbEntity
  8
OBJECT
100
AcDbCircle
 10
192.098152
 20
168.405766
 30
0.0
 40
1.0
100
AcDbArc
 50
323.848719
 51
36.151281
  0
ARC
  5
B4C
100
AcDbEntity
  8
OBJECT
100
AcDbCircle
 10
192.319198
 20
167.436966
 30
0.0
 40
0.25
100
AcDbArc
 50
288.590378
 51
323.848719
  0
ARC
  5
B4D
100
AcDbEntity
  8
OBJECT
100
AcDbCircle
 10
192.319198
 20
169.374566
 30
0.0
 40
0.25
100
AcDbArc
 50
36.151281
 51
71.409622
  0
CIRCLE
  5
B4E
100
AcDbEntity
  8
OBJECT
100
AcDbCircle
 10
192.450881
 20
168.405766
 30
0.0
 40
0.1875
  0
CIRCLE
  5
B4F
100
AcDbEntity
  8
OBJECT
100
AcDbCircle
 10
192.450881
 20
168.405766
 30
0.0
 40
0.42
  0
ARC
  5
B50
100
AcDbEntity
  8
OBJECT
100
AcDbCircle
 10
189.593222
 20
172.744431
 30
0.0
 40
1.0
100
AcDbArc
 50
23.848719
 51
96.151281
  0
CIRCLE
  5
B51
100
AcDbEntity
  8
OBJECT
100
AcDbCircle
 10
189.769587
 20
173.049903
 30
0.0
 40
0.42
  0
ARC
  5
B52
100
AcDbEntity
  8
OBJECT
100
AcDbCircle
 10
190.542751
 20
172.451462
 30
0.0
 40
0.25
100
AcDbArc
 50
348.590378
 51
23.848719
  0
LINE
  5
B53
100
AcDbEntity
  8
OBJECT
100
AcDbLine
 10
190.507839
 20
173.148754
 30
0.0
 11
190.771405
 21
172.552543
 31
0.0
  0
ARC
  5
B54
100
AcDbEntity
  8
OBJECT
100
AcDbCircle
 10
188.86474
 20
173.420262
 30
0.0
 40
0.25
100
AcDbArc
 50
96.151281
 51
131.409622
  0
CIRCLE
  5
B55
100
AcDbEntity
  8
OBJECT
100
AcDbCircle
 10
189.769587
 20
173.049903
 30
0.0
 40
0.1875
  0
LINE
  5
B56
100
AcDbEntity
  8
OBJECT
100
AcDbLine
 10
189.486068
 20
173.738673
 30
0.0
 11
188.837951
 21
173.668822
 31
0.0
  0
ARC
  5
B57
100
AcDbEntity
  8
OBJECT
100
AcDbCircle
 10
184.583364
 20
172.744431
 30
0.0
 40
1.0
100
AcDbArc
 50
83.848719
 51
156.151281
  0
CIRCLE
  5
B58
100
AcDbEntity
  8
OBJECT
100
AcDbCircle
 10
184.406999
 20
173.049903
 30
0.0
 40
0.42
  0
ARC
  5
B59
100
AcDbEntity
  8
OBJECT
100
AcDbCircle
 10
185.311846
 20
173.420262
 30
0.0
 40
0.25
100
AcDbArc
 50
48.590378
 51
83.848719
  0
LINE
  5
B5A
100
AcDbEntity
  8
OBJECT
100
AcDbLine
 10
184.690518
 20
173.738673
 30
0.0
 11
185.338635
 21
173.668822
 31
0.0
  0
ARC
  5
B5B
100
AcDbEntity
  8
OBJECT
100
AcDbCircle
 10
183.633836
 20
172.451462
 30
0.0
 40
0.25
100
AcDbArc
 50
156.151281
 51
191.409622
  0
CIRCLE
  5
B5C
100
AcDbEntity
  8
OBJECT
100
AcDbCircle
 10
184.406999
 20
173.049903
 30
0.0
 40
0.1875
  0
LINE
  5
B5D
100
AcDbEntity
  8
OBJECT
100
AcDbLine
 10
183.668748
 20
173.148754
 30
0.0
 11
183.405182
 21
172.552543
 31
0.0
  0
ARC
  5
B5E
100
AcDbEntity
  8
OBJECT
100
AcDbCircle
 10
182.078435
 20
168.405766
 30
0.0
 40
1.0
100
AcDbArc
 50
143.848719
 51
216.151281
  0
CIRCLE
  5
B5F
100
AcDbEntity
  8
OBJECT
100
AcDbCircle
 10
181.725706
 20
168.405766
 30
0.0
 40
0.42
  0
ARC
  5
B60
100
AcDbEntity
  8
OBJECT
100
AcDbCircle
 10
181.857389
 20
169.374566
 30
0.0
 40
0.25
100
AcDbArc
 50
108.590378
 51
143.848719
  0
LINE
  5
B61
100
AcDbEntity
  8
OBJECT
100
AcDbLine
 10
181.270972
 20
168.995685
 30
0.0
 11
181.655523
 21
169.522046
 31
0.0
  0
ARC
  5
B62
100
AcDbEntity
  8
OBJECT
100
AcDbCircle
 10
181.857389
 20
167.436966
 30
0.0
 40
0.25
100
AcDbArc
 50
216.151281
 51
251.409622
  0
CIRCLE
  5
B63
100
AcDbEntity
  8
OBJECT
100
AcDbCircle
 10
181.725706
 20
168.405766
 30
0.0
 40
0.1875
  0
LINE
  5
B64
100
AcDbEntity
  8
OBJECT
100
AcDbLine
 10
181.270972
 20
167.815846
 30
0.0
 11
181.655523
 21
167.289486
 31
0.0
  0
ARC
  5
B65
100
AcDbEntity
  8
OBJECT
100
AcDbCircle
 10
184.583364
 20
164.067101
 30
0.0
 40
1.0
100
AcDbArc
 50
203.848719
 51
276.151281
  0
CIRCLE
  5
B66
100
AcDbEntity
  8
OBJECT
100
AcDbCircle
 10
184.406999
 20
163.761629
 30
0.0
 40
0.42
  0
ARC
  5
B67
100
AcDbEntity
  8
OBJECT
100
AcDbCircle
 10
183.633836
 20
164.36007
 30
0.0
 40
0.25
100
AcDbArc
 50
168.590378
 51
203.848719
  0
LINE
  5
B68
100
AcDbEntity
  8
OBJECT
100
AcDbLine
 10
183.668748
 20
163.662778
 30
0.0
 11
183.405182
 21
164.258989
 31
0.0
  0
ARC
  5
B69
100
AcDbEntity
  8
OBJECT
100
AcDbCircle
 10
185.311846
 20
163.39127
 30
0.0
 40
0.25
100
AcDbArc
 50
276.151281
 51
311.409622
  0
CIRCLE
  5
B6A
100
AcDbEntity
  8
OBJECT
100
AcDbCircle
 10
184.406999
 20
163.761629
 30
0.0
 40
0.1875
  0
LINE
  5
B6B
100
AcDbEntity
  8
OBJECT
100
AcDbLine
 10
184.690518
 20
163.072859
 30
0.0
 11
185.338635
 21
163.142709
 31
0.0
  0
ARC
  5
B6C
100
AcDbEntity
  8
OBJECT
100
AcDbCircle
 10
189.593222
 20
164.067101
 30
0.0
 40
1.0
100
AcDbArc
 50
263.848719
 51
336.151281
  0
CIRCLE
  5
B6D
100
AcDbEntity
  8
OBJECT
100
AcDbCircle
 10
189.769587
 20
163.761629
 30
0.0
 40
0.42
  0
ARC
  5
B6E
100
AcDbEntity
  8
OBJECT
100
AcDbCircle
 10
188.86474
 20
163.39127
 30
0.0
 40
0.25
100
AcDbArc
 50
228.590378
 51
263.848719
  0
LINE
  5
B6F
100
AcDbEntity
  8
OBJECT
100
AcDbLine
 10
189.486068
 20
163.072859
 30
0.0
 11
188.837951
 21
163.142709
 31
0.0
  0
ARC
  5
B70
100
AcDbEntity
  8
OBJECT
100
AcDbCircle
 10
190.542751
 20
164.36007
 30
0.0
 40
0.25
100
AcDbArc
 50
336.151281
 51
11.409622
  0
CIRCLE
  5
B71
100
AcDbEntity
  8
OBJECT
100
AcDbCircle
 10
189.769587
 20
163.761629
 30
0.0
 40
0.1875
  0
LINE
  5
B72
100
AcDbEntity
  8
OBJECT
100
AcDbLine
 10
190.507839
 20
163.662778
 30
0.0
 11
190.771405
 21
164.258989
 31
0.0
  0
LINE
  5
B73
100
AcDbEntity
  8
OBJECT
100
AcDbLine
 10
192.262091
 20
167.088055
 30
0.0
 11
190.816363
 21
164.583981
 31
0.0
  0
LINE
  5
B74
100
AcDbEntity
  8
OBJECT
100
AcDbLine
 10
188.534021
 20
163.26627
 30
0.0
 11
185.642565
 21
163.26627
 31
0.0
  0
LINE
  5
B75
100
AcDbEntity
  8
OBJECT
100
AcDbLine
 10
183.360223
 20
164.583981
 30
0.0
 11
181.914495
 21
167.088055
 31
0.0
  0
LINE
  5
B76
100
AcDbEntity
  8
OBJECT
100
AcDbLine
 10
181.914495
 20
169.723477
 30
0.0
 11
183.360223
 21
172.227551
 31
0.0
  0
LINE
  5
B77
100
AcDbEntity
  8
OBJECT
100
AcDbLine
 10
185.642565
 20
173.545262
 30
0.0
 11
188.534021
 21
173.545262
 31
0.0
  0
LINE
  5
B78
100
AcDbEntity
  8
OBJECT
100
AcDbLine
 10
190.816363
 20
172.227551
 30
0.0
 11
192.262091
 21
169.723477
 31
0.0
  0
ARC
  5
B79
100
AcDbEntity
  8
OBJECT
100
AcDbCircle
 10
192.478598
 20
166.963055
 30
0.0
 40
0.25
100
AcDbArc
 50
108.590378
 51
150.0
  0
ARC
  5
B7A
100
AcDbEntity
  8
OBJECT
100
AcDbCircle
 10
192.478598
 20
169.848477
 30
0.0
 40
0.25
100
AcDbArc
 50
210.0
 51
251.409622
  0
ARC
  5
B7B
100
AcDbEntity
  8
OBJECT
100
AcDbCircle
 10
188.534021
 20
163.01627
 30
0.0
 40
0.25
100
AcDbArc
 50
48.590378
 51
90.0
  0
ARC
  5
B7C
100
AcDbEntity
  8
OBJECT
100
AcDbCircle
 10
191.03287
 20
164.458981
 30
0.0
 40
0.25
100
AcDbArc
 50
150.0
 51
191.409622
  0
ARC
  5
B7D
100
AcDbEntity
  8
OBJECT
100
AcDbCircle
 10
183.143717
 20
164.458981
 30
0.0
 40
0.25
100
AcDbArc
 50
348.590378
 51
30.0
  0
ARC
  5
B7E
100
AcDbEntity
  8
OBJECT
100
AcDbCircle
 10
185.642565
 20
163.01627
 30
0.0
 40
0.25
100
AcDbArc
 50
90.0
 51
131.409622
  0
ARC
  5
B7F
100
AcDbEntity
  8
OBJECT
100
AcDbCircle
 10
181.697989
 20
166.963055
 30
0.0
 40
0.25
100
AcDbArc
 50
30.0
 51
71.409622
  0
ARC
  5
B80
100
AcDbEntity
  8
OBJECT
100
AcDbCircle
 10
181.697989
 20
169.848477
 30
0.0
 40
0.25
100
AcDbArc
 50
288.590378
 51
330.0
  0
ARC
  5
B81
100
AcDbEntity
  8
OBJECT
100
AcDbCircle
 10
183.143717
 20
172.352551
 30
0.0
 40
0.25
100
AcDbArc
 50
330.0
 51
11.409622
  0
ARC
  5
B82
100
AcDbEntity
  8
OBJECT
100
AcDbCircle
 10
185.642565
 20
173.795262
 30
0.0
 40
0.25
100
AcDbArc
 50
228.590378
 51
270.0
  0
ARC
  5
B83
100
AcDbEntity
  8
OBJECT
100
AcDbCircle
 10
188.534021
 20
173.795262
 30
0.0
 40
0.25
100
AcDbArc
 50
270.0
 51
311.409622
  0
ARC
  5
B84
100
AcDbEntity
  8
OBJECT
100
AcDbCircle
 10
191.03287
 20
172.352551
 30
0.0
 40
0.25
100
AcDbArc
 50
168.590378
 51
210.0
  0
TEXT
  5
B85
100
AcDbEntity
  8
OBJECT
100
AcDbText
 10
184.844412
 20
163.503929
 30
0.0
 40
0.25
  1
TOPP 
 50
347.020093
  7
ROMANS
100
AcDbText
  0
TEXT
  5
B86
100
AcDbEntity
  8
OBJECT
100
AcDbText
 10
188.65557
 20
163.353093
 30
0.0
 40
0.25
  1
IND
 50
15.927704
  7
ROMANS
100
AcDbText
  0
LINE
  5
B87
100
AcDbEntity
  8
OBJECT
100
AcDbLine
 10
182.213293
 20
161.853147
 30
0.0
 11
191.963293
 21
161.853147
 31
0.0
  0
LINE
  5
B88
100
AcDbEntity
  8
OBJECT
100
AcDbLine
 10
181.078435
 20
158.551442
 30
0.0
 11
181.078435
 21
158.197147
 31
0.0
  0
LINE
  5
B89
100
AcDbEntity
  8
OBJECT
100
AcDbLine
 10
193.098152
 20
158.551442
 30
0.0
 11
193.098152
 21
158.197147
 31
0.0
  0
ARC
  5
B8A
100
AcDbEntity
  8
OBJECT
100
AcDbCircle
 10
187.088293
 20
135.146007
 30
0.0
 40
23.821701
100
AcDbArc
 50
75.387231
 51
99.666564
  0
ARC
  5
B8B
100
AcDbEntity
  8
OBJECT
100
AcDbCircle
 10
187.088293
 20
135.146007
 30
0.0
 40
24.164701
100
AcDbArc
 50
75.599164
 51
78.36124
  0
LINE
  5
B8C
100
AcDbEntity
  8
OBJECT
100
AcDbLine
 10
182.213293
 20
161.853147
 30
0.0
 11
182.213293
 21
158.813858
 31
0.0
  0
LINE
  5
B8D
100
AcDbEntity
  8
OBJECT
100
AcDbLine
 10
182.556293
 20
161.853147
 30
0.0
 11
182.556293
 21
159.797147
 31
0.0
  0
LINE
  5
B8E
100
AcDbEntity
  8
OBJECT
100
AcDbLine
 10
191.620293
 20
161.853147
 30
0.0
 11
191.620293
 21
159.797147
 31
0.0
  0
LINE
  5
B8F
100
AcDbEntity
  8
OBJECT
100
AcDbLine
 10
191.963293
 20
161.853147
 30
0.0
 11
191.963293
 21
158.813858
 31
0.0
  0
LINE
  5
B90
100
AcDbEntity
  8
OBJECT
100
AcDbLine
 10
183.088293
 20
159.368147
 30
0.0
 11
183.088293
 21
158.629479
 31
0.0
  0
LINE
  5
B91
100
AcDbEntity
  8
OBJECT
100
AcDbLine
 10
191.088293
 20
159.368147
 30
0.0
 11
191.088293
 21
158.629479
 31
0.0
  0
LINE
  5
B92
100
AcDbEntity
  8
OBJECT
100
AcDbLine
 10
183.088293
 20
159.368147
 30
0.0
 11
182.556293
 21
159.797147
 31
0.0
  0
LINE
  5
B93
100
AcDbEntity
  8
OBJECT
100
AcDbLine
 10
191.088293
 20
159.368147
 30
0.0
 11
191.620293
 21
159.797147
 31
0.0
  0
ARC
  5
B94
100
AcDbEntity
  8
OBJECT
100
AcDbCircle
 10
187.088293
 20
135.146007
 30
0.0
 40
24.164701
100
AcDbArc
 50
101.63876
 51
104.400836
  0
LINE
  5
B95
100
AcDbEntity
  8
HIDDEN
100
AcDbLine
 10
181.305706
 20
158.608626
 30
0.0
 11
181.538206
 21
158.312146
 31
0.0
  0
LINE
  5
B96
100
AcDbEntity
  8
HIDDEN
100
AcDbLine
 10
182.145706
 20
158.799836
 30
0.0
 11
181.913206
 21
158.39879
 31
0.0
  0
LINE
  5
B97
100
AcDbEntity
  8
HIDDEN
100
AcDbLine
 10
192.870881
 20
158.608626
 30
0.0
 11
192.638381
 21
158.312146
 31
0.0
  0
LINE
  5
B98
100
AcDbEntity
  8
HIDDEN
100
AcDbLine
 10
192.030881
 20
158.799836
 30
0.0
 11
192.263381
 21
158.39879
 31
0.0
  0
LINE
  5
B99
100
AcDbEntity
  8
OBJECT
100
AcDbLine
 10
183.088293
 20
159.368147
 30
0.0
 11
191.088293
 21
159.368147
 31
0.0
  0
ARC
  5
B9A
100
AcDbEntity
  8
OBJECT
100
AcDbCircle
 10
187.088293
 20
135.146007
 30
0.0
 40
23.821701
100
AcDbArc
 50
99.666564
 51
104.612769
  0
INSERT
  5
B9B
100
AcDbEntity
  8
HATCH
100
AcDbBlockReference
  2
*X4
 10
26.030936
 20
5.262992
 30
0.0
1001
ACAD
1000
HATCH
1002
{
1070
    16
1000
ANSI32
1040
1.0
1040
0.0
1002
}
  0
INSERT
  5
B9C
100
AcDbEntity
  8
HATCH
100
AcDbBlockReference
  2
*X4
 10
348.145651
 20
5.262992
 30
0.0
 41
-1.0
1001
ACAD
1000
HATCH
1002
{
1070
    16
1000
ANSI32
1040
1.0
1040
0.0
1002
}
  0
DIMENSION
  5
B9D
100
AcDbEntity
  8
DIM
100
AcDbDimension
  2
*D13
 10
191.088293
 20
157.635194
 30
0.0
 11
187.088293
 21
157.635194
 31
0.0
 12
42.211009
 22
1.666533
 32
0.0
  1
8"
100
AcDbAlignedDimension
 13
183.088293
 23
158.629479
 33
0.0
 14
191.088293
 24
158.629479
 34
0.0
100
AcDbRotatedDimension
  0
DIMENSION
  5
B9E
100
AcDbEntity
  8
DIM
100
AcDbDimension
  2
*D14
 10
191.620293
 20
156.772783
 30
0.0
 11
187.088293
 21
156.772783
 31
0.0
 12
42.211009
 22
1.666533
 32
0.0
  1
9 1/16"
100
AcDbAlignedDimension
 13
182.556293
 23
159.797147
 33
0.0
 14
191.620293
 24
159.797147
 34
0.0
100
AcDbRotatedDimension
  0
TEXT
  5
B9F
100
AcDbEntity
  8
DIM
100
AcDbText
 10
180.582718
 20
169.051665
 30
0.0
 40
0.25
  1
E
  7
ROMANS
100
AcDbText
  0
SOLID
  5
BA0
100
AcDbEntity
  8
DIM
100
AcDbTrace
 10
180.743293
 20
168.779391
 30
0.0
 11
180.683293
 21
168.779391
 31
0.0
 12
180.713293
 22
168.959391
 32
0.0
 13
180.713293
 23
168.959391
 33
0.0
  0
LINE
  5
BA1
100
AcDbEntity
  8
CENTER
100
AcDbLine
 10
180.713293
 20
168.405766
 30
0.0
 11
180.713293
 21
168.959391
 31
0.0
  0
TEXT
  5
BA2
100
AcDbEntity
  8
DIM
100
AcDbText
 10
193.332718
 20
169.051665
 30
0.0
 40
0.25
  1
E
  7
ROMANS
100
AcDbText
  0
SOLID
  5
BA3
100
AcDbEntity
  8
DIM
100
AcDbTrace
 10
193.493293
 20
168.779391
 30
0.0
 11
193.433293
 21
168.779391
 31
0.0
 12
193.463293
 22
168.959391
 32
0.0
 13
193.463293
 23
168.959391
 33
0.0
  0
LINE
  5
BA4
100
AcDbEntity
  8
CENTER
100
AcDbLine
 10
193.463293
 20
168.405766
 30
0.0
 11
193.463293
 21
168.959391
 31
0.0
  0
TEXT
  5
BA5
100
AcDbEntity
  8
DIM
100
AcDbText
 10
187.048814
 20
162.450514
 30
0.0
 40
0.25
  1
L
  7
ROMANS
100
AcDbText
  0
TEXT
  5
BA6
100
AcDbEntity
  8
DIM
100
AcDbText
 10
186.970145
 20
162.619557
 30
0.0
 40
0.25
  1
C
  7
ROMANS
100
AcDbText
  0
LINE
  5
BA7
100
AcDbEntity
  8
CENTER
100
AcDbLine
 10
183.827875
 20
182.746086
 30
0.0
 11
183.827875
 21
179.983354
 31
0.0
  0
TEXT
  5
BA8
100
AcDbEntity
  8
DIM
100
AcDbText
 10
182.116268
 20
177.042984
 30
0.0
 40
0.3375
  1
SECTION A-A
  7
ROMANS
 72
     1
 11
183.827875
 21
177.042984
 31
0.0
100
AcDbText
  0
TEXT
  5
BA9
100
AcDbEntity
  8
DIM
100
AcDbText
 10
181.610018
 20
176.288538
 30
0.0
 40
0.3375
  1
PART NO. H200C
  7
ROMANS
 72
     1
 11
183.827875
 21
176.288538
 31
0.0
100
AcDbText
  0
LWPOLYLINE
  5
BAA
100
AcDbEntity
  8
DIM
100
AcDbPolyline
 90
        6
 70
     0
 43
0.0
 10
183.827875
 20
176.24086
 10
186.068875
 20
176.24086
 10
186.068875
 20
176.69986
 10
181.586875
 20
176.69986
 10
181.586875
 20
176.24086
 10
183.827875
 20
176.24086
  0
LINE
  5
BB2
100
AcDbEntity
  8
DIM
100
AcDbLine
 10
182.149877
 20
176.984498
 30
0.0
 11
185.506224
 21
176.984498
 31
0.0
  0
LINE
  5
BB3
100
AcDbEntity
  8
DIM
100
AcDbLine
 10
188.668309
 20
175.720285
 30
0.0
 11
192.024656
 21
175.720285
 31
0.0
  0
TEXT
  5
BB4
100
AcDbEntity
  8
DIM
100
AcDbText
 10
188.602557
 20
175.778771
 30
0.0
 40
0.3375
  1
SECTION B-B
  7
ROMANS
 72
     1
 11
190.346307
 21
175.778771
 31
0.0
100
AcDbText
  0
TEXT
  5
BB5
100
AcDbEntity
  8
DIM
100
AcDbText
 10
188.12845
 20
175.024325
 30
0.0
 40
0.3375
  1
PART NO. H300C
  7
ROMANS
 72
     1
 11
190.346307
 21
175.024325
 31
0.0
100
AcDbText
  0
LWPOLYLINE
  5
BB6
100
AcDbEntity
  8
DIM
100
AcDbPolyline
 90
        6
 70
     0
 43
0.0
 10
190.346307
 20
174.976648
 10
192.587307
 20
174.976648
 10
192.587307
 20
175.435648
 10
188.105307
 20
175.435648
 10
188.105307
 20
174.976648
 10
190.346307
 20
174.976648
  0
LINE
  5
BBE
100
AcDbEntity
  8
DIM
100
AcDbLine
 10
196.606931
 20
173.388769
 30
0.0
 11
199.963278
 21
173.388769
 31
0.0
  0
TEXT
  5
BBF
100
AcDbEntity
  8
DIM
100
AcDbText
 10
196.54118
 20
173.447255
 30
0.0
 40
0.3375
  1
SECTION C-C
  7
ROMANS
 72
     1
 11
198.28493
 21
173.447255
 31
0.0
100
AcDbText
  0
TEXT
  5
BC0
100
AcDbEntity
  8
DIM
100
AcDbText
 10
196.067073
 20
172.692809
 30
0.0
 40
0.3375
  1
PART NO. H400C
  7
ROMANS
 72
     1
 11
198.28493
 21
172.692809
 31
0.0
100
AcDbText
  0
LWPOLYLINE
  5
BC1
100
AcDbEntity
  8
DIM
100
AcDbPolyline
 90
        6
 70
     0
 43
0.0
 10
198.28493
 20
172.645131
 10
200.52593
 20
172.645131
 10
200.52593
 20
173.104131
 10
196.04393
 20
173.104131
 10
196.04393
 20
172.645131
 10
198.28493
 20
172.645131
  0
TEXT
  5
BC9
100
AcDbEntity
  8
DIM
100
AcDbText
 10
206.076253
 20
170.228282
 30
0.0
 40
0.3375
  1
PART NO. H600C
  7
ROMANS
 72
     1
 11
208.29411
 21
170.228282
 31
0.0
100
AcDbText
  0
LINE
  5
BCA
100
AcDbEntity
  8
DIM
100
AcDbLine
 10
206.616112
 20
170.924242
 30
0.0
 11
209.972459
 21
170.924242
 31
0.0
  0
TEXT
  5
BCB
100
AcDbEntity
  8
DIM
100
AcDbText
 10
206.55036
 20
170.982728
 30
0.0
 40
0.3375
  1
SECTION D-D
  7
ROMANS
 72
     1
 11
208.29411
 21
170.982728
 31
0.0
100
AcDbText
  0
LWPOLYLINE
  5
BCC
100
AcDbEntity
  8
DIM
100
AcDbPolyline
 90
        6
 70
     0
 43
0.0
 10
208.29411
 20
170.180605
 10
210.53511
 20
170.180605
 10
210.53511
 20
170.639605
 10
206.05311
 20
170.639605
 10
206.05311
 20
170.180605
 10
208.29411
 20
170.180605
  0
LINE
  5
BD4
100
AcDbEntity
  8
CENTER
100
AcDbLine
 10
187.088293
 20
162.325856
 30
0.0
 11
187.088293
 21
158.454958
 31
0.0
  0
LINE
  5
BD5
100
AcDbEntity
  8
CENTER
100
AcDbLine
 10
208.29411
 20
177.788697
 30
0.0
 11
208.29411
 21
173.917799
 31
0.0
  0
TEXT
  5
BD6
100
AcDbEntity
  8
DIM
100
AcDbText
 10
184.870436
 20
155.106138
 30
0.0
 40
0.3375
  1
PART NO. H800C
  7
ROMANS
 72
     1
 11
187.088293
 21
155.106138
 31
0.0
100
AcDbText
  0
LINE
  5
BD7
100
AcDbEntity
  8
DIM
100
AcDbLine
 10
185.410295
 20
155.802098
 30
0.0
 11
188.766642
 21
155.802098
 31
0.0
  0
LWPOLYLINE
  5
BD8
100
AcDbEntity
  8
DIM
100
AcDbPolyline
 90
        6
 70
     0
 43
0.0
 10
187.088293
 20
155.058461
 10
189.329293
 20
155.058461
 10
189.329293
 20
155.517461
 10
184.847293
 20
155.517461
 10
184.847293
 20
155.058461
 10
187.088293
 20
155.058461
  0
TEXT
  5
BE0
100
AcDbEntity
  8
DIM
100
AcDbText
 10
185.36865
 20
155.860584
 30
0.0
 40
0.3375
  1
SECTION E-E
  7
ROMANS
 72
     1
 11
187.088293
 21
155.860584
 31
0.0
100
AcDbText
  0
TEXT
  5
1079
100
AcDbEntity
  8
DIM
 62
     6
100
AcDbText
 10
187.946859
 20
190.217254
 30
0.0
 40
0.454834
  1
HUB KIT INCLUDES: 5/16"x1 1/2" STAINLESS STEEL
  7
ROMANS
 72
     1
 11
197.249297
 21
190.217254
 31
0.0
100
AcDbText
  0
TEXT
  5
107A
100
AcDbEntity
  8
DIM
 62
     6
100
AcDbText
 10
187.286093
 20
191.264954
 30
0.0
 40
0.909668
  1
CAST IRON CAULKING HUBS
  7
ROMAND
 72
     1
 11
197.054194
 21
191.264954
 31
0.0
100
AcDbText
  0
TEXT
  5
107B
100
AcDbEntity
  8
DIM
 62
     6
100
AcDbText
 10
187.57866
 20
189.589442
 30
0.0
 40
0.454834
  1
BOLTS, WASHERS, NUTS AND 3/4"x1/4" CLOSED CELL
  7
ROMANS
 72
     1
 11
197.249297
 21
189.589442
 31
0.0
100
AcDbText
  0
TEXT
  5
107C
100
AcDbEntity
  8
DIM
 62
     6
100
AcDbText
 10
191.228161
 20
188.948216
 30
0.0
 40
0.454834
  1
FOAM ADHESIVE GASKET MATERIAL.
  7
ROMANS
 72
     1
 11
197.249297
 21
188.948216
 31
0.0
100
AcDbText
  0
LWPOLYLINE
  5
107D
100
AcDbEntity
  8
DIM
 62
     6
100
AcDbPolyline
 90
        2
 70
     0
 43
0.075806
 39
6.064453
 10
187.256105
 20
190.924183
 10
206.87462
 20
190.924183
  0
TEXT
  5
1081
100
AcDbEntity
  8
DIM
100
AcDbText
 10
194.829911
 20
155.831834
 30
0.0
 40
0.253125
  1
INSTALLATION INSTRUCTIONS
  7
ROMANS
100
AcDbText
  0
TEXT
  5
1082
100
AcDbEntity
  8
DIM
100
AcDbText
 10
194.829911
 20
155.422012
 30
0.0
 40
0.253125
  1
 1. LOCATE PIPE OR HUB CENTER.
  7
ROMANS
100
AcDbText
  0
TEXT
  5
1083
100
AcDbEntity
  8
DIM
100
AcDbText
 10
194.829911
 20
155.012191
 30
0.0
 40
0.253125
  1
 2. CUT HOLE TO THE INSIDE DIAMETER OF THE HUB.
  7
ROMANS
100
AcDbText
  0
TEXT
  5
1084
100
AcDbEntity
  8
DIM
100
AcDbText
 10
194.829911
 20
154.609148
 30
0.0
 40
0.253125
  1
 3. APPLY GASKET MATERIAL TO THE HUB OR BASIN.
  7
ROMANS
100
AcDbText
  0
TEXT
  5
1085
100
AcDbEntity
  8
DIM
100
AcDbText
 10
194.829911
 20
154.206105
 30
0.0
 40
0.253125
  1
 4. ATTACH HUB TO BASIN AND DRILL HOLES FOR BOLTS.
  7
ROMANS
100
AcDbText
  0
TEXT
  5
1086
100
AcDbEntity
  8
DIM
100
AcDbText
 10
194.829911
 20
153.803062
 30
0.0
 40
0.253125
  1
 5. INSERT BOLTS, WASHERS, NUTS AND TIGHTEN.
  7
ROMANS
100
AcDbText
  0
TEXT
  5
1087
100
AcDbEntity
  8
DIM
100
AcDbText
 10
194.829911
 20
153.421945
 30
0.0
 40
0.253125
  1
 6. INSERT PIPE INTO HUB AND CAULK.
  7
ROMANS
100
AcDbText
  0
LINE
  5
1088
100
AcDbEntity
  8
DIM
100
AcDbLine
 10
194.80566
 20
155.770304
 30
0.0
 11
200.199004
 21
155.770304
 31
0.0
  0
TEXT
  5
108A
100
AcDbEntity
  8
DIM
100
AcDbText
 10
207.387673
 20
161.19133
 30
0.0
 40
0.3375
  1
SECTION F-F
  7
ROMANS
 72
     1
 11
209.09928
 21
161.19133
 31
0.0
100
AcDbText
  0
TEXT
  5
108B
100
AcDbEntity
  8
DIM
100
AcDbText
 10
206.351066
 20
160.436884
 30
0.0
 40
0.3375
  1
PART NO. H400C-18
  7
ROMANS
 72
     1
 11
209.09928
 21
160.436884
 31
0.0
100
AcDbText
  0
LINE
  5
108C
100
AcDbEntity
  8
DIM
100
AcDbLine
 10
207.421282
 20
161.132844
 30
0.0
 11
210.777629
 21
161.132844
 31
0.0
  0
DIMENSION
  5
108D
100
AcDbEntity
  8
DIM
100
AcDbDimension
  2
*D15
 10
211.19308
 20
163.275828
 30
0.0
 11
209.09928
 21
163.275828
 31
0.0
 12
31.903927
 22
-0.478171
 32
0.0
  1
4 3/16"
100
AcDbAlignedDimension
 13
207.00548
 23
164.035604
 33
0.0
 14
211.19308
 24
164.035604
 34
0.0
100
AcDbRotatedDimension
  0
LINE
  5
108E
100
AcDbEntity
  8
OBJECT
100
AcDbLine
 10
206.23678
 20
167.14582
 30
0.0
 11
211.96178
 21
167.14582
 31
0.0
  0
CIRCLE
  5
108F
100
AcDbEntity
  8
OBJECT
100
AcDbCircle
 10
198.792198
 20
164.903256
 30
0.0
 40
2.0938
  0
CIRCLE
  5
1090
100
AcDbEntity
  8
OBJECT
100
AcDbCircle
 10
198.792198
 20
164.903256
 30
0.0
 40
2.5375
  0
CIRCLE
  5
1091
100
AcDbEntity
  8
OBJECT
100
AcDbCircle
 10
198.792198
 20
164.903256
 30
0.0
 40
2.8625
  0
LINE
  5
1092
100
AcDbEntity
  8
CENTER
100
AcDbLine
 10
194.179698
 20
164.903256
 30
0.0
 11
203.404698
 21
164.903256
 31
0.0
  0
LINE
  5
1093
100
AcDbEntity
  8
HIDDEN
100
AcDbLine
 10
205.847454
 20
163.918121
 30
0.0
 11
205.987954
 21
164.101772
 31
0.0
  0
LINE
  5
1094
100
AcDbEntity
  8
HIDDEN
100
AcDbLine
 10
205.500895
 20
163.701808
 30
0.0
 11
205.360395
 21
163.885459
 31
0.0
  0
LINE
  5
1095
100
AcDbEntity
  8
OBJECT
100
AcDbLine
 10
207.00548
 20
164.018353
 30
0.0
 11
206.870696
 21
164.38456
 31
0.0
  0
LINE
  5
1096
100
AcDbEntity
  8
HIDDEN
100
AcDbLine
 10
205.500895
 20
163.701808
 30
0.0
 11
205.500895
 21
163.522338
 31
0.0
  0
LINE
  5
1097
100
AcDbEntity
  8
HIDDEN
100
AcDbLine
 10
205.847454
 20
163.918121
 30
0.0
 11
205.847454
 21
163.674207
 31
0.0
  0
LINE
  5
1098
100
AcDbEntity
  8
OBJECT
100
AcDbLine
 10
206.56178
 20
167.14582
 30
0.0
 11
206.56178
 21
164.293985
 31
0.0
  0
LINE
  5
1099
100
AcDbEntity
  8
OBJECT
100
AcDbLine
 10
206.23678
 20
167.14582
 30
0.0
 11
206.23678
 21
164.197652
 31
0.0
  0
LINE
  5
109A
100
AcDbEntity
  8
CENTER
100
AcDbLine
 10
194.179698
 20
164.903256
 30
0.0
 11
194.179698
 21
165.456881
 31
0.0
  0
SOLID
  5
109B
100
AcDbEntity
  8
DIM
100
AcDbTrace
 10
194.149698
 20
165.276881
 30
0.0
 11
194.209698
 21
165.276881
 31
0.0
 12
194.179698
 22
165.456881
 32
0.0
 13
194.179698
 23
165.456881
 33
0.0
  0
TEXT
  5
109C
100
AcDbEntity
  8
DIM
100
AcDbText
 10
194.075234
 20
165.549156
 30
0.0
 40
0.25
  1
F
  7
ROMANS
100
AcDbText
  0
TEXT
  5
109D
100
AcDbEntity
  8
DIM
100
AcDbText
 10
198.743188
 20
160.085219
 30
0.0
 40
0.25
  1
L
  7
ROMANS
100
AcDbText
  0
LINE
  5
109E
100
AcDbEntity
  8
CENTER
100
AcDbLine
 10
209.09928
 20
167.42559
 30
0.0
 11
209.09928
 21
163.858921
 31
0.0
  0
LINE
  5
109F
100
AcDbEntity
  8
OBJECT
100
AcDbLine
 10
211.19308
 20
164.018353
 30
0.0
 11
211.327864
 21
164.38456
 31
0.0
  0
LINE
  5
10A0
100
AcDbEntity
  8
OBJECT
100
AcDbLine
 10
211.96178
 20
167.14582
 30
0.0
 11
211.96178
 21
164.197652
 31
0.0
  0
LINE
  5
10A1
100
AcDbEntity
  8
OBJECT
100
AcDbLine
 10
211.63678
 20
167.14582
 30
0.0
 11
211.63678
 21
164.293985
 31
0.0
  0
CIRCLE
  5
10A2
100
AcDbEntity
  8
OBJECT
100
AcDbCircle
 10
198.792198
 20
161.491801
 30
0.0
 40
0.32
  0
LINE
  5
10A3
100
AcDbEntity
  8
CENTER
100
AcDbLine
 10
198.792198
 20
169.515756
 30
0.0
 11
198.792198
 21
160.290756
 31
0.0
  0
TEXT
  5
10A4
100
AcDbEntity
  8
DIM
100
AcDbText
 10
198.664519
 20
160.254262
 30
0.0
 40
0.25
  1
C
  7
ROMANS
100
AcDbText
  0
LINE
  5
10A5
100
AcDbEntity
  8
CENTER
100
AcDbLine
 10
203.404698
 20
164.903256
 30
0.0
 11
203.404698
 21
165.456881
 31
0.0
  0
CIRCLE
  5
10A6
100
AcDbEntity
  8
OBJECT
100
AcDbCircle
 10
198.792198
 20
161.491801
 30
0.0
 40
0.1795
  0
TEXT
  5
10A7
100
AcDbEntity
  8
DIM
100
AcDbText
 10
203.272805
 20
165.549156
 30
0.0
 40
0.25
  1
F
  7
ROMANS
100
AcDbText
  0
SOLID
  5
10A8
100
AcDbEntity
  8
DIM
100
AcDbTrace
 10
203.374698
 20
165.276881
 30
0.0
 11
203.434698
 21
165.276881
 31
0.0
 12
203.404698
 22
165.456881
 32
0.0
 13
203.404698
 23
165.456881
 33
0.0
  0
ARC
  5
10A9
100
AcDbEntity
  8
OBJECT
100
AcDbCircle
 10
209.09928
 20
155.13682
 30
0.0
 40
9.125
100
AcDbArc
 50
63.212363
 51
103.265137
  0
ARC
  5
10AA
100
AcDbEntity
  8
OBJECT
100
AcDbCircle
 10
209.09928
 20
155.13682
 30
0.0
 40
9.502241
100
AcDbArc
 50
64.35508
 51
72.46762
  0
CIRCLE
  5
10AB
100
AcDbEntity
  8
OBJECT
100
AcDbCircle
 10
202.203653
 20
164.903256
 30
0.0
 40
0.32
  0
CIRCLE
  5
10AC
100
AcDbEntity
  8
OBJECT
100
AcDbCircle
 10
202.203653
 20
164.903256
 30
0.0
 40
0.1795
  0
CIRCLE
  5
10AD
100
AcDbEntity
  8
OBJECT
100
AcDbCircle
 10
198.792198
 20
168.314711
 30
0.0
 40
0.32
  0
CIRCLE
  5
10AE
100
AcDbEntity
  8
OBJECT
100
AcDbCircle
 10
198.792198
 20
168.314711
 30
0.0
 40
0.1795
  0
CIRCLE
  5
10AF
100
AcDbEntity
  8
OBJECT
100
AcDbCircle
 10
195.380743
 20
164.903256
 30
0.0
 40
0.32
  0
CIRCLE
  5
10B0
100
AcDbEntity
  8
OBJECT
100
AcDbCircle
 10
195.380743
 20
164.903256
 30
0.0
 40
0.1795
  0
CIRCLE
  5
10B1
100
AcDbEntity
  8
OBJECT
100
AcDbCircle
 10
198.792198
 20
164.903256
 30
0.0
 40
4.1125
  0
LINE
  5
10B2
100
AcDbEntity
  8
OBJECT
100
AcDbLine
 10
204.98678
 20
163.703029
 30
0.0
 11
204.98678
 21
163.282554
 31
0.0
  0
LINE
  5
10B3
100
AcDbEntity
  8
OBJECT
100
AcDbLine
 10
213.21178
 20
163.703029
 30
0.0
 11
213.21178
 21
163.282554
 31
0.0
  0
LINE
  5
10B4
100
AcDbEntity
  8
HIDDEN
100
AcDbLine
 10
212.697666
 20
163.701808
 30
0.0
 11
212.838166
 21
163.885459
 31
0.0
  0
LINE
  5
10B5
100
AcDbEntity
  8
HIDDEN
100
AcDbLine
 10
212.697666
 20
163.701808
 30
0.0
 11
212.697666
 21
163.522338
 31
0.0
  0
LINE
  5
10B6
100
AcDbEntity
  8
HIDDEN
100
AcDbLine
 10
212.351106
 20
163.918121
 30
0.0
 11
212.351106
 21
163.674207
 31
0.0
  0
LINE
  5
10B7
100
AcDbEntity
  8
HIDDEN
100
AcDbLine
 10
212.351106
 20
163.918121
 30
0.0
 11
212.210606
 21
164.101772
 31
0.0
  0
ARC
  5
10B8
100
AcDbEntity
  8
OBJECT
100
AcDbCircle
 10
209.09928
 20
155.13682
 30
0.0
 40
9.502241
100
AcDbArc
 50
107.53238
 51
115.64492
  0
ARC
  5
10B9
100
AcDbEntity
  8
OBJECT
100
AcDbCircle
 10
209.09928
 20
155.13682
 30
0.0
 40
9.502241
100
AcDbArc
 50
74.511659
 51
103.541982
  0
ARC
  5
10BA
100
AcDbEntity
  8
OBJECT
100
AcDbCircle
 10
209.09928
 20
155.13682
 30
0.0
 40
9.502241
100
AcDbArc
 50
103.541982
 51
105.488341
  0
ARC
  5
10BB
100
AcDbEntity
  8
OBJECT
100
AcDbCircle
 10
209.09928
 20
155.13682
 30
0.0
 40
9.125
100
AcDbArc
 50
103.265137
 51
116.787637
  0
INSERT
  5
10BC
100
AcDbEntity
  8
HATCH
100
AcDbBlockReference
  2
*X12
 10
27.26574
 20
-10.478963
 30
0.0
1001
ACAD
1000
HATCH
1002
{
1070
    16
1000
ANSI32
1040
0.75
1040
0.0
1002
}
  0
INSERT
  5
10BD
100
AcDbEntity
  8
HATCH
100
AcDbBlockReference
  2
*X12
 10
390.932821
 20
-10.478963
 30
0.0
 41
-1.0
1001
ACAD
1000
HATCH
1002
{
1070
    16
1000
ANSI32
1040
0.75
1040
0.0
1002
}
  0
LWPOLYLINE
  5
10BE
100
AcDbEntity
  8
DIM
100
AcDbPolyline
 90
        4
 70
     0
 43
0.0
 10
211.868029
 20
160.389207
 10
206.317144
 20
160.389207
 10
206.317144
 20
160.849566
 10
211.868029
 20
160.849566
  0
LINE
  5
10C4
100
AcDbEntity
  8
DIM
100
AcDbLine
 10
211.868029
 20
160.849566
 30
0.0
 11
211.868029
 21
160.389207
 31
0.0
  0
DIMENSION
  5
10C5
100
AcDbEntity
  8
DIM
100
AcDbDimension
  2
*D16
 10
200.82243
 20
174.847282
 30
0.0
 11
198.28493
 21
174.847282
 31
0.0
 12
42.211009
 22
1.666533
 32
0.0
100
AcDbAlignedDimension
 13
195.74743
 23
177.549992
 33
0.0
 14
200.82243
 24
177.549992
 34
0.0
100
AcDbRotatedDimension
  0
DIMENSION
  5
10C6
100
AcDbEntity
  8
DIM
100
AcDbDimension
  2
*D17
 10
211.63678
 20
162.295931
 30
0.0
 11
209.09928
 21
162.295931
 31
0.0
 12
42.211009
 22
1.666533
 32
0.0
100
AcDbAlignedDimension
 13
206.56178
 23
164.293985
 33
0.0
 14
211.63678
 24
164.293985
 34
0.0
100
AcDbRotatedDimension
  0
LINE
  5
1628
100
AcDbEntity
  8
LIMITS
100
AcDbLine
 10
215.532676
 20
147.039749
 30
0.0
 11
215.532676
 21
193.251686
 31
0.0
  0
LINE
  5
1629
100
AcDbEntity
  8
LIMITS
100
AcDbLine
 10
215.532676
 20
193.251686
 30
0.0
 11
215.532676
 21
147.039749
 31
0.0
  0
LINE
  5
162A
100
AcDbEntity
  8
LIMITS
 62
     7
100
AcDbLine
 10
215.532676
 20
147.039749
 30
0.0
 11
215.532676
 21
194.212441
 31
0.0
  0
LWPOLYLINE
  5
162B
100
AcDbEntity
  8
BORDER
 62
     5
100
AcDbPolyline
 90
        2
 70
     0
 43
0.096275
 10
214.762477
 20
152.518534
 10
214.762477
 20
193.057142
  0
LINE
  5
162C
100
AcDbEntity
  8
LIMITS
 62
     7
100
AcDbLine
 10
179.08105
 20
194.212441
 30
0.0
 11
179.08105
 21
147.039749
 31
0.0
  0
LWPOLYLINE
  5
162D
100
AcDbEntity
  8
BORDER
 62
     5
100
AcDbPolyline
 90
        2
 70
     0
 43
0.096275
 10
179.851249
 20
152.518534
 10
179.851249
 20
193.057142
  0
LWPOLYLINE
  5
162E
100
AcDbEntity
  8
BORDER
 62
     5
100
AcDbPolyline
 90
        6
 70
     0
 43
0.171537
 10
179.851249
 20
152.518534
 10
179.851249
 20
193.057142
 42
-0.414214
 10
180.236349
 20
193.442242
 10
214.377377
 20
193.442242
 42
-0.414214
 10
214.762477
 20
193.057142
 10
214.762477
 20
152.518534
  0
TEXT
  5
162F
100
AcDbEntity
  8
BORDER
 62
     6
100
AcDbText
 10
189.239984
 20
149.259091
 30
0.0
 40
0.183584
  1
Highway 25 North P.O. Box 420
  7
ROMANC
100
AcDbText
  0
LINE
  5
1630
100
AcDbEntity
  8
BORDER
100
AcDbLine
 10
188.034613
 20
148.483872
 30
0.0
 11
199.390032
 21
148.483872
 31
0.0
  0
LINE
  5
1631
100
AcDbEntity
  8
BORDER
100
AcDbLine
 10
188.515987
 20
151.853492
 30
0.0
 11
199.390032
 21
151.853492
 31
0.0
  0
LINE
  5
1632
100
AcDbEntity
  8
BORDER
100
AcDbLine
 10
188.034613
 20
149.927995
 30
0.0
 11
199.390032
 21
149.927995
 31
0.0
  0
LINE
  5
1633
100
AcDbEntity
  8
BORDER
100
AcDbLine
 10
188.034613
 20
149.582198
 30
0.0
 11
199.390032
 21
149.582198
 31
0.0
  0
LINE
  5
1634
100
AcDbEntity
  8
BORDER
100
AcDbLine
 10
188.034613
 20
150.741812
 30
0.0
 11
195.371925
 21
150.741812
 31
0.0
  0
TEXT
  5
1635
100
AcDbEntity
  8
BORDER
 62
     6
100
AcDbText
 10
188.373029
 20
148.563837
 30
0.0
 40
0.183584
  1
Phone: 800/354-4534  Fax: 574/223-6106
  7
ROMANC
100
AcDbText
  0
LINE
  5
1636
100
AcDbEntity
  8
LIMITS
 62
     7
100
AcDbLine
 10
179.08105
 20
147.039749
 30
0.0
 11
215.532676
 21
147.039749
 31
0.0
  0
LWPOLYLINE
  5
1637
100
AcDbEntity
  8
BORDER
 62
     5
100
AcDbPolyline
 90
        2
 70
     0
 43
0.240687
 10
213.799728
 20
148.002497
 10
180.813998
 20
148.002497
  0
LWPOLYLINE
  5
1638
100
AcDbEntity
  8
BORDER
 62
     5
100
AcDbPolyline
 90
        2
 70
     0
 43
0.240687
 10
188.515987
 20
152.334866
 10
206.097738
 20
152.334866
  0
HATCH
  5
1639
100
AcDbEntity
  8
BORDER
100
AcDbHatch
 10
0.0
 20
0.0
 30
0.0
210
0.0
220
0.0
230
1.0
  2
ANSI37
 70
     0
 71
     1
 91
        1
 92
        7
 72
     1
 73
     1
 93
       18
 10
182.0652385118095
 20
149.8688377273665
 42
-0.4142135623730739
 10
181.8195554219709
 20
149.6231546375279
 42
0.0
 10
181.7404340995477
 20
149.6231546375279
 42
0.0
 10
181.7404340995477
 20
149.5719083252101
 42
0.0
 10
182.8146486203478
 20
149.5719083252101
 42
0.0
 10
182.8146486203478
 20
149.6231546375279
 42
0.0
 10
182.7355272979245
 20
149.6231546375279
 42
-0.4142135623730533
 10
182.4898442080859
 20
149.8688377273666
 42
0.0
 10
182.4898442080859
 20
151.2209841573104
 42
0.0
 10
182.7060904215788
 20
151.2209841573104
 42
-0.4138200196737635
 10
183.196435879894
 20
150.7312971954946
 42
0.0
 10
183.2477211700303
 20
150.7312971954946
 42
0.0
 10
183.2477211700304
 20
151.346252943308
 42
0.0
 10
181.3073615498651
 20
151.346252943308
 42
0.0
 10
181.3073615498651
 20
150.7312971954946
 42
0.0
 10
181.3586468400015
 20
150.7312971954946
 42
-0.4138200196737638
 10
181.8489922983166
 20
151.2209841573104
 42
0.0
 10
182.0652385118095
 20
151.2209841573104
 42
0.0
 97
       18
330
167B
330
1679
330
1687
330
167E
330
1641
330
164C
330
164D
330
163A
330
167A
330
165B
330
1665
330
1667
330
1668
330
1664
330
1669
330
166D
330
166E
330
165A
 75
     0
 76
     1
 52
0.0
 41
0.007458
 77
     0
 78
     2
 53
45.0
 43
179.560597
 44
122.646295
 45
-0.0006592159406502
 46
0.0006592159406502
 79
     0
 53
135.0
 43
179.560597
 44
122.646295
 45
-0.0006592159406502
 46
-0.0006592159406502
 79
     0
 47
0.049862
 98
        1
 10
182.225433
 20
150.51868
  0
ARC
  5
163A
102
{ACAD_REACTORS
330
1639
102
}
100
AcDbEntity
  8
BORDER
100
AcDbCircle
 10
181.848992
 20
150.730638
 30
0.0
 40
0.490346
100
AcDbArc
 50
90.0
 51
179.923004
  0
LINE
  5
163B
100
AcDbEntity
  8
BORDER
100
AcDbLine
 10
181.744704
 20
148.981824
 30
0.0
 11
181.441349
 21
149.377745
 31
0.0
  0
LINE
  5
163C
100
AcDbEntity
  8
BORDER
100
AcDbLine
 10
180.813998
 20
148.483872
 30
0.0
 11
186.59049
 21
148.483872
 31
0.0
  0
LINE
  5
163D
100
AcDbEntity
  8
BORDER
100
AcDbLine
 10
180.813998
 20
151.853492
 30
0.0
 11
186.109116
 21
151.853492
 31
0.0
  0
LWPOLYLINE
  5
163E
100
AcDbEntity
  8
BORDER
 62
     5
100
AcDbPolyline
 90
        2
 70
     0
 43
0.240687
 10
180.813998
 20
152.334866
 10
186.109116
 20
152.334866
  0
LINE
  5
163F
100
AcDbEntity
  8
BORDER
100
AcDbLine
 10
181.0557
 20
149.505114
 30
0.0
 11
185.894402
 21
149.505114
 31
0.0
  0
LINE
  5
1640
100
AcDbEntity
  8
BORDER
100
AcDbLine
 10
181.0557
 20
149.505114
 30
0.0
 11
185.894402
 21
149.505114
 31
0.0
  0
LINE
  5
1641
102
{ACAD_REACTORS
330
1639
102
}
100
AcDbEntity
  8
BORDER
100
AcDbLine
 10
181.307362
 20
151.346253
 30
0.0
 11
183.247721
 21
151.346253
 31
0.0
  0
LWPOLYLINE
  5
1642
100
AcDbEntity
  8
BORDER
 62
     5
100
AcDbPolyline
 90
        2
 70
     0
 43
0.240687
 10
180.813998
 20
148.002497
 42
-0.414214
 10
179.851249
 20
148.965246
 42
0.560527
  0
LWPOLYLINE
  5
1643
100
AcDbEntity
  8
BORDER
 62
     5
100
AcDbPolyline
 90
        2
 70
     0
 43
0.240687
 10
180.813998
 20
152.334866
 42
0.414214
 10
179.851249
 20
151.372118
 42
-0.560527
  0
ARC
  5
1644
100
AcDbEntity
  8
BORDER
100
AcDbCircle
 10
180.813998
 20
151.372118
 30
0.0
 40
0.481374
100
AcDbArc
 50
90.0
 51
180.0
  0
LWPOLYLINE
  5
1645
100
AcDbEntity
  8
BORDER
 62
     5
100
AcDbPolyline
 90
        2
 70
     0
 43
0.240687
 10
179.851249
 20
151.372118
 10
179.851249
 20
148.965246
  0
LINE
  5
1646
100
AcDbEntity
  8
BORDER
100
AcDbLine
 10
180.332623
 20
148.965246
 30
0.0
 11
180.332623
 21
151.372118
 31
0.0
  0
LINE
  5
1647
100
AcDbEntity
  8
BORDER
100
AcDbLine
 10
181.441349
 20
149.377745
 30
0.0
 11
181.441349
 21
148.981824
 31
0.0
  0
LINE
  5
1648
100
AcDbEntity
  8
BORDER
100
AcDbLine
 10
181.268003
 20
149.377745
 30
0.0
 11
181.268003
 21
148.981824
 31
0.0
  0
ARC
  5
1649
100
AcDbEntity
  8
BORDER
100
AcDbCircle
 10
180.813998
 20
148.965246
 30
0.0
 40
0.481374
100
AcDbArc
 50
180.0
 51
270.0
  0
LINE
  5
164A
100
AcDbEntity
  8
BORDER
100
AcDbLine
 10
181.186933
 20
148.981824
 30
0.0
 11
181.349074
 21
148.981824
 31
0.0
  0
LINE
  5
164B
100
AcDbEntity
  8
BORDER
100
AcDbLine
 10
181.186933
 20
149.377745
 30
0.0
 11
181.349074
 21
149.377745
 31
0.0
  0
LINE
  5
164C
102
{ACAD_REACTORS
330
1639
102
}
100
AcDbEntity
  8
BORDER
100
AcDbLine
 10
181.307362
 20
150.731297
 30
0.0
 11
181.307362
 21
151.346253
 31
0.0
  0
LINE
  5
164D
102
{ACAD_REACTORS
330
1639
102
}
100
AcDbEntity
  8
BORDER
100
AcDbLine
 10
181.307362
 20
150.731297
 30
0.0
 11
181.358646
 21
150.731297
 31
0.0
  0
LWPOLYLINE
  5
164E
100
AcDbEntity
  8
BORDER
 62
     5
100
AcDbPolyline
 90
        2
 70
     0
 43
0.240687
 10
188.515987
 20
152.334866
 42
0.414214
 10
187.553239
 20
151.372118
 42
-0.560527
  0
LWPOLYLINE
  5
164F
100
AcDbEntity
  8
BORDER
 62
     5
100
AcDbPolyline
 90
        2
 70
     0
 43
0.240687
 10
186.109116
 20
152.334866
 42
-0.414214
 10
187.071864
 20
151.372118
 42
0.560527
  0
ARC
  5
1650
100
AcDbEntity
  8
BORDER
100
AcDbCircle
 10
186.109116
 20
151.372118
 30
0.0
 40
0.481374
100
AcDbArc
 50
0.0
 51
90.0
  0
HATCH
  5
1651
100
AcDbEntity
  8
BORDER
100
AcDbHatch
 10
0.0
 20
0.0
 30
0.0
210
0.0
220
0.0
230
1.0
  2
ANSI37
 70
     0
 71
     1
 91
        2
 92
        7
 72
     1
 73
     1
 93
       16
 10
184.3245375317272
 20
149.7121217450927
 42
-0.4142135623730978
 10
184.2231218376659
 20
149.6107060510314
 42
0.0
 10
184.1761896982901
 20
149.6107060510314
 42
0.0
 10
184.1761896982901
 20
149.5839748900883
 42
0.0
 10
184.6163692287517
 20
149.5839748900883
 42
0.0
 10
184.6163692287517
 20
149.6107060510314
 42
0.0
 10
184.5694370893759
 20
149.6107060510314
 42
-0.4142135623730983
 10
184.4680213953147
 20
149.7121217450927
 42
0.0
 10
184.4680213953147
 20
150.0675648315329
 42
0.0609117558023448
 10
184.6455523984541
 20
150.0456939923907
 42
0.4291497434371003
 10
184.9592714727553
 20
150.3275856537808
 42
0.391631177139306
 10
184.652144402834
 20
150.6151727256737
 42
0.0
 10
184.1769522505726
 20
150.6151727256737
 42
0.0
 10
184.1769522505726
 20
150.5868670957178
 42
0.0
 10
184.2231218376659
 20
150.5868670957178
 42
-0.4142135623730951
 10
184.3245375317272
 20
150.4854514016566
 42
0.0
 97
        1
330
1655
 92
       22
 72
     1
 73
     1
 93
        3
 10
184.4680213953147
 20
150.5390043204074
 42
-0.5287425889467225
 10
184.7866042771167
 20
150.3154351537594
 42
-0.5439228899217321
 10
184.4680213953147
 20
150.1064464924972
 42
0.0
 97
        1
330
1653
 75
     0
 76
     1
 52
0.0
 41
0.007458
 77
     0
 78
     2
 53
45.0
 43
179.560597
 44
122.646295
 45
-0.0006592159406502
 46
0.0006592159406502
 79
     0
 53
135.0
 43
179.560597
 44
122.646295
 45
-0.0006592159406502
 46
-0.0006592159406502
 79
     0
 47
0.027301
 98
        2
 10
184.382125
 20
150.352638
 10
184.382125
 20
150.352638
  0
LINE
  5
1652
100
AcDbEntity
  8
BORDER
100
AcDbLine
 10
184.650749
 20
151.157719
 30
0.0
 11
184.888214
 21
151.157719
 31
0.0
  0
LWPOLYLINE
  5
1653
102
{ACAD_REACTORS
330
1651
102
}
100
AcDbEntity
  8
BORDER
100
AcDbPolyline
 90
        3
 70
     1
 43
0.0
 10
184.468021
 20
150.106446
 42
0.543923
 10
184.786604
 20
150.315435
 42
0.528743
 10
184.468021
 20
150.539004
  0
LINE
  5
1654
100
AcDbEntity
  8
BORDER
100
AcDbLine
 10
184.684903
 20
149.377745
 30
0.0
 11
185.020388
 21
149.377745
 31
0.0
  0
LWPOLYLINE
  5
1655
102
{ACAD_REACTORS
330
1651
102
}
100
AcDbEntity
  8
BORDER
100
AcDbPolyline
 90
       17
 70
     0
 43
0.0
 10
184.645552
 20
150.045694
 42
-0.060912
 10
184.468021
 20
150.067565
 10
184.468021
 20
149.712122
 42
0.414214
 10
184.569437
 20
149.610706
 10
184.616369
 20
149.610706
 10
184.616369
 20
149.583975
 10
184.17619
 20
149.583975
 10
184.17619
 20
149.610706
 10
184.223122
 20
149.610706
 42
0.414214
 10
184.324538
 20
149.712122
 10
184.324538
 20
150.485451
 42
0.414214
 10
184.223122
 20
150.586867
 10
184.176952
 20
150.586867
 10
184.176952
 20
150.615173
 10
184.64842
 20
150.615173
 42
-0.395102
 10
184.959271
 20
150.327586
 42
-0.42915
 10
184.645552
 20
150.045694
  0
LINE
  5
1656
100
AcDbEntity
  8
BORDER
100
AcDbLine
 10
183.313666
 20
150.735575
 30
0.0
 11
185.780553
 21
150.735575
 31
0.0
  0
HATCH
  5
1657
100
AcDbEntity
  8
BORDER
100
AcDbHatch
 10
0.0
 20
0.0
 30
0.0
210
0.0
220
0.0
230
1.0
  2
ANSI37
 70
     0
 71
     1
 91
        2
 92
        5
 93
        1
 72
     3
 10
183.587552
 20
150.097136
 11
0.0
 21
0.537692
 40
0.93822
 50
0.0
 51
360.0
 73
     1
 97
        1
330
1658
 92
       20
 93
        1
 72
     3
 10
183.587552
 20
150.1002
 11
0.0
 21
0.482544
 40
0.683214
 50
0.0
 51
360.0
 73
     1
 97
        1
330
1659
 75
     0
 76
     1
 52
0.0
 41
0.007458
 77
     0
 78
     2
 53
45.0
 43
179.560597
 44
122.646295
 45
-0.0006592159406502
 46
0.0006592159406502
 79
     0
 53
135.0
 43
179.560597
 44
122.646295
 45
-0.0006592159406502
 46
-0.0006592159406502
 79
     0
 47
0.027301
 98
        2
 10
183.224723
 20
150.315986
 10
183.224723
 20
150.315986
  0
ELLIPSE
  5
1658
102
{ACAD_REACTORS
330
1657
102
}
100
AcDbEntity
  8
BORDER
100
AcDbEllipse
 10
183.587552
 20
150.097136
 30
0.0
 11
0.0000000000000036
 21
0.5376919770021928
 31
0.0
210
0.0
220
0.0
230
1.0
 40
0.93822
 41
0.0
 42
6.283185307179586
  0
ELLIPSE
  5
1659
102
{ACAD_REACTORS
330
1657
102
}
100
AcDbEntity
  8
BORDER
100
AcDbEllipse
 10
183.587552
 20
150.1002
 30
0.0
 11
0.0000000000000036
 21
0.4825441014430346
 31
0.0
210
0.0
220
0.0
230
1.0
 40
0.683214
 41
0.0
 42
6.283185307179586
  0
LINE
  5
165A
102
{ACAD_REACTORS
330
1639
102
}
100
AcDbEntity
  8
BORDER
100
AcDbLine
 10
182.489844
 20
149.868838
 30
0.0
 11
182.489844
 21
151.220984
 31
0.0
  0
LINE
  5
165B
102
{ACAD_REACTORS
330
1639
102
}
100
AcDbEntity
  8
BORDER
100
AcDbLine
 10
182.065239
 20
149.868838
 30
0.0
 11
182.065239
 21
151.220984
 31
0.0
  0
LINE
  5
165C
100
AcDbEntity
  8
BORDER
100
AcDbLine
 10
183.145965
 20
149.174738
 30
0.0
 11
183.248724
 21
149.174738
 31
0.0
  0
LINE
  5
165D
100
AcDbEntity
  8
BORDER
100
AcDbLine
 10
183.248724
 20
149.377745
 30
0.0
 11
183.145965
 21
149.377745
 31
0.0
  0
LINE
  5
165E
100
AcDbEntity
  8
BORDER
100
AcDbLine
 10
183.145965
 20
149.377745
 30
0.0
 11
183.145965
 21
148.981824
 31
0.0
  0
LINE
  5
165F
100
AcDbEntity
  8
BORDER
100
AcDbLine
 10
182.836092
 20
149.174738
 30
0.0
 11
182.993273
 21
148.981824
 31
0.0
  0
LINE
  5
1660
100
AcDbEntity
  8
BORDER
100
AcDbLine
 10
182.727725
 20
149.377745
 30
0.0
 11
182.727725
 21
148.981824
 31
0.0
  0
LINE
  5
1661
100
AcDbEntity
  8
BORDER
100
AcDbLine
 10
181.744704
 20
149.377745
 30
0.0
 11
181.744704
 21
148.981824
 31
0.0
  0
ARC
  5
1662
100
AcDbEntity
  8
BORDER
100
AcDbCircle
 10
182.018367
 20
149.163133
 30
0.0
 40
0.181565
100
AcDbArc
 50
174.737783
 51
327.723969
  0
SPLINE
  5
1663
100
AcDbEntity
  8
BORDER
100
AcDbSpline
210
0.0
220
0.0
230
1.0
 70
    11
 71
     3
 72
    24
 73
    20
 74
     0
 42
0.0000001
 43
0.0000001
 40
0.0
 40
0.0
 40
0.0
 40
0.0
 40
0.474866629778075
 40
0.474866629778075
 40
1.277791044886493
 40
1.277791044886493
 40
2.080715459994911
 40
2.080715459994911
 40
2.883639875103329
 40
2.883639875103329
 40
3.686564290211747
 40
3.686564290211747
 40
4.489488705320165
 40
4.489488705320165
 40
5.292413120428583
 40
5.292413120428583
 40
6.095337535537001
 40
6.095337535537001
 40
6.283185307179586
 40
6.283185307179586
 40
6.283185307179586
 40
6.283185307179586
 10
182.4315047322145
 20
149.3831149327031
 30
0.0
 10
182.3994161342125
 20
149.3831149327031
 30
0.0
 10
182.3673545659956
 20
149.3753313043734
 30
0.0
 10
182.2905670685391
 20
149.3357294667198
 30
0.0
 10
182.2531052941354
 20
149.2906052411116
 30
0.0
 10
182.2217704803113
 20
149.1864113046678
 30
0.0
 10
182.2281057585739
 20
149.1280396763283
 30
0.0
 10
182.281061770171
 20
149.0330488699307
 30
0.0
 10
182.3273296144048
 20
148.9970676273214
 30
0.0
 10
182.4322511321977
 20
148.9692983827555
 30
0.0
 10
182.4901979838005
 20
148.9776989242927
 30
0.0
 10
182.5829861330529
 20
149.0341261095796
 30
0.0
 10
182.6172043589637
 20
149.0817708728743
 30
0.0
 10
182.6411865209643
 20
149.1879098428288
 30
0.0
 10
182.6307911041151
 20
149.2456933101633
 30
0.0
 10
182.5713313916536
 20
149.3367310023978
 30
0.0
 10
182.5226637019047
 20
149.3693732539753
 30
0.0
 10
182.4568916871877
 20
149.3819154111813
 30
0.0
 10
182.4441983418553
 20
149.3831149327031
 30
0.0
 10
182.4315047322145
 20
149.3831149327031
 30
0.0
  0
LINE
  5
1664
102
{ACAD_REACTORS
330
1639
102
}
100
AcDbEntity
  8
BORDER
100
AcDbLine
 10
181.740434
 20
149.571908
 30
0.0
 11
182.814649
 21
149.571908
 31
0.0
  0
ARC
  5
1665
102
{ACAD_REACTORS
330
1639
102
}
100
AcDbEntity
  8
BORDER
100
AcDbCircle
 10
181.819555
 20
149.868838
 30
0.0
 40
0.245683
100
AcDbArc
 50
270.0
 51
0.0
  0
ARC
  5
1666
100
AcDbEntity
  8
BORDER
100
AcDbCircle
 10
182.032441
 20
149.182897
 30
0.0
 40
0.194898
100
AcDbArc
 50
44.321228
 51
180.91508
  0
LINE
  5
1667
102
{ACAD_REACTORS
330
1639
102
}
100
AcDbEntity
  8
BORDER
100
AcDbLine
 10
181.740434
 20
149.623155
 30
0.0
 11
181.819555
 21
149.623155
 31
0.0
  0
LINE
  5
1668
102
{ACAD_REACTORS
330
1639
102
}
100
AcDbEntity
  8
BORDER
100
AcDbLine
 10
181.740434
 20
149.623155
 30
0.0
 11
181.740434
 21
149.571908
 31
0.0
  0
LINE
  5
1669
102
{ACAD_REACTORS
330
1639
102
}
100
AcDbEntity
  8
BORDER
100
AcDbLine
 10
182.814649
 20
149.623155
 30
0.0
 11
182.814649
 21
149.571908
 31
0.0
  0
ARC
  5
166A
100
AcDbEntity
  8
BORDER
100
AcDbCircle
 10
182.864596
 20
149.276241
 30
0.0
 40
0.101504
100
AcDbArc
 50
270.0
 51
90.0
  0
LINE
  5
166B
100
AcDbEntity
  8
BORDER
100
AcDbLine
 10
182.727725
 20
149.174738
 30
0.0
 11
182.864596
 21
149.174738
 31
0.0
  0
LINE
  5
166C
100
AcDbEntity
  8
BORDER
100
AcDbLine
 10
182.864596
 20
149.377745
 30
0.0
 11
182.727725
 21
149.377745
 31
0.0
  0
LINE
  5
166D
102
{ACAD_REACTORS
330
1639
102
}
100
AcDbEntity
  8
BORDER
100
AcDbLine
 10
182.814649
 20
149.623155
 30
0.0
 11
182.735527
 21
149.623155
 31
0.0
  0
ARC
  5
166E
102
{ACAD_REACTORS
330
1639
102
}
100
AcDbEntity
  8
BORDER
100
AcDbCircle
 10
182.735527
 20
149.868838
 30
0.0
 40
0.245683
100
AcDbArc
 50
180.0
 51
270.0
  0
LINE
  5
166F
100
AcDbEntity
  8
BORDER
100
AcDbLine
 10
184.604385
 20
148.981824
 30
0.0
 11
184.447364
 21
149.377745
 31
0.0
  0
LINE
  5
1670
100
AcDbEntity
  8
BORDER
100
AcDbLine
 10
184.029874
 20
149.174738
 30
0.0
 11
184.187055
 21
148.981824
 31
0.0
  0
LINE
  5
1671
100
AcDbEntity
  8
BORDER
100
AcDbLine
 10
184.447364
 20
149.377745
 30
0.0
 11
184.29572
 21
148.981824
 31
0.0
  0
LINE
  5
1672
100
AcDbEntity
  8
BORDER
100
AcDbLine
 10
183.921507
 20
149.377745
 30
0.0
 11
183.921507
 21
148.981824
 31
0.0
  0
SPLINE
  5
1673
100
AcDbEntity
  8
BORDER
100
AcDbSpline
210
0.0
220
0.0
230
1.0
 70
    11
 71
     3
 72
    24
 73
    20
 74
     0
 42
0.0000001
 43
0.0000001
 40
0.0
 40
0.0
 40
0.0
 40
0.0
 40
0.474866629778075
 40
0.474866629778075
 40
1.277791044886493
 40
1.277791044886493
 40
2.080715459994911
 40
2.080715459994911
 40
2.883639875103329
 40
2.883639875103329
 40
3.686564290211747
 40
3.686564290211747
 40
4.489488705320165
 40
4.489488705320165
 40
5.292413120428583
 40
5.292413120428583
 40
6.095337535537001
 40
6.095337535537001
 40
6.283185307179586
 40
6.283185307179586
 40
6.283185307179586
 40
6.283185307179586
 10
183.6095473295296
 20
149.3831149327031
 30
0.0
 10
183.5774587315275
 20
149.3831149327031
 30
0.0
 10
183.5453971633106
 20
149.3753313043734
 30
0.0
 10
183.4686096658541
 20
149.3357294667198
 30
0.0
 10
183.4311478914504
 20
149.2906052411116
 30
0.0
 10
183.3998130776264
 20
149.1864113046678
 30
0.0
 10
183.4061483558889
 20
149.1280396763283
 30
0.0
 10
183.459104367486
 20
149.0330488699307
 30
0.0
 10
183.5053722117198
 20
148.9970676273214
 30
0.0
 10
183.6102937295127
 20
148.9692983827555
 30
0.0
 10
183.6682405811155
 20
148.9776989242927
 30
0.0
 10
183.7610287303678
 20
149.0341261095796
 30
0.0
 10
183.7952469562786
 20
149.0817708728743
 30
0.0
 10
183.8192291182794
 20
149.1879098428288
 30
0.0
 10
183.8088337014302
 20
149.2456933101633
 30
0.0
 10
183.7493739889687
 20
149.3367310023978
 30
0.0
 10
183.7007062992197
 20
149.3693732539753
 30
0.0
 10
183.6349342845027
 20
149.3819154111813
 30
0.0
 10
183.6222409391703
 20
149.3831149327031
 30
0.0
 10
183.6095473295296
 20
149.3831149327031
 30
0.0
  0
LINE
  5
1674
100
AcDbEntity
  8
BORDER
100
AcDbLine
 10
184.058378
 20
149.377745
 30
0.0
 11
183.921507
 21
149.377745
 31
0.0
  0
LINE
  5
1675
100
AcDbEntity
  8
BORDER
100
AcDbLine
 10
183.921507
 20
149.174738
 30
0.0
 11
184.058378
 21
149.174738
 31
0.0
  0
ARC
  5
1676
100
AcDbEntity
  8
BORDER
100
AcDbCircle
 10
183.248724
 20
149.276241
 30
0.0
 40
0.101504
100
AcDbArc
 50
270.0
 51
90.0
  0
LINE
  5
1677
100
AcDbEntity
  8
BORDER
100
AcDbLine
 10
184.351013
 20
149.126187
 30
0.0
 11
184.547131
 21
149.126187
 31
0.0
  0
ARC
  5
1678
100
AcDbEntity
  8
BORDER
100
AcDbCircle
 10
184.058378
 20
149.276241
 30
0.0
 40
0.101504
100
AcDbArc
 50
270.0
 51
90.0
  0
ARC
  5
1679
102
{ACAD_REACTORS
330
1639
102
}
100
AcDbEntity
  8
BORDER
100
AcDbCircle
 10
182.70609
 20
150.730638
 30
0.0
 40
0.490346
100
AcDbArc
 50
0.076996
 51
90.0
  0
LINE
  5
167A
102
{ACAD_REACTORS
330
1639
102
}
100
AcDbEntity
  8
BORDER
100
AcDbLine
 10
181.848992
 20
151.220984
 30
0.0
 11
182.065239
 21
151.220984
 31
0.0
  0
LINE
  5
167B
102
{ACAD_REACTORS
330
1639
102
}
100
AcDbEntity
  8
BORDER
100
AcDbLine
 10
182.70609
 20
151.220984
 30
0.0
 11
182.489844
 21
151.220984
 31
0.0
  0
ARC
  5
167C
100
AcDbEntity
  8
BORDER
100
AcDbCircle
 10
184.517124
 20
150.960359
 30
0.0
 40
0.091503
100
AcDbArc
 50
200.502447
 51
334.026213
  0
ARC
  5
167D
100
AcDbEntity
  8
BORDER
100
AcDbCircle
 10
184.239809
 20
150.965781
 30
0.0
 40
0.097068
100
AcDbArc
 50
180.0
 51
0.0
  0
LINE
  5
167E
102
{ACAD_REACTORS
330
1639
102
}
100
AcDbEntity
  8
BORDER
100
AcDbLine
 10
183.247721
 20
150.731297
 30
0.0
 11
183.247721
 21
151.346253
 31
0.0
  0
LINE
  5
167F
100
AcDbEntity
  8
BORDER
100
AcDbLine
 10
183.833706
 20
151.157719
 30
0.0
 11
183.833706
 21
150.868712
 31
0.0
  0
LINE
  5
1680
100
AcDbEntity
  8
BORDER
100
AcDbLine
 10
183.710885
 20
151.157719
 30
0.0
 11
183.710885
 21
150.868712
 31
0.0
  0
LINE
  5
1681
100
AcDbEntity
  8
BORDER
100
AcDbLine
 10
183.512786
 20
151.163761
 30
0.0
 11
183.512786
 21
150.868712
 31
0.0
  0
LINE
  5
1682
100
AcDbEntity
  8
BORDER
100
AcDbLine
 10
183.382041
 20
151.157719
 30
0.0
 11
183.382041
 21
150.868712
 31
0.0
  0
LINE
  5
1683
100
AcDbEntity
  8
BORDER
100
AcDbLine
 10
183.710885
 20
150.868712
 30
0.0
 11
183.512786
 21
151.163761
 31
0.0
  0
ARC
  5
1684
100
AcDbEntity
  8
BORDER
100
AcDbCircle
 10
183.895226
 20
151.013215
 30
0.0
 40
0.144503
100
AcDbArc
 50
270.0
 51
90.0
  0
LINE
  5
1685
100
AcDbEntity
  8
BORDER
100
AcDbLine
 10
183.833706
 20
150.868712
 30
0.0
 11
183.895226
 21
150.868712
 31
0.0
  0
LINE
  5
1686
100
AcDbEntity
  8
BORDER
100
AcDbLine
 10
183.33755
 20
150.868712
 30
0.0
 11
183.426532
 21
150.868712
 31
0.0
  0
LINE
  5
1687
102
{ACAD_REACTORS
330
1639
102
}
100
AcDbEntity
  8
BORDER
100
AcDbLine
 10
183.247721
 20
150.731297
 30
0.0
 11
183.196436
 21
150.731297
 31
0.0
  0
LINE
  5
1688
100
AcDbEntity
  8
BORDER
100
AcDbLine
 10
183.895226
 20
151.157719
 30
0.0
 11
183.833706
 21
151.157719
 31
0.0
  0
LINE
  5
1689
100
AcDbEntity
  8
BORDER
100
AcDbLine
 10
183.382041
 20
151.157719
 30
0.0
 11
183.426532
 21
151.157719
 31
0.0
  0
LINE
  5
168A
100
AcDbEntity
  8
BORDER
100
AcDbLine
 10
183.33755
 20
151.157719
 30
0.0
 11
183.382041
 21
151.157719
 31
0.0
  0
ARC
  5
168B
100
AcDbEntity
  8
BORDER
100
AcDbCircle
 10
184.465161
 20
151.096107
 30
0.0
 40
0.040811
100
AcDbArc
 50
140.101426
 51
236.383068
  0
ARC
  5
168C
100
AcDbEntity
  8
BORDER
100
AcDbCircle
 10
184.505489
 20
151.068395
 30
0.0
 40
0.089644
100
AcDbArc
 50
25.379638
 51
143.047804
  0
ARC
  5
168D
100
AcDbEntity
  8
BORDER
100
AcDbCircle
 10
185.780162
 20
153.074075
 30
0.0
 40
2.416013
100
AcDbArc
 50
236.383068
 51
240.315223
  0
ARC
  5
168E
100
AcDbEntity
  8
BORDER
100
AcDbCircle
 10
184.563474
 20
150.939676
 30
0.0
 40
0.040811
100
AcDbArc
 50
331.630608
 51
60.315223
  0
LINE
  5
168F
100
AcDbEntity
  8
BORDER
100
AcDbLine
 10
184.14274
 20
150.965781
 30
0.0
 11
184.14274
 21
151.157719
 31
0.0
  0
LINE
  5
1690
100
AcDbEntity
  8
BORDER
100
AcDbLine
 10
184.336877
 20
151.157719
 30
0.0
 11
184.336877
 21
150.965781
 31
0.0
  0
HATCH
  5
1691
100
AcDbEntity
  8
BORDER
100
AcDbHatch
 10
0.0
 20
0.0
 30
0.0
210
0.0
220
0.0
230
1.0
  2
ANSI37
 70
     0
 71
     1
 91
        2
 92
        7
 72
     1
 73
     1
 93
       16
 10
185.1903949490305
 20
149.7082151579219
 42
-0.4142135623729068
 10
185.0889792549692
 20
149.6067994638606
 42
0.0
 10
185.0420471155934
 20
149.6067994638606
 42
0.0
 10
185.0420471155934
 20
149.5800683029177
 42
0.0
 10
185.4822266460548
 20
149.5800683029177
 42
0.0
 10
185.4822266460548
 20
149.6067994638606
 42
0.0
 10
185.4352945066793
 20
149.6067994638606
 42
-0.4142135623735383
 10
185.3338788126178
 20
149.7082151579219
 42
0.0
 10
185.3338788126178
 20
150.0636582443623
 42
0.0609117558028048
 10
185.5114098157586
 20
150.0417874052201
 42
0.4291497434353368
 10
185.8251288900586
 20
150.3236790666096
 42
0.3916311771492586
 10
185.518001820127
 20
150.6112661385031
 42
0.0
 10
185.0428096678759
 20
150.6112661385031
 42
0.0
 10
185.0428096678759
 20
150.582960508547
 42
0.0
 10
185.0889792549692
 20
150.582960508547
 42
-0.4142135623730042
 10
185.1903949490305
 20
150.4815448144857
 42
0.0
 97
       16
330
16B8
330
16AD
330
16B3
330
16B2
330
16B4
330
1695
330
16A3
330
16A1
330
16A2
330
169D
330
16A5
330
169E
330
16A4
330
1696
330
16AE
330
16B7
 92
       22
 72
     1
 73
     1
 93
        3
 10
185.3338788126178
 20
150.5350977332368
 42
-0.5287425889418758
 10
185.65246169442
 20
150.3115285665925
 42
-0.5439228899273142
 10
185.3338788126178
 20
150.1025399053265
 42
0.0
 97
        3
330
16B0
330
16AF
330
16B5
 75
     0
 76
     1
 52
0.0
 41
0.007458
 77
     0
 78
     2
 53
45.0
 43
179.560597
 44
122.646295
 45
-0.0006592159406502
 46
0.0006592159406502
 79
     0
 53
135.0
 43
179.560597
 44
122.646295
 45
-0.0006592159406502
 46
-0.0006592159406502
 79
     0
 47
0.027301
 98
        2
 10
185.250177
 20
150.263046
 10
185.250177
 20
150.263046
  0
LWPOLYLINE
  5
1692
100
AcDbEntity
  8
BORDER
 62
     5
100
AcDbPolyline
 90
        2
 70
     0
 43
0.240687
 10
187.553239
 20
151.372118
 10
187.553239
 20
148.483872
  0
LWPOLYLINE
  5
1693
100
AcDbEntity
  8
BORDER
 62
     5
100
AcDbPolyline
 90
        2
 70
     0
 43
0.240687
 10
187.071864
 20
148.483872
 10
187.071864
 20
151.372118
  0
LINE
  5
1694
100
AcDbEntity
  8
BORDER
100
AcDbLine
 10
186.59049
 20
148.483872
 30
0.0
 11
186.59049
 21
151.372118
 31
0.0
  0
LINE
  5
1695
102
{ACAD_REACTORS
330
1691
102
}
100
AcDbEntity
  8
BORDER
100
AcDbLine
 10
185.190395
 20
149.708215
 30
0.0
 11
185.190395
 21
150.481545
 31
0.0
  0
LINE
  5
1696
102
{ACAD_REACTORS
330
1691
102
}
100
AcDbEntity
  8
BORDER
100
AcDbLine
 10
185.333879
 20
150.063658
 30
0.0
 11
185.333879
 21
149.708215
 31
0.0
  0
ARC
  5
1697
100
AcDbEntity
  8
BORDER
100
AcDbCircle
 10
185.623107
 20
149.179785
 30
0.0
 40
0.19796
100
AcDbArc
 50
270.0
 51
90.0
  0
LINE
  5
1698
100
AcDbEntity
  8
BORDER
100
AcDbLine
 10
184.852646
 20
149.377745
 30
0.0
 11
184.852646
 21
148.981824
 31
0.0
  0
LINE
  5
1699
100
AcDbEntity
  8
BORDER
100
AcDbLine
 10
185.107906
 20
148.981824
 30
0.0
 11
185.107906
 21
149.377745
 31
0.0
  0
LINE
  5
169A
100
AcDbEntity
  8
BORDER
100
AcDbLine
 10
185.47368
 20
149.377745
 30
0.0
 11
185.47368
 21
148.981824
 31
0.0
  0
LINE
  5
169B
100
AcDbEntity
  8
BORDER
100
AcDbLine
 10
185.363342
 20
148.981824
 30
0.0
 11
185.107906
 21
148.981824
 31
0.0
  0
LINE
  5
169C
100
AcDbEntity
  8
BORDER
100
AcDbLine
 10
185.47368
 20
148.981824
 30
0.0
 11
185.623107
 21
148.981824
 31
0.0
  0
LINE
  5
169D
102
{ACAD_REACTORS
330
1691
102
}
100
AcDbEntity
  8
BORDER
100
AcDbLine
 10
185.042047
 20
149.580068
 30
0.0
 11
185.482227
 21
149.580068
 31
0.0
  0
LINE
  5
169E
102
{ACAD_REACTORS
330
1691
102
}
100
AcDbEntity
  8
BORDER
100
AcDbLine
 10
185.435295
 20
149.606799
 30
0.0
 11
185.482227
 21
149.606799
 31
0.0
  0
LINE
  5
169F
100
AcDbEntity
  8
BORDER
100
AcDbLine
 10
185.107906
 20
149.179785
 30
0.0
 11
185.277774
 21
149.179785
 31
0.0
  0
LINE
  5
16A0
100
AcDbEntity
  8
BORDER
100
AcDbLine
 10
185.107906
 20
149.377745
 30
0.0
 11
185.363342
 21
149.377745
 31
0.0
  0
LINE
  5
16A1
102
{ACAD_REACTORS
330
1691
102
}
100
AcDbEntity
  8
BORDER
100
AcDbLine
 10
185.042047
 20
149.606799
 30
0.0
 11
185.088979
 21
149.606799
 31
0.0
  0
LINE
  5
16A2
102
{ACAD_REACTORS
330
1691
102
}
100
AcDbEntity
  8
BORDER
100
AcDbLine
 10
185.042047
 20
149.606799
 30
0.0
 11
185.042047
 21
149.580068
 31
0.0
  0
ARC
  5
16A3
102
{ACAD_REACTORS
330
1691
102
}
100
AcDbEntity
  8
BORDER
100
AcDbCircle
 10
185.088979
 20
149.708215
 30
0.0
 40
0.101416
100
AcDbArc
 50
270.0
 51
360.0
  0
ARC
  5
16A4
102
{ACAD_REACTORS
330
1691
102
}
100
AcDbEntity
  8
BORDER
100
AcDbCircle
 10
185.435295
 20
149.708215
 30
0.0
 40
0.101416
100
AcDbArc
 50
180.0
 51
270.0
  0
LINE
  5
16A5
102
{ACAD_REACTORS
330
1691
102
}
100
AcDbEntity
  8
BORDER
100
AcDbLine
 10
185.482227
 20
149.606799
 30
0.0
 11
185.482227
 21
149.580068
 31
0.0
  0
LINE
  5
16A6
100
AcDbEntity
  8
BORDER
100
AcDbLine
 10
185.623107
 20
149.377745
 30
0.0
 11
185.47368
 21
149.377745
 31
0.0
  0
ARC
  5
16A7
100
AcDbEntity
  8
BORDER
100
AcDbCircle
 10
185.719282
 20
150.960359
 30
0.0
 40
0.091503
100
AcDbArc
 50
200.502447
 51
334.026213
  0
LINE
  5
16A8
100
AcDbEntity
  8
BORDER
100
AcDbLine
 10
184.769482
 20
151.157719
 30
0.0
 11
184.769482
 21
150.868712
 31
0.0
  0
LINE
  5
16A9
100
AcDbEntity
  8
BORDER
100
AcDbLine
 10
184.949559
 20
151.157719
 30
0.0
 11
184.949559
 21
150.868712
 31
0.0
  0
LINE
  5
16AA
100
AcDbEntity
  8
BORDER
100
AcDbLine
 10
185.034531
 20
151.011823
 30
0.0
 11
185.126191
 21
150.868712
 31
0.0
  0
LINE
  5
16AB
100
AcDbEntity
  8
BORDER
100
AcDbLine
 10
185.394936
 20
150.868712
 30
0.0
 11
185.394936
 21
151.157719
 31
0.0
  0
LINE
  5
16AC
100
AcDbEntity
  8
BORDER
100
AcDbLine
 10
185.260991
 20
151.157719
 30
0.0
 11
185.260991
 21
150.868712
 31
0.0
  0
LINE
  5
16AD
102
{ACAD_REACTORS
330
1691
102
}
100
AcDbEntity
  8
BORDER
100
AcDbLine
 10
185.04281
 20
150.611266
 30
0.0
 11
185.518002
 21
150.611266
 31
0.0
  0
ARC
  5
16AE
102
{ACAD_REACTORS
330
1691
102
}
100
AcDbEntity
  8
BORDER
100
AcDbCircle
 10
185.512076
 20
150.77866
 30
0.0
 40
0.736872
100
AcDbArc
 50
256.005504
 51
269.948223
  0
ARC
  5
16AF
102
{ACAD_REACTORS
330
1691
102
}
100
AcDbEntity
  8
BORDER
100
AcDbCircle
 10
185.425532
 20
150.310141
 30
0.0
 40
0.226933
100
AcDbArc
 50
246.179097
 51
0.350223
  0
ARC
  5
16B0
102
{ACAD_REACTORS
330
1691
102
}
100
AcDbEntity
  8
BORDER
100
AcDbCircle
 10
185.417015
 20
150.314793
 30
0.0
 40
0.235469
100
AcDbArc
 50
359.205673
 51
110.674935
  0
LINE
  5
16B1
100
AcDbEntity
  8
BORDER
100
AcDbLine
 10
185.568901
 20
150.868712
 30
0.0
 11
185.394936
 21
150.868712
 31
0.0
  0
LINE
  5
16B2
102
{ACAD_REACTORS
330
1691
102
}
100
AcDbEntity
  8
BORDER
100
AcDbLine
 10
185.04281
 20
150.582961
 30
0.0
 11
185.088979
 21
150.582961
 31
0.0
  0
LINE
  5
16B3
102
{ACAD_REACTORS
330
1691
102
}
100
AcDbEntity
  8
BORDER
100
AcDbLine
 10
185.04281
 20
150.611266
 30
0.0
 11
185.04281
 21
150.582961
 31
0.0
  0
ARC
  5
16B4
102
{ACAD_REACTORS
330
1691
102
}
100
AcDbEntity
  8
BORDER
100
AcDbCircle
 10
185.088979
 20
150.481545
 30
0.0
 40
0.101416
100
AcDbArc
 50
0.0
 51
90.0
  0
LINE
  5
16B5
102
{ACAD_REACTORS
330
1691
102
}
100
AcDbEntity
  8
BORDER
100
AcDbLine
 10
185.333879
 20
150.535098
 30
0.0
 11
185.333879
 21
150.10254
 31
0.0
  0
LINE
  5
16B6
100
AcDbEntity
  8
BORDER
100
AcDbLine
 10
185.2165
 20
150.868712
 30
0.0
 11
185.305482
 21
150.868712
 31
0.0
  0
ARC
  5
16B7
102
{ACAD_REACTORS
330
1691
102
}
100
AcDbEntity
  8
BORDER
100
AcDbCircle
 10
185.534298
 20
150.331831
 30
0.0
 40
0.290946
100
AcDbArc
 50
265.488062
 51
358.394374
  0
ARC
  5
16B8
102
{ACAD_REACTORS
330
1691
102
}
100
AcDbEntity
  8
BORDER
100
AcDbCircle
 10
185.51614
 20
150.301486
 30
0.0
 40
0.309785
100
AcDbArc
 50
4.10812
 51
90.34444
  0
LINE
  5
16B9
100
AcDbEntity
  8
BORDER
100
AcDbLine
 10
185.394936
 20
151.013215
 30
0.0
 11
185.530969
 21
151.013215
 31
0.0
  0
LINE
  5
16BA
100
AcDbEntity
  8
BORDER
100
AcDbLine
 10
185.394936
 20
151.157719
 30
0.0
 11
185.568901
 21
151.157719
 31
0.0
  0
LINE
  5
16BB
100
AcDbEntity
  8
BORDER
100
AcDbLine
 10
185.2165
 20
151.157719
 30
0.0
 11
185.305482
 21
151.157719
 31
0.0
  0
LINE
  5
16BC
100
AcDbEntity
  8
BORDER
100
AcDbLine
 10
184.949559
 20
151.011823
 30
0.0
 11
185.054683
 21
151.011823
 31
0.0
  0
LINE
  5
16BD
100
AcDbEntity
  8
BORDER
100
AcDbLine
 10
185.054683
 20
151.157719
 30
0.0
 11
184.949559
 21
151.157719
 31
0.0
  0
ARC
  5
16BE
100
AcDbEntity
  8
BORDER
100
AcDbCircle
 10
185.054683
 20
151.084771
 30
0.0
 40
0.072948
100
AcDbArc
 50
270.0
 51
90.0
  0
ARC
  5
16BF
100
AcDbEntity
  8
BORDER
100
AcDbCircle
 10
185.707648
 20
151.068395
 30
0.0
 40
0.089644
100
AcDbArc
 50
25.379638
 51
143.047804
  0
ARC
  5
16C0
100
AcDbEntity
  8
BORDER
100
AcDbCircle
 10
186.982321
 20
153.074075
 30
0.0
 40
2.416013
100
AcDbArc
 50
236.383068
 51
240.315223
  0
ARC
  5
16C1
100
AcDbEntity
  8
BORDER
100
AcDbCircle
 10
185.667319
 20
151.096107
 30
0.0
 40
0.040811
100
AcDbArc
 50
140.101426
 51
236.383068
  0
ARC
  5
16C2
100
AcDbEntity
  8
BORDER
100
AcDbCircle
 10
185.765633
 20
150.939676
 30
0.0
 40
0.040811
100
AcDbArc
 50
331.630608
 51
60.315223
  0
ARC
  5
16C3
100
AcDbEntity
  8
BORDER
100
AcDbCircle
 10
188.515987
 20
151.372118
 30
0.0
 40
0.481374
100
AcDbArc
 50
90.0
 51
180.0
  0
TEXT
  5
16C4
100
AcDbEntity
  8
BORDER
 62
     6
100
AcDbText
 10
190.030548
 20
148.933062
 30
0.0
 40
0.183584
  1
Rochester, IN  46975
  7
ROMANC
100
AcDbText
  0
TEXT
  5
16C5
100
AcDbEntity
  8
BORDER
 62
     6
100
AcDbText
 10
189.52106
 20
151.165623
 30
0.0
 40
0.248378
  1
CAST IRON HUBS
  7
ROMANC
100
AcDbText
  0
LINE
  5
16C6
100
AcDbEntity
  8
BORDER
100
AcDbLine
 10
188.034613
 20
149.927995
 30
0.0
 11
188.034613
 21
151.372118
 31
0.0
  0
LINE
  5
16C7
100
AcDbEntity
  8
BORDER
100
AcDbLine
 10
188.034613
 20
148.483872
 30
0.0
 11
188.034613
 21
149.582198
 31
0.0
  0
TEXT
  5
16C8
100
AcDbEntity
  8
BORDER
 62
     6
100
AcDbText
 10
188.104363
 20
150.421121
 30
0.0
 40
0.215981
  1
Reference:
  7
ROMANC
100
AcDbText
  0
TEXT
  5
16C9
100
AcDbEntity
  8
BORDER
 62
     6
100
AcDbText
 10
191.514866
 20
150.267994
 30
0.0
 40
0.215981
  1
-
  7
ROMANC
100
AcDbText
  0
LINE
  5
16CA
100
AcDbEntity
  8
BORDER
100
AcDbLine
 10
201.148417
 20
149.582198
 30
0.0
 11
206.579113
 21
149.582198
 31
0.0
  0
LINE
  5
16CB
100
AcDbEntity
  8
BORDER
100
AcDbLine
 10
201.148417
 20
148.483872
 30
0.0
 11
206.579113
 21
148.483872
 31
0.0
  0
ARC
  5
16CC
100
AcDbEntity
  8
BORDER
100
AcDbCircle
 10
206.097738
 20
151.372118
 30
0.0
 40
0.481374
100
AcDbArc
 50
0.0
 51
90.0
  0
LWPOLYLINE
  5
16CD
100
AcDbEntity
  8
BORDER
 62
     5
100
AcDbPolyline
 90
        2
 70
     0
 43
0.240687
 10
206.097738
 20
152.334866
 42
-0.414214
 10
207.060487
 20
151.372118
 42
0.560527
  0
LINE
  5
16CE
100
AcDbEntity
  8
BORDER
100
AcDbLine
 10
195.371925
 20
149.927995
 30
0.0
 11
206.579113
 21
149.927995
 31
0.0
  0
TEXT
  5
16CF
100
AcDbEntity
  8
BORDER
 62
     6
100
AcDbText
 10
199.004569
 20
151.522652
 30
0.0
 40
0.180675
  1
This print is and contains confidential proprietary information owned exclusively
 41
0.656934
  7
ROMANS
 72
     5
 11
206.448211
 21
151.522652
 31
0.0
100
AcDbText
  0
TEXT
  5
16D0
100
AcDbEntity
  8
BORDER
 62
     6
100
AcDbText
 10
199.004569
 20
151.230131
 30
0.0
 40
0.180675
  1
by TOPP INDUSTRIES, INC. It is furnished on a strictly confidential basis.  This
 41
0.659437
  7
ROMANS
 72
     5
 11
206.448211
 21
151.230131
 31
0.0
100
AcDbText
  0
TEXT
  5
16D1
100
AcDbEntity
  8
BORDER
 62
     6
100
AcDbText
 10
199.004569
 20
150.93761
 30
0.0
 40
0.180675
  1
restriction includes, but is not limited to the condition that this print will not only
 41
0.626489
  7
ROMANS
 72
     5
 11
206.448211
 21
150.93761
 31
0.0
100
AcDbText
  0
TEXT
  5
16D2
100
AcDbEntity
  8
BORDER
 62
     6
100
AcDbText
 10
199.004569
 20
150.645089
 30
0.0
 40
0.180675
  1
be used as a record or to identify or inspect parts or for other information purposes
 41
0.596266
  7
ROMANS
 72
     5
 11
206.448211
 21
150.645089
 31
0.0
100
AcDbText
  0
TEXT
  5
16D3
100
AcDbEntity
  8
BORDER
 62
     6
100
AcDbText
 10
199.004569
 20
150.352568
 30
0.0
 40
0.180675
  1
and will not be used to manufacture or procure the manufacture of the items shown
 41
0.600404
  7
ROMANS
 72
     5
 11
206.448211
 21
150.352568
 31
0.0
100
AcDbText
  0
TEXT
  5
16D4
100
AcDbEntity
  8
BORDER
 62
     6
100
AcDbText
 10
199.004569
 20
150.060047
 30
0.0
 40
0.180675
  1
in this print by any other source than TOPP INDUSTRIES, INC.
 41
0.839168
  7
ROMANS
 72
     5
 11
206.448211
 21
150.060047
 31
0.0
100
AcDbText
  0
LINE
  5
16D5
100
AcDbEntity
  8
BORDER
100
AcDbLine
 10
195.371925
 20
148.483872
 30
0.0
 11
200.802621
 21
148.483872
 31
0.0
  0
LINE
  5
16D6
100
AcDbEntity
  8
BORDER
100
AcDbLine
 10
195.371925
 20
149.582198
 30
0.0
 11
200.802621
 21
149.582198
 31
0.0
  0
LINE
  5
16D7
100
AcDbEntity
  8
BORDER
100
AcDbLine
 10
195.371925
 20
151.853492
 30
0.0
 11
206.097738
 21
151.853492
 31
0.0
  0
TEXT
  5
16D8
100
AcDbEntity
  8
BORDER
 62
     6
100
AcDbText
 10
195.470589
 20
151.020251
 30
0.0
 40
0.215981
  1
Drawn By:
  7
ROMANC
100
AcDbText
  0
TEXT
  5
16D9
100
AcDbEntity
  8
BORDER
 62
     6
100
AcDbText
 10
195.470589
 20
150.505639
 30
0.0
 40
0.215981
  1
Appv'd By: .
  7
ROMANC
100
AcDbText
  0
TEXT
  5
16DA
100
AcDbEntity
  8
BORDER
 62
     6
100
AcDbText
 10
195.470589
 20
151.534862
 30
0.0
 40
0.215981
  1
Scale: None
  7
ROMANC
100
AcDbText
  0
TEXT
  5
16DB
100
AcDbEntity
  8
BORDER
 62
     6
100
AcDbText
 10
195.482901
 20
148.856696
 30
0.0
 40
0.215981
  1
Prior To:
  7
ROMANC
100
AcDbText
  0
TEXT
  5
16DC
100
AcDbEntity
  8
BORDER
 62
     6
100
AcDbText
 10
195.482901
 20
149.20638
 30
0.0
 40
0.215981
  1
Supersedes Prints
  7
ROMANC
100
AcDbText
  0
TEXT
  5
16DD
100
AcDbEntity
  8
BORDER
 62
     6
100
AcDbText
 10
195.470589
 20
149.991028
 30
0.0
 40
0.215981
  1
Date: 06/26/03
  7
ROMANC
100
AcDbText
  0
LINE
  5
16DE
100
AcDbEntity
  8
BORDER
100
AcDbLine
 10
195.371925
 20
149.927995
 30
0.0
 11
195.371925
 21
151.853492
 31
0.0
  0
LINE
  5
16DF
100
AcDbEntity
  8
BORDER
100
AcDbLine
 10
195.371925
 20
148.483872
 30
0.0
 11
195.371925
 21
149.582198
 31
0.0
  0
TEXT
  5
16E0
100
AcDbEntity
  8
BORDER
 62
     6
100
AcDbText
 10
197.805639
 20
148.677276
 30
0.0
 40
0.27679
  1
06/26/03
  7
ROMAND
100
AcDbText
  0
TEXT
  5
16E1
100
AcDbEntity
  8
BORDER
 62
     6
100
AcDbText
 10
197.452699
 20
150.997249
 30
0.0
 40
0.294579
  1
RM
  7
COUNTRYBLUEPRINT
100
AcDbText
  0
TEXT
  5
16E2
100
AcDbEntity
  8
BORDER
 62
     6
100
AcDbText
 10
201.262084
 20
148.88063
 30
0.0
 40
0.215981
  1
No:
  7
ROMANC
100
AcDbText
  0
TEXT
  5
16E3
100
AcDbEntity
  8
BORDER
 62
     6
100
AcDbText
 10
201.262084
 20
149.230313
 30
0.0
 40
0.215981
  1
Reference
  7
ROMANC
100
AcDbText
  0
LINE
  5
16E4
100
AcDbEntity
  8
BORDER
100
AcDbLine
 10
201.148417
 20
149.582198
 30
0.0
 11
201.148417
 21
148.483872
 31
0.0
  0
LINE
  5
16E5
100
AcDbEntity
  8
BORDER
100
AcDbLine
 10
200.802621
 20
149.582198
 30
0.0
 11
200.802621
 21
148.483872
 31
0.0
  0
TEXT
  5
16E6
100
AcDbEntity
  8
BORDER
 62
     6
100
AcDbText
 10
203.109389
 20
148.729405
 30
0.0
 40
0.647944
  1
10092
  7
ROMANC
100
AcDbText
  0
LWPOLYLINE
  5
16E7
100
AcDbEntity
  8
BORDER
 62
     5
100
AcDbPolyline
 90
        2
 70
     0
 43
0.240687
 10
213.799728
 20
148.002497
 42
0.414214
 10
214.762477
 20
148.965246
 42
-0.560527
  0
TEXT
  5
16E8
100
AcDbEntity
  8
BORDER
 62
     6
100
AcDbText
 10
209.868306
 20
151.210013
 30
0.0
 40
0.323972
  1
Revisions
  7
ROMANC
100
AcDbText
  0
LWPOLYLINE
  5
16E9
100
AcDbEntity
  8
BORDER
 62
     5
100
AcDbPolyline
 90
        2
 70
     0
 43
0.240687
 10
213.799728
 20
152.334866
 10
208.50461
 20
152.334866
  0
LINE
  5
16EA
100
AcDbEntity
  8
BORDER
100
AcDbLine
 10
213.799728
 20
151.853492
 30
0.0
 11
208.50461
 21
151.853492
 31
0.0
  0
LINE
  5
16EB
100
AcDbEntity
  8
BORDER
100
AcDbLine
 10
213.799728
 20
150.994424
 30
0.0
 11
208.50461
 21
150.994424
 31
0.0
  0
LINE
  5
16EC
100
AcDbEntity
  8
BORDER
100
AcDbLine
 10
213.799728
 20
150.513049
 30
0.0
 11
208.50461
 21
150.513049
 31
0.0
  0
LINE
  5
16ED
100
AcDbEntity
  8
BORDER
100
AcDbLine
 10
213.799728
 20
150.031675
 30
0.0
 11
208.50461
 21
150.031675
 31
0.0
  0
LINE
  5
16EE
100
AcDbEntity
  8
BORDER
100
AcDbLine
 10
213.799728
 20
149.550301
 30
0.0
 11
208.50461
 21
149.550301
 31
0.0
  0
LINE
  5
16EF
100
AcDbEntity
  8
BORDER
100
AcDbLine
 10
213.799728
 20
149.068926
 30
0.0
 11
208.50461
 21
149.068926
 31
0.0
  0
TEXT
  5
16F0
100
AcDbEntity
  8
BORDER
 62
     6
100
AcDbText
 10
209.027349
 20
150.633804
 30
0.0
 40
0.240687
  1
First Released 06/27/03
  7
ROMAND
100
AcDbText
  0
LINE
  5
16F1
100
AcDbEntity
  8
BORDER
100
AcDbLine
 10
213.799728
 20
148.483872
 30
0.0
 11
208.023236
 21
148.483872
 31
0.0
  0
LWPOLYLINE
  5
16F2
100
AcDbEntity
  8
BORDER
 62
     5
100
AcDbPolyline
 90
        2
 70
     0
 43
0.240687
 10
208.50461
 20
152.334866
 42
0.414214
 10
207.541862
 20
151.372118
 42
-0.560527
  0
ARC
  5
16F3
100
AcDbEntity
  8
BORDER
100
AcDbCircle
 10
208.50461
 20
151.372118
 30
0.0
 40
0.481374
100
AcDbArc
 50
90.0
 51
180.0
  0
LWPOLYLINE
  5
16F4
100
AcDbEntity
  8
BORDER
 62
     5
100
AcDbPolyline
 90
        2
 70
     0
 43
0.240687
 10
207.541862
 20
148.483872
 10
207.541862
 20
151.372118
  0
LINE
  5
16F5
100
AcDbEntity
  8
BORDER
100
AcDbLine
 10
208.023236
 20
148.483872
 30
0.0
 11
208.023236
 21
151.372118
 31
0.0
  0
LINE
  5
16F6
100
AcDbEntity
  8
BORDER
100
AcDbLine
 10
208.985985
 20
150.994424
 30
0.0
 11
208.985985
 21
149.068926
 31
0.0
  0
LINE
  5
16F7
100
AcDbEntity
  8
BORDER
100
AcDbLine
 10
208.50461
 20
150.994424
 30
0.0
 11
208.50461
 21
149.068926
 31
0.0
  0
LINE
  5
16F8
100
AcDbEntity
  8
BORDER
100
AcDbLine
 10
206.579113
 20
151.372118
 30
0.0
 11
206.579113
 21
149.927995
 31
0.0
  0
LWPOLYLINE
  5
16F9
100
AcDbEntity
  8
BORDER
 62
     5
100
AcDbPolyline
 90
        2
 70
     0
 43
0.240687
 10
207.060487
 20
148.483872
 10
207.060487
 20
151.372118
  0
LINE
  5
16FA
100
AcDbEntity
  8
BORDER
100
AcDbLine
 10
206.579113
 20
149.582198
 30
0.0
 11
206.579113
 21
148.483872
 31
0.0
  0
LWPOLYLINE
  5
16FB
100
AcDbEntity
  8
BORDER
100
AcDbPolyline
 90
        6
 70
     1
 43
0.0
 10
208.847781
 20
150.575243
 10
208.950338
 20
150.752877
 10
208.847781
 20
150.930511
 10
208.642667
 20
150.930511
 10
208.54011
 20
150.752877
 10
208.642667
 20
150.575243
  0
TEXT
  5
16FC
100
AcDbEntity
  8
BORDER
 62
     6
100
AcDbText
 10
208.630916
 20
150.633804
 30
0.0
 40
0.240687
  1
1
  7
ROMAND
100
AcDbText
  0
LWPOLYLINE
  5
16FD
100
AcDbEntity
  8
BORDER
 62
     5
100
AcDbPolyline
 90
        2
 70
     0
 43
0.240687
 10
213.799728
 20
152.334866
 42
-0.414214
 10
214.762477
 20
151.372118
 42
0.560527
  0
ARC
  5
16FE
100
AcDbEntity
  8
BORDER
100
AcDbCircle
 10
213.799728
 20
151.372118
 30
0.0
 40
0.481374
100
AcDbArc
 50
0.0
 51
90.0
  0
LWPOLYLINE
  5
16FF
100
AcDbEntity
  8
BORDER
 62
     5
100
AcDbPolyline
 90
        2
 70
     0
 43
0.240687
 10
214.762477
 20
151.372118
 10
214.762477
 20
148.965246
  0
LINE
  5
1700
100
AcDbEntity
  8
BORDER
100
AcDbLine
 10
214.281102
 20
148.965246
 30
0.0
 11
214.281102
 21
151.372118
 31
0.0
  0
LINE
  5
1701
100
AcDbEntity
  8
BORDER
100
AcDbLine
 10
213.799728
 20
150.994424
 30
0.0
 11
213.799728
 21
149.068926
 31
0.0
  0
ARC
  5
1702
100
AcDbEntity
  8
BORDER
100
AcDbCircle
 10
213.799728
 20
148.965246
 30
0.0
 40
0.481374
100
AcDbArc
 50
270.0
 51
0.0
  0
LINE
  5
1703
100
AcDbEntity
  8
LIMITS
 62
     7
100
AcDbLine
 10
215.532676
 20
194.212441
 30
0.0
 11
179.08105
 21
194.212441
 31
0.0
  0
LINE
  5
1704
100
AcDbEntity
  8
BORDER
 62
     5
100
AcDbLine
 10
214.377377
 20
193.442242
 30
0.0
 11
180.236349
 21
193.442242
 31
0.0
  0
LWPOLYLINE
  5
1705
100
AcDbEntity
  8
BORDER
 62
     5
100
AcDbPolyline
 90
        2
 70
     0
 43
0.096275
 10
214.377377
 20
193.442242
 10
180.236349
 20
193.442242
  0
ENDSEC
  0
SECTION
  2
OBJECTS
  0
DICTIONARY
  5
C
100
AcDbDictionary
  3
ACAD_GROUP
350
D
  3
ACAD_MLINESTYLE
350
1A
  3
ACDBVARIABLEDICTIONARY
350
4A
  0
DICTIONARY
  5
D
102
{ACAD_REACTORS
330
C
102
}
100
AcDbDictionary
  0
DICTIONARY
  5
1A
102
{ACAD_REACTORS
330
C
102
}
100
AcDbDictionary
  3
STANDARD
350
1B
  0
DICTIONARY
  5
4A
102
{ACAD_REACTORS
330
C
102
}
100
AcDbDictionary
  3
DIMADEC
350
4B
  0
MLINESTYLE
  5
1B
102
{ACAD_REACTORS
330
1A
102
}
100
AcDbMlineStyle
  2
STANDARD
 70
     0
  3

 62
   256
 51
90.0
 52
90.0
 71
     2
 49
0.5
 62
   256
  6
BYLAYER
 49
-0.5
 62
   256
  6
BYLAYER
  0
DICTIONARYVAR
  5
4B
102
{ACAD_REACTORS
330
4A
102
}
100
DictionaryVariables
280
     0
  1
0
  0
ENDSEC
  0
EOF
