  0
SECTION
  2
HEADER
  9
$ACADVER
  1
AC1014
  9
$ACADMAINTVER
 70
     0
  9
$DWGCODEPAGE
  3
ANSI_1252
  9
$INSBASE
 10
0.0
 20
0.0
 30
0.0
  9
$EXTMIN
 10
79.08465
 20
95.2403
 30
0.0
  9
$EXTMAX
 10
94.844264
 20
115.635094
 30
20.0
  9
$LIMMIN
 10
136.589349
 20
92.1187
  9
$LIMMAX
 10
152.604421
 20
113.055614
  9
$ORTHOMODE
 70
     0
  9
$REGENMODE
 70
     1
  9
$FILLMODE
 70
     1
  9
$QTEXTMODE
 70
     0
  9
$MIRRTEXT
 70
     1
  9
$DRAGMODE
 70
     2
  9
$LTSCALE
 40
0.35
  9
$OSMODE
 70
   675
  9
$ATTMODE
 70
     1
  9
$TEXTSIZE
 40
1.5
  9
$TRACEWID
 40
0.05
  9
$TEXTSTYLE
  7
ROMANS
  9
$CLAYER
  8
DIM
  9
$CELTYPE
  6
BYLAYER
  9
$CECOLOR
 62
   256
  9
$CELTSCALE
 40
1.0
  9
$DELOBJ
 70
     1
  9
$DISPSILH
 70
     0
  9
$DIMSCALE
 40
1.0
  9
$DIMASZ
 40
0.13
  9
$DIMEXO
 40
0.0625
  9
$DIMDLI
 40
0.38
  9
$DIMRND
 40
0.0
  9
$DIMDLE
 40
0.0
  9
$DIMEXE
 40
0.18
  9
$DIMTP
 40
0.0
  9
$DIMTM
 40
0.0
  9
$DIMTXT
 40
0.18
  9
$DIMCEN
 40
0.09
  9
$DIMTSZ
 40
0.0
  9
$DIMTOL
 70
     0
  9
$DIMLIM
 70
     0
  9
$DIMTIH
 70
     1
  9
$DIMTOH
 70
     1
  9
$DIMSE1
 70
     0
  9
$DIMSE2
 70
     0
  9
$DIMTAD
 70
     0
  9
$DIMZIN
 70
     0
  9
$DIMBLK
  1

  9
$DIMASO
 70
     1
  9
$DIMSHO
 70
     1
  9
$DIMPOST
  1

  9
$DIMAPOST
  1

  9
$DIMALT
 70
     0
  9
$DIMALTD
 70
     2
  9
$DIMALTF
 40
25.4
  9
$DIMLFAC
 40
1.0
  9
$DIMTOFL
 70
     0
  9
$DIMTVP
 40
0.0
  9
$DIMTIX
 70
     0
  9
$DIMSOXD
 70
     0
  9
$DIMSAH
 70
     0
  9
$DIMBLK1
  1

  9
$DIMBLK2
  1

  9
$DIMSTYLE
  2
STANDARD
  9
$DIMCLRD
 70
     0
  9
$DIMCLRE
 70
     0
  9
$DIMCLRT
 70
     0
  9
$DIMTFAC
 40
1.0
  9
$DIMGAP
 40
0.09
  9
$DIMJUST
 70
     0
  9
$DIMSD1
 70
     0
  9
$DIMSD2
 70
     0
  9
$DIMTOLJ
 70
     1
  9
$DIMTZIN
 70
     0
  9
$DIMALTZ
 70
     0
  9
$DIMALTTZ
 70
     0
  9
$DIMFIT
 70
     5
  9
$DIMUPT
 70
     0
  9
$DIMUNIT
 70
     2
  9
$DIMDEC
 70
     4
  9
$DIMTDEC
 70
     4
  9
$DIMALTU
 70
     2
  9
$DIMALTTD
 70
     2
  9
$DIMTXSTY
  7
ROMANS
  9
$DIMAUNIT
 70
     0
  9
$LUNITS
 70
     2
  9
$LUPREC
 70
     4
  9
$SKETCHINC
 40
0.1
  9
$FILLETRAD
 40
0.0
  9
$AUNITS
 70
     0
  9
$AUPREC
 70
     0
  9
$MENU
  1
acad
  9
$ELEVATION
 40
0.0
  9
$PELEVATION
 40
0.0
  9
$THICKNESS
 40
0.0
  9
$LIMCHECK
 70
     0
  9
$BLIPMODE
 70
     0
  9
$CHAMFERA
 40
0.0
  9
$CHAMFERB
 40
0.0
  9
$CHAMFERC
 40
0.0
  9
$CHAMFERD
 40
0.0
  9
$SKPOLY
 70
     0
  9
$TDCREATE
 40
2449612.405389467
  9
$TDUPDATE
 40
2452829.468213773
  9
$TDINDWG
 40
0.1196564699
  9
$TDUSRTIMER
 40
0.1196564699
  9
$USRTIMER
 70
     1
  9
$ANGBASE
 50
0.0
  9
$ANGDIR
 70
     0
  9
$PDMODE
 70
     0
  9
$PDSIZE
 40
0.0
  9
$PLINEWID
 40
0.0
  9
$COORDS
 70
     1
  9
$SPLFRAME
 70
     0
  9
$SPLINETYPE
 70
     6
  9
$SPLINESEGS
 70
     8
  9
$ATTDIA
 70
     0
  9
$ATTREQ
 70
     1
  9
$HANDLING
 70
     1
  9
$HANDSEED
  5
1CD1
  9
$SURFTAB1
 70
     6
  9
$SURFTAB2
 70
     6
  9
$SURFTYPE
 70
     6
  9
$SURFU
 70
     6
  9
$SURFV
 70
     6
  9
$UCSNAME
  2

  9
$UCSORG
 10
0.0
 20
0.0
 30
0.0
  9
$UCSXDIR
 10
1.0
 20
0.0
 30
0.0
  9
$UCSYDIR
 10
0.0
 20
1.0
 30
0.0
  9
$PUCSNAME
  2

  9
$PUCSORG
 10
0.0
 20
0.0
 30
0.0
  9
$PUCSXDIR
 10
1.0
 20
0.0
 30
0.0
  9
$PUCSYDIR
 10
0.0
 20
1.0
 30
0.0
  9
$USERI1
 70
     0
  9
$USERI2
 70
     0
  9
$USERI3
 70
     0
  9
$USERI4
 70
     0
  9
$USERI5
 70
     0
  9
$USERR1
 40
0.0
  9
$USERR2
 40
0.0
  9
$USERR3
 40
0.0
  9
$USERR4
 40
0.0
  9
$USERR5
 40
0.0
  9
$WORLDVIEW
 70
     1
  9
$SHADEDGE
 70
     3
  9
$SHADEDIF
 70
    70
  9
$TILEMODE
 70
     1
  9
$MAXACTVP
 70
    16
  9
$PINSBASE
 10
0.0
 20
0.0
 30
0.0
  9
$PLIMCHECK
 70
     0
  9
$PEXTMIN
 10
1.000000E+20
 20
1.000000E+20
 30
1.000000E+20
  9
$PEXTMAX
 10
-1.000000E+20
 20
-1.000000E+20
 30
-1.000000E+20
  9
$PLIMMIN
 10
0.0
 20
0.0
  9
$PLIMMAX
 10
12.0
 20
9.0
  9
$UNITMODE
 70
     0
  9
$VISRETAIN
 70
     0
  9
$PLINEGEN
 70
     0
  9
$PSLTSCALE
 70
     1
  9
$TREEDEPTH
 70
  3020
  9
$PICKSTYLE
 70
     1
  9
$CMLSTYLE
  2
STANDARD
  9
$CMLJUST
 70
     0
  9
$CMLSCALE
 40
1.0
  9
$PROXYGRAPHICS
 70
     1
  9
$MEASUREMENT
 70
     0
  0
ENDSEC
  0
SECTION
  2
CLASSES
  0
CLASS
  1
DICTIONARYVAR
  2
AcDbDictionaryVar
  3
"AutoCAD"
 90
        0
280
     0
281
     0
  0
CLASS
  1
LWPOLYLINE
  2
AcDbPolyline
  3
"AutoCAD"
 90
        0
280
     0
281
     1
  0
CLASS
  1
HATCH
  2
AcDbHatch
  3
"ACAD_SEDONA"
 90
        0
280
     0
281
     1
  0
ENDSEC
  0
SECTION
  2
TABLES
  0
TABLE
  2
VPORT
  5
8
100
AcDbSymbolTable
 70
     1
  0
VPORT
  5
1CC9
100
AcDbSymbolTableRecord
100
AcDbViewportTableRecord
  2
*ACTIVE
 70
     0
 10
0.0
 20
0.0
 11
1.0
 21
1.0
 12
86.964256
 22
105.441472
 13
0.0
 23
0.0
 14
1.0
 24
1.0
 15
0.0
 25
0.0
 16
0.0
 26
0.0
 36
1.0
 17
0.0
 27
0.0
 37
0.0
 40
20.620429
 41
1.71048
 42
50.0
 43
0.0
 44
0.0
 50
0.0
 51
0.0
 71
     0
 72
   100
 73
     1
 74
     0
 75
     0
 76
     0
 77
     0
 78
     0
  0
ENDTAB
  0
TABLE
  2
LTYPE
  5
5
100
AcDbSymbolTable
 70
     3
  0
LTYPE
  5
11
100
AcDbSymbolTableRecord
100
AcDbLinetypeTableRecord
  2
BYBLOCK
 70
     0
  3

 72
    65
 73
     0
 40
0.0
  0
LTYPE
  5
12
100
AcDbSymbolTableRecord
100
AcDbLinetypeTableRecord
  2
BYLAYER
 70
     0
  3

 72
    65
 73
     0
 40
0.0
  0
LTYPE
  5
13
100
AcDbSymbolTableRecord
100
AcDbLinetypeTableRecord
  2
CONTINUOUS
 70
     0
  3
Solid line
 72
    65
 73
     0
 40
0.0
  0
LTYPE
  5
2F
100
AcDbSymbolTableRecord
100
AcDbLinetypeTableRecord
  2
CENTER
 70
     0
  3
____ _ ____ _ ____ _ ____ _ ____ _ ____ _ ____ 
 72
    65
 73
     4
 40
2.0
 49
1.25
 74
     0
 49
-0.25
 74
     0
 49
0.25
 74
     0
 49
-0.25
 74
     0
  0
LTYPE
  5
30
100
AcDbSymbolTableRecord
100
AcDbLinetypeTableRecord
  2
HIDDEN
 70
     0
  3
__ __ __ __ __ __ __ __ __ __ __ __ __ __ __ __
 72
    65
 73
     2
 40
0.375
 49
0.25
 74
     0
 49
-0.125
 74
     0
  0
ENDTAB
  0
TABLE
  2
LAYER
  5
2
100
AcDbSymbolTable
 70
     9
  0
LAYER
  5
E
100
AcDbSymbolTableRecord
100
AcDbLayerTableRecord
  2
0
 70
     0
 62
     7
  6
CONTINUOUS
  0
LAYER
  5
33
100
AcDbSymbolTableRecord
100
AcDbLayerTableRecord
  2
DIM
 70
     0
 62
     6
  6
CONTINUOUS
  0
LAYER
  5
34
100
AcDbSymbolTableRecord
100
AcDbLayerTableRecord
  2
BORDER
 70
     0
 62
     5
  6
CONTINUOUS
  0
LAYER
  5
35
100
AcDbSymbolTableRecord
100
AcDbLayerTableRecord
  2
OBJECT
 70
     0
 62
     2
  6
CONTINUOUS
  0
LAYER
  5
36
100
AcDbSymbolTableRecord
100
AcDbLayerTableRecord
  2
HIDDEN
 70
     0
 62
     1
  6
HIDDEN
  0
LAYER
  5
37
100
AcDbSymbolTableRecord
100
AcDbLayerTableRecord
  2
CENTER
 70
     0
 62
     3
  6
CENTER
  0
LAYER
  5
38
100
AcDbSymbolTableRecord
100
AcDbLayerTableRecord
  2
DEFPOINTS
 70
     0
 62
     7
  6
CONTINUOUS
  0
LAYER
  5
39
100
AcDbSymbolTableRecord
100
AcDbLayerTableRecord
  2
HATCH
 70
     0
 62
     4
  6
CONTINUOUS
  0
LAYER
  5
1B02
100
AcDbSymbolTableRecord
100
AcDbLayerTableRecord
  2
LIMITS
 70
     0
 62
     7
  6
CONTINUOUS
  0
ENDTAB
  0
TABLE
  2
STYLE
  5
3
100
AcDbSymbolTable
 70
     5
  0
STYLE
  5
F
100
AcDbSymbolTableRecord
100
AcDbTextStyleTableRecord
  2
STANDARD
 70
     0
 40
0.0
 41
1.0
 50
0.0
 71
     0
 42
0.2
  3
txt
  4

  0
STYLE
  5
2A
100
AcDbSymbolTableRecord
100
AcDbTextStyleTableRecord
  2
ROMANS
 70
     0
 40
0.13
 41
1.0
 50
0.0
 71
     0
 42
1.5
  3
romans
  4

  0
STYLE
  5
2C
100
AcDbSymbolTableRecord
100
AcDbTextStyleTableRecord
  2
ROMAND
 70
     0
 40
1.5
 41
1.0
 50
0.0
 71
     0
 42
1.5
  3
ROMAND.SHX
  4

  0
STYLE
  5
2D
100
AcDbSymbolTableRecord
100
AcDbTextStyleTableRecord
  2
ROMANC
 70
     0
 40
0.0531
 41
1.0
 50
0.0
 71
     0
 42
0.0531
  3
romanc
  4

  0
STYLE
  5
1B03
100
AcDbSymbolTableRecord
100
AcDbTextStyleTableRecord
  2
COUNTRYBLUEPRINT
 70
     0
 40
0.061059
 41
1.0
 50
0.0
 71
     0
 42
0.061059
  3
cobt____.pfb
  4

  0
ENDTAB
  0
TABLE
  2
VIEW
  5
6
100
AcDbSymbolTable
 70
     0
  0
ENDTAB
  0
TABLE
  2
UCS
  5
7
100
AcDbSymbolTable
 70
     0
  0
ENDTAB
  0
TABLE
  2
APPID
  5
9
100
AcDbSymbolTable
 70
     1
  0
APPID
  5
10
100
AcDbSymbolTableRecord
100
AcDbRegAppTableRecord
  2
ACAD
 70
     0
  0
ENDTAB
  0
TABLE
  2
DIMSTYLE
  5
A
100
AcDbSymbolTable
 70
     1
  0
DIMSTYLE
105
EE7
100
AcDbSymbolTableRecord
100
AcDbDimStyleTableRecord
  2
STANDARD
 70
     0
  3

  4

  5

  6

  7

 40
1.0
 41
0.18
 42
0.0625
 43
0.38
 44
0.18
 45
0.0
 46
0.0
 47
0.0
 48
0.0
140
0.18
141
0.09
142
0.0
143
25.4
144
1.0
145
0.0
146
1.0
147
0.09
 71
     0
 72
     0
 73
     1
 74
     1
 75
     0
 76
     0
 77
     0
 78
     0
170
     0
171
     2
172
     0
173
     0
174
     0
175
     0
176
     0
177
     0
178
     0
270
     2
271
     4
272
     4
273
     2
274
     2
340
F
275
     0
280
     0
281
     0
282
     0
283
     1
284
     0
285
     0
286
     0
287
     3
288
     0
  0
ENDTAB
  0
TABLE
  2
BLOCK_RECORD
  5
1
100
AcDbSymbolTable
 70
     3
  0
BLOCK_RECORD
  5
17
100
AcDbSymbolTableRecord
100
AcDbBlockTableRecord
  2
*MODEL_SPACE
  0
BLOCK_RECORD
  5
14
100
AcDbSymbolTableRecord
100
AcDbBlockTableRecord
  2
*PAPER_SPACE
  0
BLOCK_RECORD
  5
25
100
AcDbSymbolTableRecord
100
AcDbBlockTableRecord
  2
*X0
  0
BLOCK_RECORD
  5
28
100
AcDbSymbolTableRecord
100
AcDbBlockTableRecord
  2
*D1
  0
BLOCK_RECORD
  5
29
100
AcDbSymbolTableRecord
100
AcDbBlockTableRecord
  2
*X2
  0
ENDTAB
  0
ENDSEC
  0
SECTION
  2
BLOCKS
  0
BLOCK
  5
3C
100
AcDbEntity
  8
0
100
AcDbBlockBegin
  2
*MODEL_SPACE
 70
     0
 10
0.0
 20
0.0
 30
0.0
  3
*MODEL_SPACE
  1

  0
ENDBLK
  5
3D
100
AcDbEntity
  8
0
100
AcDbBlockEnd
  0
BLOCK
  5
3A
100
AcDbEntity
 67
     1
  8
0
100
AcDbBlockBegin
  2
*PAPER_SPACE
 70
     0
 10
0.0
 20
0.0
 30
0.0
  3
*PAPER_SPACE
  1

  0
ENDBLK
  5
3B
100
AcDbEntity
 67
     1
  8
0
100
AcDbBlockEnd
  0
BLOCK
  5
8CC
100
AcDbEntity
  8
0
100
AcDbBlockBegin
  2
*X0
 70
     1
 10
0.0
 20
0.0
 30
0.0
  3
*X0
  1

  0
LINE
  5
8CD
100
AcDbEntity
  8
0
 62
     0
100
AcDbLine
 10
81.407047
 20
163.519822
 30
0.0
 11
81.542092
 21
163.654867
 31
0.0
  0
LINE
  5
8CE
100
AcDbEntity
  8
0
 62
     0
100
AcDbLine
 10
81.407047
 20
163.60821
 30
0.0
 11
81.453703
 21
163.654867
 31
0.0
  0
LINE
  5
8CF
100
AcDbEntity
  8
0
 62
     0
100
AcDbLine
 10
80.948538
 20
163.414867
 30
0.0
 11
81.032047
 21
163.498375
 31
0.0
  0
LINE
  5
8D0
100
AcDbEntity
  8
0
 62
     0
100
AcDbLine
 10
80.86015
 20
163.414867
 30
0.0
 11
81.032047
 21
163.586764
 31
0.0
  0
LINE
  5
8D1
100
AcDbEntity
  8
0
 62
     0
100
AcDbLine
 10
80.771762
 20
163.414867
 30
0.0
 11
81.011762
 21
163.654867
 31
0.0
  0
LINE
  5
8D2
100
AcDbEntity
  8
0
 62
     0
100
AcDbLine
 10
80.683373
 20
163.414867
 30
0.0
 11
80.923373
 21
163.654867
 31
0.0
  0
LINE
  5
8D3
100
AcDbEntity
  8
0
 62
     0
100
AcDbLine
 10
80.594985
 20
163.414867
 30
0.0
 11
80.834985
 21
163.654867
 31
0.0
  0
LINE
  5
8D4
100
AcDbEntity
  8
0
 62
     0
100
AcDbLine
 10
80.506597
 20
163.414867
 30
0.0
 11
80.746597
 21
163.654867
 31
0.0
  0
LINE
  5
8D5
100
AcDbEntity
  8
0
 62
     0
100
AcDbLine
 10
80.158208
 20
163.154867
 30
0.0
 11
80.360637
 21
163.357295
 31
0.0
  0
LINE
  5
8D6
100
AcDbEntity
  8
0
 62
     0
100
AcDbLine
 10
80.657047
 20
163.653706
 30
0.0
 11
80.658208
 21
163.654867
 31
0.0
  0
LINE
  5
8D7
100
AcDbEntity
  8
0
 62
     0
100
AcDbLine
 10
80.06982
 20
163.154867
 30
0.0
 11
80.56982
 21
163.654867
 31
0.0
  0
LINE
  5
8D8
100
AcDbEntity
  8
0
 62
     0
100
AcDbLine
 10
80.013399
 20
163.186834
 30
0.0
 11
80.481432
 21
163.654867
 31
0.0
  0
LINE
  5
8D9
100
AcDbEntity
  8
0
 62
     0
100
AcDbLine
 10
79.980835
 20
163.242659
 30
0.0
 11
80.393043
 21
163.654867
 31
0.0
  0
LINE
  5
8DA
100
AcDbEntity
  8
0
 62
     0
100
AcDbLine
 10
79.948271
 20
163.298483
 30
0.0
 11
80.304655
 21
163.654867
 31
0.0
  0
LINE
  5
8DB
100
AcDbEntity
  8
0
 62
     0
100
AcDbLine
 10
79.969547
 20
163.408147
 30
0.0
 11
80.216267
 21
163.654867
 31
0.0
  0
LINE
  5
8DC
100
AcDbEntity
  8
0
 62
     0
100
AcDbLine
 10
79.969547
 20
163.496536
 30
0.0
 11
80.127878
 21
163.654867
 31
0.0
  0
LINE
  5
8DD
100
AcDbEntity
  8
0
 62
     0
100
AcDbLine
 10
79.93949
 20
163.554867
 30
0.0
 11
80.03949
 21
163.654867
 31
0.0
  0
LINE
  5
8DE
100
AcDbEntity
  8
0
 62
     0
100
AcDbLine
 10
79.869547
 20
163.573312
 30
0.0
 11
79.951102
 21
163.654867
 31
0.0
  0
LINE
  5
8DF
100
AcDbEntity
  8
0
 62
     0
100
AcDbLine
 10
81.407047
 20
163.431434
 30
0.0
 11
81.63048
 21
163.654867
 31
0.0
  0
LINE
  5
8E0
100
AcDbEntity
  8
0
 62
     0
100
AcDbLine
 10
81.478868
 20
163.414867
 30
0.0
 11
81.718868
 21
163.654867
 31
0.0
  0
LINE
  5
8E1
100
AcDbEntity
  8
0
 62
     0
100
AcDbLine
 10
81.567257
 20
163.414867
 30
0.0
 11
81.807257
 21
163.654867
 31
0.0
  0
LINE
  5
8E2
100
AcDbEntity
  8
0
 62
     0
100
AcDbLine
 10
81.655645
 20
163.414867
 30
0.0
 11
81.895645
 21
163.654867
 31
0.0
  0
LINE
  5
8E3
100
AcDbEntity
  8
0
 62
     0
100
AcDbLine
 10
81.744034
 20
163.414867
 30
0.0
 11
81.984034
 21
163.654867
 31
0.0
  0
LINE
  5
8E4
100
AcDbEntity
  8
0
 62
     0
100
AcDbLine
 10
81.832422
 20
163.414867
 30
0.0
 11
82.072422
 21
163.654867
 31
0.0
  0
LINE
  5
8E5
100
AcDbEntity
  8
0
 62
     0
100
AcDbLine
 10
81.92081
 20
163.414867
 30
0.0
 11
82.16081
 21
163.654867
 31
0.0
  0
LINE
  5
8E6
100
AcDbEntity
  8
0
 62
     0
100
AcDbLine
 10
82.009199
 20
163.414867
 30
0.0
 11
82.249199
 21
163.654867
 31
0.0
  0
LINE
  5
8E7
100
AcDbEntity
  8
0
 62
     0
100
AcDbLine
 10
82.067249
 20
163.384529
 30
0.0
 11
82.337587
 21
163.654867
 31
0.0
  0
LINE
  5
8E8
100
AcDbEntity
  8
0
 62
     0
100
AcDbLine
 10
82.088247
 20
163.317139
 30
0.0
 11
82.425975
 21
163.654867
 31
0.0
  0
LINE
  5
8E9
100
AcDbEntity
  8
0
 62
     0
100
AcDbLine
 10
82.143037
 20
163.28354
 30
0.0
 11
82.514364
 21
163.654867
 31
0.0
  0
LINE
  5
8EA
100
AcDbEntity
  8
0
 62
     0
100
AcDbLine
 10
82.18051
 20
163.232625
 30
0.0
 11
82.469547
 21
163.521662
 31
0.0
  0
LINE
  5
8EB
100
AcDbEntity
  8
0
 62
     0
100
AcDbLine
 10
82.502752
 20
163.554867
 30
0.0
 11
82.569547
 21
163.621662
 31
0.0
  0
LINE
  5
8EC
100
AcDbEntity
  8
0
 62
     0
100
AcDbLine
 10
82.208565
 20
163.172292
 30
0.0
 11
82.469547
 21
163.433274
 31
0.0
  0
LINE
  5
8ED
100
AcDbEntity
  8
0
 62
     0
100
AcDbLine
 10
82.279529
 20
163.154867
 30
0.0
 11
82.469547
 21
163.344885
 31
0.0
  0
LINE
  5
8EE
100
AcDbEntity
  8
0
 62
     0
100
AcDbLine
 10
82.367917
 20
163.154867
 30
0.0
 11
82.461829
 21
163.248779
 31
0.0
  0
LINE
  5
8EF
100
AcDbEntity
  8
0
 62
     0
100
AcDbLine
 10
81.032047
 20
163.538511
 30
0.0
 11
80.915691
 21
163.654867
 31
0.0
  0
LINE
  5
8F0
100
AcDbEntity
  8
0
 62
     0
100
AcDbLine
 10
81.032047
 20
163.450122
 30
0.0
 11
80.827303
 21
163.654867
 31
0.0
  0
LINE
  5
8F1
100
AcDbEntity
  8
0
 62
     0
100
AcDbLine
 10
80.978915
 20
163.414867
 30
0.0
 11
80.738915
 21
163.654867
 31
0.0
  0
LINE
  5
8F2
100
AcDbEntity
  8
0
 62
     0
100
AcDbLine
 10
80.890526
 20
163.414867
 30
0.0
 11
80.650526
 21
163.654867
 31
0.0
  0
LINE
  5
8F3
100
AcDbEntity
  8
0
 62
     0
100
AcDbLine
 10
80.802138
 20
163.414867
 30
0.0
 11
80.562138
 21
163.654867
 31
0.0
  0
LINE
  5
8F4
100
AcDbEntity
  8
0
 62
     0
100
AcDbLine
 10
80.713749
 20
163.414867
 30
0.0
 11
80.473749
 21
163.654867
 31
0.0
  0
LINE
  5
8F5
100
AcDbEntity
  8
0
 62
     0
100
AcDbLine
 10
80.625361
 20
163.414867
 30
0.0
 11
80.385361
 21
163.654867
 31
0.0
  0
LINE
  5
8F6
100
AcDbEntity
  8
0
 62
     0
100
AcDbLine
 10
80.536973
 20
163.414867
 30
0.0
 11
80.296973
 21
163.654867
 31
0.0
  0
LINE
  5
8F7
100
AcDbEntity
  8
0
 62
     0
100
AcDbLine
 10
80.448584
 20
163.414867
 30
0.0
 11
80.208584
 21
163.654867
 31
0.0
  0
LINE
  5
8F8
100
AcDbEntity
  8
0
 62
     0
100
AcDbLine
 10
80.380364
 20
163.394699
 30
0.0
 11
80.120196
 21
163.654867
 31
0.0
  0
LINE
  5
8F9
100
AcDbEntity
  8
0
 62
     0
100
AcDbLine
 10
80.35709
 20
163.329584
 30
0.0
 11
80.031808
 21
163.654867
 31
0.0
  0
LINE
  5
8FA
100
AcDbEntity
  8
0
 62
     0
100
AcDbLine
 10
80.308801
 20
163.289485
 30
0.0
 11
79.943419
 21
163.654867
 31
0.0
  0
LINE
  5
8FB
100
AcDbEntity
  8
0
 62
     0
100
AcDbLine
 10
80.265492
 20
163.244405
 30
0.0
 11
79.969547
 21
163.540351
 31
0.0
  0
LINE
  5
8FC
100
AcDbEntity
  8
0
 62
     0
100
AcDbLine
 10
79.955031
 20
163.554867
 30
0.0
 11
79.869547
 21
163.640351
 31
0.0
  0
LINE
  5
8FD
100
AcDbEntity
  8
0
 62
     0
100
AcDbLine
 10
80.237868
 20
163.183642
 30
0.0
 11
79.969547
 21
163.451962
 31
0.0
  0
LINE
  5
8FE
100
AcDbEntity
  8
0
 62
     0
100
AcDbLine
 10
80.178254
 20
163.154867
 30
0.0
 11
79.969547
 21
163.363574
 31
0.0
  0
LINE
  5
8FF
100
AcDbEntity
  8
0
 62
     0
100
AcDbLine
 10
80.089866
 20
163.154867
 30
0.0
 11
79.951101
 21
163.293632
 31
0.0
  0
LINE
  5
900
100
AcDbEntity
  8
0
 62
     0
100
AcDbLine
 10
81.032047
 20
163.626899
 30
0.0
 11
81.00408
 21
163.654867
 31
0.0
  0
LINE
  5
901
100
AcDbEntity
  8
0
 62
     0
100
AcDbLine
 10
81.420856
 20
163.414867
 30
0.0
 11
81.407047
 21
163.428676
 31
0.0
  0
LINE
  5
902
100
AcDbEntity
  8
0
 62
     0
100
AcDbLine
 10
81.509245
 20
163.414867
 30
0.0
 11
81.407047
 21
163.517064
 31
0.0
  0
LINE
  5
903
100
AcDbEntity
  8
0
 62
     0
100
AcDbLine
 10
81.597633
 20
163.414867
 30
0.0
 11
81.407047
 21
163.605453
 31
0.0
  0
LINE
  5
904
100
AcDbEntity
  8
0
 62
     0
100
AcDbLine
 10
81.686021
 20
163.414867
 30
0.0
 11
81.446021
 21
163.654867
 31
0.0
  0
LINE
  5
905
100
AcDbEntity
  8
0
 62
     0
100
AcDbLine
 10
81.77441
 20
163.414867
 30
0.0
 11
81.53441
 21
163.654867
 31
0.0
  0
LINE
  5
906
100
AcDbEntity
  8
0
 62
     0
100
AcDbLine
 10
81.862798
 20
163.414867
 30
0.0
 11
81.622798
 21
163.654867
 31
0.0
  0
LINE
  5
907
100
AcDbEntity
  8
0
 62
     0
100
AcDbLine
 10
81.951186
 20
163.414867
 30
0.0
 11
81.711186
 21
163.654867
 31
0.0
  0
LINE
  5
908
100
AcDbEntity
  8
0
 62
     0
100
AcDbLine
 10
82.299575
 20
163.154867
 30
0.0
 11
81.799575
 21
163.654867
 31
0.0
  0
LINE
  5
909
100
AcDbEntity
  8
0
 62
     0
100
AcDbLine
 10
82.387174
 20
163.155655
 30
0.0
 11
81.887963
 21
163.654867
 31
0.0
  0
LINE
  5
90A
100
AcDbEntity
  8
0
 62
     0
100
AcDbLine
 10
82.43258
 20
163.198638
 30
0.0
 11
81.976351
 21
163.654867
 31
0.0
  0
LINE
  5
90B
100
AcDbEntity
  8
0
 62
     0
100
AcDbLine
 10
82.465144
 20
163.254462
 30
0.0
 11
82.06474
 21
163.654867
 31
0.0
  0
LINE
  5
90C
100
AcDbEntity
  8
0
 62
     0
100
AcDbLine
 10
82.469547
 20
163.338448
 30
0.0
 11
82.153128
 21
163.654867
 31
0.0
  0
LINE
  5
90D
100
AcDbEntity
  8
0
 62
     0
100
AcDbLine
 10
82.469547
 20
163.426836
 30
0.0
 11
82.241516
 21
163.654867
 31
0.0
  0
LINE
  5
90E
100
AcDbEntity
  8
0
 62
     0
100
AcDbLine
 10
82.469547
 20
163.515224
 30
0.0
 11
82.329905
 21
163.654867
 31
0.0
  0
LINE
  5
90F
100
AcDbEntity
  8
0
 62
     0
100
AcDbLine
 10
82.518293
 20
163.554867
 30
0.0
 11
82.418293
 21
163.654867
 31
0.0
  0
LINE
  5
910
100
AcDbEntity
  8
0
 62
     0
100
AcDbLine
 10
82.569547
 20
163.592001
 30
0.0
 11
82.506681
 21
163.654867
 31
0.0
  0
ENDBLK
  5
911
100
AcDbEntity
  8
0
100
AcDbBlockEnd
  0
BLOCK
  5
912
100
AcDbEntity
  8
0
100
AcDbBlockBegin
  2
*D1
 70
     1
 10
0.0
 20
0.0
 30
0.0
  3
*D1
  1

  0
LINE
  5
913
100
AcDbEntity
  8
0
  6
BYBLOCK
 62
     0
100
AcDbLine
 10
146.546956
 20
97.615701
 30
0.0
 11
146.546956
 21
96.755363
 31
0.0
  0
LINE
  5
914
100
AcDbEntity
  8
0
  6
BYBLOCK
 62
     0
100
AcDbLine
 10
149.046956
 20
97.615701
 30
0.0
 11
149.046956
 21
96.755363
 31
0.0
  0
LINE
  5
915
100
AcDbEntity
  8
0
  6
BYBLOCK
 62
     0
100
AcDbLine
 10
146.676956
 20
96.935363
 30
0.0
 11
147.360289
 21
96.935363
 31
0.0
  0
LINE
  5
916
100
AcDbEntity
  8
0
  6
BYBLOCK
 62
     0
100
AcDbLine
 10
148.916956
 20
96.935363
 30
0.0
 11
148.233623
 21
96.935363
 31
0.0
  0
SOLID
  5
917
100
AcDbEntity
  8
0
  6
BYBLOCK
 62
     0
100
AcDbTrace
 10
146.676956
 20
96.95703
 30
0.0
 11
146.676956
 21
96.913697
 31
0.0
 12
146.546956
 22
96.935363
 32
0.0
 13
146.546956
 23
96.935363
 33
0.0
  0
SOLID
  5
918
100
AcDbEntity
  8
0
  6
BYBLOCK
 62
     0
100
AcDbTrace
 10
148.916956
 20
96.95703
 30
0.0
 11
148.916956
 21
96.913697
 31
0.0
 12
149.046956
 22
96.935363
 32
0.0
 13
149.046956
 23
96.935363
 33
0.0
  0
TEXT
  5
919
100
AcDbEntity
  8
0
  6
BYBLOCK
 62
     0
100
AcDbText
 10
147.431718
 20
96.870363
 30
0.0
 40
0.13
  1
2 1/2"
  7
ROMANS
 72
     1
 11
147.796956
 21
96.935363
 31
0.0
100
AcDbText
 73
     2
  0
POINT
  5
91B
100
AcDbEntity
  8
DEFPOINTS
  6
BYBLOCK
 62
     0
100
AcDbPoint
 10
146.546956
 20
97.678201
 30
0.0
  0
POINT
  5
91C
100
AcDbEntity
  8
DEFPOINTS
  6
BYBLOCK
 62
     0
100
AcDbPoint
 10
149.046956
 20
97.678201
 30
0.0
  0
POINT
  5
91D
100
AcDbEntity
  8
DEFPOINTS
  6
BYBLOCK
 62
     0
100
AcDbPoint
 10
149.046956
 20
96.935363
 30
0.0
  0
ENDBLK
  5
91E
100
AcDbEntity
  8
0
100
AcDbBlockEnd
  0
BLOCK
  5
91F
100
AcDbEntity
  8
0
100
AcDbBlockBegin
  2
*X2
 70
     1
 10
0.0
 20
0.0
 30
0.0
  3
*X2
  1

  0
LINE
  5
920
100
AcDbEntity
  8
0
 62
     0
100
AcDbLine
 10
146.54122
 20
102.7006
 30
0.0
 11
147.245237
 21
103.404617
 31
0.0
  0
LINE
  5
921
100
AcDbEntity
  8
0
 62
     0
100
AcDbLine
 10
146.54122
 20
102.877377
 30
0.0
 11
146.877721
 21
103.213877
 31
0.0
  0
LINE
  5
922
100
AcDbEntity
  8
0
 62
     0
100
AcDbLine
 10
146.54122
 20
103.054153
 30
0.0
 11
146.753748
 21
103.266681
 31
0.0
  0
LINE
  5
923
100
AcDbEntity
  8
0
 62
     0
100
AcDbLine
 10
146.625919
 20
102.608522
 30
0.0
 11
146.84122
 21
102.823823
 31
0.0
  0
LINE
  5
924
100
AcDbEntity
  8
0
 62
     0
100
AcDbLine
 10
146.885617
 20
102.86822
 30
0.0
 11
147.34122
 21
103.323823
 31
0.0
  0
LINE
  5
925
100
AcDbEntity
  8
0
 62
     0
100
AcDbLine
 10
146.714307
 20
102.520133
 30
0.0
 11
146.84122
 21
102.647047
 31
0.0
  0
LINE
  5
926
100
AcDbEntity
  8
0
 62
     0
100
AcDbLine
 10
147.062394
 20
102.86822
 30
0.0
 11
147.34122
 21
103.147047
 31
0.0
  0
LINE
  5
927
100
AcDbEntity
  8
0
 62
     0
100
AcDbLine
 10
147.239171
 20
102.86822
 30
0.0
 11
147.34122
 21
102.97027
 31
0.0
  0
LINE
  5
928
100
AcDbEntity
  8
0
 62
     0
100
AcDbLine
 10
146.91725
 20
102.86822
 30
0.0
 11
146.566735
 21
103.218735
 31
0.0
  0
LINE
  5
929
100
AcDbEntity
  8
0
 62
     0
100
AcDbLine
 10
146.84122
 20
102.767473
 30
0.0
 11
146.54122
 21
103.067473
 31
0.0
  0
LINE
  5
92A
100
AcDbEntity
  8
0
 62
     0
100
AcDbLine
 10
146.84122
 20
102.590697
 30
0.0
 11
146.54122
 21
102.890697
 31
0.0
  0
LINE
  5
92B
100
AcDbEntity
  8
0
 62
     0
100
AcDbLine
 10
146.76192
 20
102.49322
 30
0.0
 11
146.54122
 21
102.71392
 31
0.0
  0
LINE
  5
92C
100
AcDbEntity
  8
0
 62
     0
100
AcDbLine
 10
147.094027
 20
102.86822
 30
0.0
 11
146.655124
 21
103.307123
 31
0.0
  0
LINE
  5
92D
100
AcDbEntity
  8
0
 62
     0
100
AcDbLine
 10
147.270804
 20
102.86822
 30
0.0
 11
146.937999
 21
103.201025
 31
0.0
  0
LINE
  5
92E
100
AcDbEntity
  8
0
 62
     0
100
AcDbLine
 10
147.34122
 20
102.97458
 30
0.0
 11
147.044321
 21
103.27148
 31
0.0
  0
LINE
  5
92F
100
AcDbEntity
  8
0
 62
     0
100
AcDbLine
 10
147.34122
 20
103.151357
 30
0.0
 11
147.150643
 21
103.341934
 31
0.0
  0
LINE
  5
930
100
AcDbEntity
  8
0
 62
     0
100
AcDbLine
 10
147.34122
 20
103.328134
 30
0.0
 11
147.256965
 21
103.412388
 31
0.0
  0
ENDBLK
  5
931
100
AcDbEntity
  8
0
100
AcDbBlockEnd
  0
ENDSEC
  0
SECTION
  2
ENTITIES
  0
LINE
  5
932
100
AcDbEntity
  8
DIM
 62
     2
100
AcDbLine
 39
20.0
 10
87.771865
 20
111.930354
 30
0.0
 11
87.271865
 21
111.930354
 31
0.0
  0
LINE
  5
933
100
AcDbEntity
  8
DIM
 62
     2
100
AcDbLine
 39
20.0
 10
87.771865
 20
106.830354
 30
0.0
 11
87.771865
 21
111.930354
 31
0.0
  0
LINE
  5
934
100
AcDbEntity
  8
DIM
 62
     2
100
AcDbLine
 39
20.0
 10
87.771865
 20
106.830354
 30
0.0
 11
87.271865
 21
106.830354
 31
0.0
  0
LINE
  5
935
100
AcDbEntity
  8
CENTER
 62
     3
100
AcDbLine
 39
20.0
 10
88.021865
 20
109.380354
 30
0.0
 11
86.771865
 21
109.380354
 31
0.0
  0
LINE
  5
936
100
AcDbEntity
  8
DIM
 62
     2
100
AcDbLine
 39
20.0
 10
87.271865
 20
106.455354
 30
0.0
 11
87.171865
 21
106.455354
 31
0.0
  0
LINE
  5
937
100
AcDbEntity
  8
DIM
 62
     2
100
AcDbLine
 39
20.0
 10
87.171865
 20
106.455354
 30
0.0
 11
87.171865
 21
112.305354
 31
0.0
  0
LINE
  5
938
100
AcDbEntity
  8
DIM
 62
     2
100
AcDbLine
 39
20.0
 10
87.271865
 20
106.455354
 30
0.0
 11
87.271865
 21
112.305354
 31
0.0
  0
TEXT
  5
939
100
AcDbEntity
  8
DIM
100
AcDbText
 10
90.695764
 20
110.994671
 30
0.0
 40
0.159824
  1
PART
  7
ROMANS
100
AcDbText
  0
TEXT
  5
93A
100
AcDbEntity
  8
DIM
100
AcDbText
 10
90.783428
 20
110.735909
 30
0.0
 40
0.159824
  1
NO.
  7
ROMANS
100
AcDbText
  0
TEXT
  5
93B
100
AcDbEntity
  8
DIM
100
AcDbText
 10
91.558158
 20
110.994671
 30
0.0
 40
0.159824
  1
PIPE
  7
ROMANS
100
AcDbText
  0
TEXT
  5
93C
100
AcDbEntity
  8
DIM
100
AcDbText
 10
91.558158
 20
110.735909
 30
0.0
 40
0.159824
  1
SIZE
  7
ROMANS
100
AcDbText
  0
TEXT
  5
93D
100
AcDbEntity
  8
DIM
100
AcDbText
 10
90.655088
 20
110.299394
 30
0.0
 40
0.159824
  1
G038  
  7
ROMANS
100
AcDbText
  0
TEXT
  5
93E
100
AcDbEntity
  8
DIM
100
AcDbText
 10
91.608156
 20
110.299394
 30
0.0
 40
0.159824
  1
3/8
  7
ROMANS
100
AcDbText
  0
LINE
  5
93F
100
AcDbEntity
  8
DIM
100
AcDbLine
 10
91.400931
 20
111.615521
 30
0.0
 11
91.400931
 21
106.516742
 31
0.0
  0
LINE
  5
940
100
AcDbEntity
  8
DIM
100
AcDbLine
 10
92.254338
 20
111.615521
 30
0.0
 11
92.254338
 21
106.516742
 31
0.0
  0
TEXT
  5
941
100
AcDbEntity
  8
DIM
100
AcDbText
 10
91.439771
 20
111.258081
 30
0.0
 40
0.159824
  1
NOMINAL
 41
0.773481
  7
ROMANS
 72
     5
 11
92.216814
 21
111.258081
 31
0.0
100
AcDbText
  0
TEXT
  5
942
100
AcDbEntity
  8
DIM
100
AcDbText
 10
92.303772
 20
111.258081
 30
0.0
 40
0.159824
  1
ACTUAL
 41
0.919815
  7
ROMANS
 72
     5
 11
93.080815
 21
111.258081
 31
0.0
100
AcDbText
  0
TEXT
  5
943
100
AcDbEntity
  8
DIM
100
AcDbText
 10
92.409281
 20
110.994671
 30
0.0
 40
0.159824
  1
PIPE
  7
ROMANS
100
AcDbText
  0
TEXT
  5
944
100
AcDbEntity
  8
DIM
100
AcDbText
 10
92.441477
 20
110.735909
 30
0.0
 40
0.159824
  1
O.D.
  7
ROMANS
100
AcDbText
  0
TEXT
  5
945
100
AcDbEntity
  8
DIM
100
AcDbText
 10
93.307285
 20
110.994671
 30
0.0
 40
0.159824
  1
SAW
  7
ROMANS
100
AcDbText
  0
TEXT
  5
946
100
AcDbEntity
  8
DIM
100
AcDbText
 10
93.280829
 20
110.735909
 30
0.0
 40
0.159824
  1
SIZE
  7
ROMANS
100
AcDbText
  0
TEXT
  5
947
100
AcDbEntity
  8
DIM
100
AcDbText
 10
93.236735
 20
111.273898
 30
0.0
 40
0.159824
  1
HOLE
  7
ROMANS
100
AcDbText
  0
LINE
  5
948
100
AcDbEntity
  8
CENTER
100
AcDbLine
 10
86.363231
 20
109.380354
 30
0.0
 11
79.984698
 21
109.380354
 31
0.0
  0
CIRCLE
  5
949
100
AcDbEntity
  8
OBJECT
100
AcDbCircle
 10
83.173964
 20
109.380354
 30
0.0
 40
2.939266
  0
ARC
  5
94A
100
AcDbEntity
  8
HIDDEN
100
AcDbCircle
 10
83.836409
 20
101.465115
 30
0.0
 40
1.25
100
AcDbArc
 50
320.799269
 51
320.299011
  0
LINE
  5
94B
100
AcDbEntity
  8
OBJECT
100
AcDbLine
 10
89.002935
 20
101.891024
 30
0.0
 11
89.134765
 21
101.891024
 31
0.0
  0
LINE
  5
94C
100
AcDbEntity
  8
OBJECT
100
AcDbLine
 10
88.911716
 20
102.291024
 30
0.0
 11
88.911716
 21
102.05717
 31
0.0
  0
LINE
  5
94D
100
AcDbEntity
  8
CENTER
100
AcDbLine
 10
83.836409
 20
103.065115
 30
0.0
 11
83.836409
 21
99.865115
 31
0.0
  0
LINE
  5
94E
100
AcDbEntity
  8
OBJECT
100
AcDbLine
 10
88.811716
 20
102.391024
 30
0.0
 11
89.974216
 21
102.391024
 31
0.0
  0
LINE
  5
94F
100
AcDbEntity
  8
OBJECT
100
AcDbLine
 10
88.811716
 20
102.391024
 30
0.0
 11
88.811716
 21
102.291024
 31
0.0
  0
LINE
  5
950
100
AcDbEntity
  8
OBJECT
100
AcDbLine
 10
91.511716
 20
102.391024
 30
0.0
 11
91.511716
 21
102.291024
 31
0.0
  0
LINE
  5
951
100
AcDbEntity
  8
OBJECT
100
AcDbLine
 10
88.811716
 20
102.291024
 30
0.0
 11
88.911716
 21
102.291024
 31
0.0
  0
LINE
  5
952
100
AcDbEntity
  8
OBJECT
100
AcDbLine
 10
88.959746
 20
101.91583
 30
0.0
 11
88.886716
 21
102.041024
 31
0.0
  0
LINE
  5
953
100
AcDbEntity
  8
OBJECT
100
AcDbLine
 10
88.886716
 20
102.041024
 30
0.0
 11
88.911716
 21
102.05717
 31
0.0
  0
LINE
  5
954
100
AcDbEntity
  8
OBJECT
100
AcDbLine
 10
89.371694
 20
102.151024
 30
0.0
 11
89.974216
 21
102.151024
 31
0.0
  0
ARC
  5
955
100
AcDbEntity
  8
OBJECT
100
AcDbCircle
 10
89.410173
 20
101.853903
 30
0.0
 40
0.238859
100
AcDbArc
 50
134.312765
 51
162.4461
  0
ARC
  5
956
100
AcDbEntity
  8
OBJECT
100
AcDbCircle
 10
89.240424
 20
102.087468
 30
0.0
 40
0.062719
100
AcDbArc
 50
272.639764
 51
347.659592
  0
LINE
  5
957
100
AcDbEntity
  8
OBJECT
100
AcDbLine
 10
89.301694
 20
102.074064
 30
0.0
 11
89.301694
 21
102.081024
 31
0.0
  0
ARC
  5
958
100
AcDbEntity
  8
OBJECT
100
AcDbCircle
 10
89.371694
 20
102.081024
 30
0.0
 40
0.07
100
AcDbArc
 50
90.0
 51
180.0
  0
ARC
  5
959
100
AcDbEntity
  8
OBJECT
100
AcDbCircle
 10
89.002935
 20
101.941024
 30
0.0
 40
0.05
100
AcDbArc
 50
210.256437
 51
270.0
  0
ARC
  5
95A
100
AcDbEntity
  8
OBJECT
100
AcDbCircle
 10
89.134765
 20
101.941024
 30
0.0
 40
0.05
100
AcDbArc
 50
270.0
 51
342.4461
  0
LINE
  5
95B
100
AcDbEntity
  8
OBJECT
100
AcDbLine
 10
89.974216
 20
102.391024
 30
0.0
 11
89.974216
 21
102.151024
 31
0.0
  0
LINE
  5
95C
100
AcDbEntity
  8
OBJECT
100
AcDbLine
 10
90.349216
 20
102.391024
 30
0.0
 11
90.349216
 21
102.151024
 31
0.0
  0
LINE
  5
95D
100
AcDbEntity
  8
OBJECT
100
AcDbLine
 10
91.411716
 20
102.291024
 30
0.0
 11
91.511716
 21
102.291024
 31
0.0
  0
ARC
  5
95E
100
AcDbEntity
  8
OBJECT
100
AcDbCircle
 10
91.188667
 20
101.941024
 30
0.0
 40
0.05
100
AcDbArc
 50
197.5539
 51
270.0
  0
LINE
  5
95F
100
AcDbEntity
  8
OBJECT
100
AcDbLine
 10
91.363687
 20
101.91583
 30
0.0
 11
91.436716
 21
102.041024
 31
0.0
  0
LINE
  5
960
100
AcDbEntity
  8
OBJECT
100
AcDbLine
 10
91.320498
 20
101.891024
 30
0.0
 11
91.188667
 21
101.891024
 31
0.0
  0
ARC
  5
961
100
AcDbEntity
  8
OBJECT
100
AcDbCircle
 10
91.320498
 20
101.941024
 30
0.0
 40
0.05
100
AcDbArc
 50
270.0
 51
329.743563
  0
ARC
  5
962
100
AcDbEntity
  8
OBJECT
100
AcDbCircle
 10
90.913259
 20
101.853903
 30
0.0
 40
0.238859
100
AcDbArc
 50
17.5539
 51
45.687235
  0
ARC
  5
963
100
AcDbEntity
  8
OBJECT
100
AcDbCircle
 10
90.951739
 20
102.081024
 30
0.0
 40
0.07
100
AcDbArc
 50
0.0
 51
90.0
  0
LINE
  5
964
100
AcDbEntity
  8
OBJECT
100
AcDbLine
 10
91.021739
 20
102.074064
 30
0.0
 11
91.021739
 21
102.081024
 31
0.0
  0
ARC
  5
965
100
AcDbEntity
  8
OBJECT
100
AcDbCircle
 10
91.083009
 20
102.087468
 30
0.0
 40
0.062719
100
AcDbArc
 50
192.340408
 51
267.360236
  0
LINE
  5
966
100
AcDbEntity
  8
OBJECT
100
AcDbLine
 10
91.436716
 20
102.041024
 30
0.0
 11
91.411716
 21
102.05717
 31
0.0
  0
LINE
  5
967
100
AcDbEntity
  8
OBJECT
100
AcDbLine
 10
91.411716
 20
102.291024
 30
0.0
 11
91.411716
 21
102.05717
 31
0.0
  0
LINE
  5
968
100
AcDbEntity
  8
HIDDEN
100
AcDbLine
 10
89.599216
 20
102.391024
 30
0.0
 11
89.599216
 21
102.151024
 31
0.0
  0
LINE
  5
969
100
AcDbEntity
  8
HIDDEN
100
AcDbLine
 10
90.724216
 20
102.391024
 30
0.0
 11
90.724216
 21
102.151024
 31
0.0
  0
LINE
  5
96A
100
AcDbEntity
  8
OBJECT
100
AcDbLine
 10
90.349216
 20
102.391024
 30
0.0
 11
91.511716
 21
102.391024
 31
0.0
  0
LINE
  5
96B
100
AcDbEntity
  8
OBJECT
100
AcDbLine
 10
90.349216
 20
102.151024
 30
0.0
 11
90.951739
 21
102.151024
 31
0.0
  0
INSERT
  5
96C
100
AcDbEntity
  8
HATCH
100
AcDbBlockReference
  2
*X0
 10
8.942169
 20
-61.263843
 30
0.0
1001
ACAD
1000
HATCH
1002
{
1070
    16
1000
ANSI37
1040
0.5
1040
0.0
1002
}
  0
LINE
  5
96D
100
AcDbEntity
  8
OBJECT
100
AcDbLine
 10
89.974216
 20
102.391024
 30
0.0
 11
90.349216
 21
102.391024
 31
0.0
  0
LINE
  5
96E
100
AcDbEntity
  8
OBJECT
100
AcDbLine
 10
89.974216
 20
102.151024
 30
0.0
 11
90.349216
 21
102.151024
 31
0.0
  0
LINE
  5
96F
100
AcDbEntity
  8
OBJECT
100
AcDbLine
 10
89.120424
 20
101.891024
 30
0.0
 11
91.188667
 21
101.891024
 31
0.0
  0
ARC
  5
970
100
AcDbEntity
  8
OBJECT
100
AcDbCircle
 10
83.836409
 20
101.465115
 30
0.0
 40
0.1875
100
AcDbArc
 50
323.635912
 51
320.299011
  0
ARC
  5
971
100
AcDbEntity
  8
OBJECT
100
AcDbCircle
 10
83.836409
 20
101.465115
 30
0.0
 40
1.35
100
AcDbArc
 50
320.762212
 51
320.299011
  0
ARC
  5
972
100
AcDbEntity
  8
HIDDEN
100
AcDbCircle
 10
83.836409
 20
101.465115
 30
0.0
 40
1.026951
100
AcDbArc
 50
320.907927
 51
320.299011
  0
CIRCLE
  5
973
100
AcDbEntity
  8
HIDDEN
100
AcDbCircle
 10
83.461409
 20
101.840115
 30
0.0
 40
0.1875
  0
CIRCLE
  5
974
100
AcDbEntity
  8
HIDDEN
100
AcDbCircle
 10
84.211409
 20
101.840115
 30
0.0
 40
0.1875
  0
LINE
  5
975
100
AcDbEntity
  8
OBJECT
100
AcDbLine
 10
83.98067
 20
101.345344
 30
0.0
 11
84.875084
 21
100.602761
 31
0.0
  0
LINE
  5
976
100
AcDbEntity
  8
OBJECT
100
AcDbLine
 10
83.987397
 20
101.353944
 30
0.0
 11
84.882022
 21
100.611186
 31
0.0
  0
TEXT
  5
977
100
AcDbEntity
  8
OBJECT
100
AcDbText
 10
83.678842
 20
102.525546
 30
0.0
 40
0.152402
  1
L
 50
13.396349
  7
ROMANS
100
AcDbText
  0
TEXT
  5
978
100
AcDbEntity
  8
OBJECT
100
AcDbText
 10
83.478761
 20
102.4654
 30
0.0
 40
0.152402
  1
A
 50
13.599498
  7
ROMANS
100
AcDbText
  0
TEXT
  5
979
100
AcDbEntity
  8
OBJECT
100
AcDbText
 10
83.294717
 20
102.363828
 30
0.0
 40
0.152402
  1
E
 50
26.268774
  7
ROMANS
100
AcDbText
  0
TEXT
  5
97A
100
AcDbEntity
  8
OBJECT
100
AcDbText
 10
83.135375
 20
102.254149
 30
0.0
 40
0.152402
  1
S
 50
33.958875
  7
ROMANS
100
AcDbText
  0
TEXT
  5
97B
100
AcDbEntity
  8
OBJECT
100
AcDbText
 10
82.818548
 20
101.827113
 30
0.0
 40
0.152402
  1
D
 50
55.244204
  7
ROMANS
100
AcDbText
  0
TEXT
  5
97C
100
AcDbEntity
  8
OBJECT
100
AcDbText
 10
82.769362
 20
101.633917
 30
0.0
 40
0.152402
  1
R
 50
65.832439
  7
ROMANS
100
AcDbText
  0
TEXT
  5
97D
100
AcDbEntity
  8
OBJECT
100
AcDbText
 10
82.725881
 20
101.281989
 30
0.0
 40
0.152402
  1
 O
 50
76.420674
  7
ROMANS
100
AcDbText
  0
TEXT
  5
97E
100
AcDbEntity
  8
OBJECT
100
AcDbText
 10
82.780439
 20
101.237057
 30
0.0
 40
0.152402
  1
C
 50
87.00891
  7
ROMANS
100
AcDbText
  0
LINE
  5
97F
100
AcDbEntity
  8
CENTER
100
AcDbLine
 10
85.522055
 20
101.465115
 30
0.0
 11
82.150764
 21
101.465115
 31
0.0
  0
LINE
  5
980
100
AcDbEntity
  8
CENTER
100
AcDbLine
 10
85.522055
 20
101.465115
 30
0.0
 11
85.522055
 21
102.001905
 31
0.0
  0
TEXT
  5
981
100
AcDbEntity
  8
DIM
100
AcDbText
 10
85.451745
 20
102.029812
 30
0.0
 40
0.13125
  1
B
  7
ROMANS
100
AcDbText
  0
LINE
  5
982
100
AcDbEntity
  8
CENTER
100
AcDbLine
 10
82.150764
 20
101.465115
 30
0.0
 11
82.150764
 21
102.001905
 31
0.0
  0
TEXT
  5
983
100
AcDbEntity
  8
DIM
100
AcDbText
 10
89.553224
 20
100.639554
 30
0.0
 40
0.13125
  1
SECTION B-B
  7
ROMANS
100
AcDbText
  0
LINE
  5
984
100
AcDbEntity
  8
DIM
100
AcDbLine
 10
89.553224
 20
100.606328
 30
0.0
 11
90.906021
 21
100.606328
 31
0.0
  0
LINE
  5
985
100
AcDbEntity
  8
CENTER
100
AcDbLine
 10
90.161716
 20
102.72667
 30
0.0
 11
90.161716
 21
101.555378
 31
0.0
  0
TEXT
  5
986
100
AcDbEntity
  8
DIM
100
AcDbText
 10
85.295766
 20
101.45332
 30
0.0
 40
0.13125
  1
C
  7
ROMANS
100
AcDbText
  0
TEXT
  5
987
100
AcDbEntity
  8
DIM
100
AcDbText
 10
85.336768
 20
101.390991
 30
0.0
 40
0.13125
  1
L
  7
ROMANS
100
AcDbText
  0
TEXT
  5
988
100
AcDbEntity
  8
DIM
100
AcDbText
 10
83.796845
 20
99.646303
 30
0.0
 40
0.13125
  1
L
  7
ROMANS
100
AcDbText
  0
TEXT
  5
989
100
AcDbEntity
  8
DIM
100
AcDbText
 10
83.755842
 20
99.708632
 30
0.0
 40
0.13125
  1
C
  7
ROMANS
100
AcDbText
  0
LINE
  5
98A
100
AcDbEntity
  8
DIM
100
AcDbLine
 10
82.030411
 20
100.278863
 30
0.0
 11
81.855411
 21
100.278863
 31
0.0
  0
TEXT
  5
98B
100
AcDbEntity
  8
DIM
100
AcDbText
 10
80.850411
 20
100.213238
 30
0.0
 40
0.13125
  1
3/8" DIA.
  7
ROMANS
 72
     2
 11
81.787911
 21
100.278863
 31
0.0
100
AcDbText
 73
     2
  0
TEXT
  5
98C
100
AcDbEntity
  8
DIM
100
AcDbText
 10
80.501558
 20
99.98882
 30
0.0
 40
0.13125
  1
PRE-DRILLED
  7
ROMANS
 72
     2
 11
81.801558
 21
100.054445
 31
0.0
100
AcDbText
 73
     2
  0
TEXT
  5
98D
100
AcDbEntity
  8
DIM
100
AcDbText
 10
80.861723
 20
102.585786
 30
0.0
 40
0.13125
  1
3/8" DIA.
  7
ROMANS
 72
     2
 11
81.799223
 21
102.651411
 31
0.0
100
AcDbText
 73
     2
  0
TEXT
  5
98E
100
AcDbEntity
  8
DIM
100
AcDbText
 10
80.450411
 20
102.802019
 30
0.0
 40
0.13125
  1
(2) OPTIONAL
  7
ROMANS
 72
     2
 11
81.787911
 21
102.867644
 31
0.0
100
AcDbText
 73
     2
  0
LINE
  5
98F
100
AcDbEntity
  8
DIM
100
AcDbLine
 10
82.030411
 20
102.877386
 30
0.0
 11
81.855411
 21
102.877386
 31
0.0
  0
LINE
  5
990
100
AcDbEntity
  8
DIM
100
AcDbLine
 10
83.296247
 20
101.92887
 30
0.0
 11
82.030411
 21
102.877386
 31
0.0
  0
TEXT
  5
991
100
AcDbEntity
  8
DIM
100
AcDbText
 10
80.519161
 20
102.382265
 30
0.0
 40
0.13125
  1
CORD HOLES
  7
ROMANS
 72
     2
 11
81.787911
 21
102.44789
 31
0.0
100
AcDbText
 73
     2
  0
TEXT
  5
992
100
AcDbEntity
  8
DIM
100
AcDbText
 10
80.651558
 20
99.788025
 30
0.0
 40
0.13125
  1
CORD HOLE
  7
ROMANS
 72
     2
 11
81.801558
 21
99.85365
 31
0.0
100
AcDbText
 73
     2
  0
LINE
  5
993
100
AcDbEntity
  8
DIM
100
AcDbLine
 10
84.722435
 20
100.743682
 30
0.0
 11
85.880253
 21
101.431317
 31
0.0
  0
LINE
  5
994
100
AcDbEntity
  8
DIM
100
AcDbLine
 10
85.880253
 20
101.431317
 30
0.0
 11
86.055253
 21
101.431317
 31
0.0
  0
TEXT
  5
995
100
AcDbEntity
  8
DIM
100
AcDbText
 10
86.122753
 20
101.365692
 30
0.0
 40
0.13125
  1
CUT
  7
ROMANS
 11
86.122753
 21
101.431317
 31
0.0
100
AcDbText
 73
     2
  0
TEXT
  5
E32
100
AcDbEntity
  8
DIM
 62
     6
100
AcDbText
 10
83.741757
 20
114.533451
 30
0.0
 40
0.392294
  1
PIPE SEAL GROMMET
  7
ROMAND
 72
     1
 11
86.870771
 21
114.533451
 31
0.0
100
AcDbText
  0
TEXT
  5
E33
100
AcDbEntity
  8
DIM
100
AcDbText
 10
79.8002
 20
98.812665
 30
0.0
 40
0.130755
  1
INSTALLATION INSTRUCTIONS:
  7
ROMANS
100
AcDbText
  0
TEXT
  5
E34
100
AcDbEntity
  8
DIM
100
AcDbText
 10
79.8002
 20
98.5281
 30
0.0
 40
0.130755
  1
 1. PULL ELECTRIC CORD THROUGH 2" HOLE.
  7
ROMANS
100
AcDbText
  0
TEXT
  5
E35
100
AcDbEntity
  8
DIM
100
AcDbText
 10
79.8002
 20
98.313166
 30
0.0
 40
0.130755
  1
 2. WORK CORD THROUGH CUT IN SEAL.
  7
ROMANS
100
AcDbText
  0
TEXT
  5
E36
100
AcDbEntity
  8
DIM
100
AcDbText
 10
79.8002
 20
98.08597
 30
0.0
 40
0.130755
  1
 3. STARTING AT ONE EDGE OF THE CUT
  7
ROMANS
100
AcDbText
  0
TEXT
  5
E37
100
AcDbEntity
  8
DIM
100
AcDbText
 10
80.252418
 20
97.874271
 30
0.0
 40
0.130755
  1
WORK EDGE OF 2" HOLE INTO THE LIP
  7
ROMANS
100
AcDbText
  0
TEXT
  5
E38
100
AcDbEntity
  8
DIM
100
AcDbText
 10
80.25887
 20
97.662573
 30
0.0
 40
0.130755
  1
OF THE CORD SEAL.
  7
ROMANS
100
AcDbText
  0
LINE
  5
E39
100
AcDbEntity
  8
DIM
100
AcDbLine
 10
79.827722
 20
98.790353
 30
0.0
 11
82.608124
 21
98.790353
 31
0.0
  0
SOLID
  5
E3A
100
AcDbEntity
  8
DIM
100
AcDbTrace
 10
83.921589
 20
102.015909
 30
0.0
 11
83.906144
 21
101.968354
 31
0.0
 12
84.056531
 22
101.945799
 32
0.0
 13
84.056531
 23
101.945799
 33
0.0
  0
LINE
  5
E3B
100
AcDbEntity
  8
DIM
100
AcDbLine
 10
83.913867
 20
101.992132
 30
0.0
 11
82.67478
 21
102.394547
 31
0.0
  0
SOLID
  5
E3C
100
AcDbEntity
  8
DIM
100
AcDbTrace
 10
83.191199
 20
102.038824
 30
0.0
 11
83.161216
 21
101.998811
 31
0.0
 12
83.296247
 22
101.92887
 32
0.0
 13
83.296247
 23
101.92887
 33
0.0
  0
SOLID
  5
E3D
100
AcDbEntity
  8
DIM
100
AcDbTrace
 10
84.86417
 20
100.798783
 30
0.0
 11
84.838638
 21
100.841772
 31
0.0
 12
84.722435
 22
100.743682
 32
0.0
 13
84.722435
 23
100.743682
 33
0.0
  0
SOLID
  5
E3E
100
AcDbEntity
  8
DIM
100
AcDbTrace
 10
82.125764
 20
101.851905
 30
0.0
 11
82.175764
 21
101.851905
 31
0.0
 12
82.150764
 22
102.001905
 32
0.0
 13
82.150764
 23
102.001905
 33
0.0
  0
SOLID
  5
E3F
100
AcDbEntity
  8
DIM
100
AcDbTrace
 10
85.497055
 20
101.851905
 30
0.0
 11
85.547055
 21
101.851905
 31
0.0
 12
85.522055
 22
102.001905
 32
0.0
 13
85.522055
 23
102.001905
 33
0.0
  0
TEXT
  5
E40
100
AcDbEntity
  8
DIM
100
AcDbText
 10
81.549909
 20
113.976722
 30
0.0
 40
0.1725
  1
THE PIPE SEAL GROMMET IS DESIGNED TO SEAL PIPING PENETRATIONS THROUGH
  7
ROMANS
 72
     1
 11
86.954909
 21
113.976722
 31
0.0
100
AcDbText
  0
TEXT
  5
E41
100
AcDbEntity
  8
DIM
100
AcDbText
 10
82.157766
 20
113.697436
 30
0.0
 40
0.1725
  1
FLAT AND CURVED SURFACES.  THE USER SIMPLY CUTS THE REQUIRED
  7
ROMANS
 72
     1
 11
86.954909
 21
113.697436
 31
0.0
100
AcDbText
  0
TEXT
  5
E42
100
AcDbEntity
  8
DIM
100
AcDbText
 10
82.190624
 20
113.418151
 30
0.0
 40
0.1725
  1
ENTRY HOLE, LUBRICATES THE PIPE AND SEAL, AND FORCES THE PIPE
  7
ROMANS
 72
     1
 11
86.954909
 21
113.418151
 31
0.0
100
AcDbText
  0
TEXT
  5
E43
100
AcDbEntity
  8
DIM
100
AcDbText
 10
81.878481
 20
113.138865
 30
0.0
 40
0.1725
  1
THROUGH THE SEAL.  THE OUTSIDE DIAMETER OF THE PIPE SEAL GROMMET
  7
ROMANS
 72
     1
 11
86.954909
 21
113.138865
 31
0.0
100
AcDbText
  0
TEXT
  5
E44
100
AcDbEntity
  8
DIM
100
AcDbText
 10
83.632231
 20
112.859579
 30
0.0
 40
0.1725
  1
EXPANDS SEALING THE PIPE TO THE BASIN WALL.
  7
ROMANS
 72
     1
 11
86.954909
 21
112.859579
 31
0.0
100
AcDbText
  0
TEXT
  5
E45
100
AcDbEntity
  8
DIM
100
AcDbText
 10
83.093544
 20
99.383345
 30
0.0
 40
0.13125
  1
PART NO. ECG
  7
ROMANS
100
AcDbText
  0
LINE
  5
E46
100
AcDbEntity
  8
DIM
100
AcDbLine
 10
83.082049
 20
99.56021
 30
0.0
 11
84.567882
 21
99.56021
 31
0.0
  0
LINE
  5
E47
100
AcDbEntity
  8
DIM
100
AcDbLine
 10
84.567882
 20
99.56021
 30
0.0
 11
84.567882
 21
99.342795
 31
0.0
  0
LINE
  5
E48
100
AcDbEntity
  8
DIM
100
AcDbLine
 10
84.567882
 20
99.342795
 30
0.0
 11
83.082049
 21
99.342795
 31
0.0
  0
LINE
  5
E49
100
AcDbEntity
  8
DIM
100
AcDbLine
 10
83.082049
 20
99.56021
 30
0.0
 11
83.082049
 21
99.342795
 31
0.0
  0
LWPOLYLINE
  5
E4A
100
AcDbEntity
  8
DIM
 62
     6
100
AcDbPolyline
 90
        2
 70
     0
 43
0.032691
 39
2.615295
 10
82.132223
 20
104.983457
 10
91.678297
 20
104.983457
  0
TEXT
  5
E4E
100
AcDbEntity
  8
DIM
100
AcDbText
 10
82.999731
 20
103.177256
 30
0.0
 40
0.1725
  1
WITH ONE PRE-DRILLED HOLE AND HAS TWO INDENTS FOR
  7
ROMANS
 72
     1
 11
86.954909
 21
103.177256
 31
0.0
100
AcDbText
  0
TEXT
  5
E4F
100
AcDbEntity
  8
DIM
100
AcDbText
 10
83.090088
 20
103.456542
 30
0.0
 40
0.1725
  1
THE COVER PLATE.  CORD SEAL GROMMETS ARE SHIPPED
  7
ROMANS
 72
     1
 11
86.954909
 21
103.456542
 31
0.0
100
AcDbText
  0
TEXT
  5
E50
100
AcDbEntity
  8
DIM
100
AcDbText
 10
82.642409
 20
103.735828
 30
0.0
 40
0.1725
  1
GROMMET IS ENGINEERED TO WORK WITH A 2 1/2" OPENING IN
  7
ROMANS
 72
     1
 11
86.954909
 21
103.735828
 31
0.0
100
AcDbText
  0
TEXT
  5
E51
100
AcDbEntity
  8
DIM
100
AcDbText
 10
83.090088
 20
104.015113
 30
0.0
 40
0.1725
  1
STEEL AND FIBERGLASS BASIN COVERS.  THE CORD SEAL
  7
ROMANS
 72
     1
 11
86.954909
 21
104.015113
 31
0.0
100
AcDbText
  0
TEXT
  5
E52
100
AcDbEntity
  8
DIM
100
AcDbText
 10
82.917588
 20
104.294399
 30
0.0
 40
0.1725
  1
A GAS TIGHT SEAL FOR ELECTRIC CORDS PASSING THROUGH
  7
ROMANS
 72
     1
 11
86.954909
 21
104.294399
 31
0.0
100
AcDbText
  0
TEXT
  5
E53
100
AcDbEntity
  8
DIM
100
AcDbText
 10
82.769731
 20
104.573685
 30
0.0
 40
0.1725
  1
THE ELECTRIC CORD SEAL GROMMET IS DESIGNED TO PROVIDE
  7
ROMANS
 72
     1
 11
86.954909
 21
104.573685
 31
0.0
100
AcDbText
  0
TEXT
  5
E54
100
AcDbEntity
  8
DIM
 62
     6
100
AcDbText
 10
82.060496
 20
105.130414
 30
0.0
 40
0.392294
  1
ELECTRIC CORD SEAL GROMMET
  7
ROMAND
 72
     1
 11
86.870771
 21
105.130414
 31
0.0
100
AcDbText
  0
TEXT
  5
E55
100
AcDbEntity
  8
DIM
100
AcDbText
 10
85.706338
 20
102.897971
 30
0.0
 40
0.1725
  1
ADDITIONAL CORDS.
  7
ROMANS
 72
     1
 11
86.954909
 21
102.897971
 31
0.0
100
AcDbText
  0
LWPOLYLINE
  5
E56
100
AcDbEntity
  8
DIM
 62
     6
100
AcDbPolyline
 90
        2
 70
     0
 43
0.032691
 39
2.615295
 10
83.751258
 20
114.386494
 10
90.020332
 20
114.386494
  0
LINE
  5
E5A
100
AcDbEntity
  8
CENTER
100
AcDbLine
 10
83.173964
 20
112.56962
 30
0.0
 11
83.173964
 21
106.191087
 31
0.0
  0
LINE
  5
E5B
100
AcDbEntity
  8
CENTER
 62
     3
100
AcDbLine
 39
20.0
 10
89.924673
 20
109.380354
 30
0.0
 11
88.674673
 21
109.380354
 31
0.0
  0
TEXT
  5
E5C
100
AcDbEntity
  8
DIM
100
AcDbText
 10
88.593301
 20
106.103818
 30
0.0
 40
0.13125
  1
SECTION A-A
  7
ROMANS
100
AcDbText
  0
LINE
  5
E5D
100
AcDbEntity
  8
DIM
100
AcDbLine
 10
88.593301
 20
106.070592
 30
0.0
 11
89.946099
 21
106.070592
 31
0.0
  0
TEXT
  5
E5E
100
AcDbEntity
  8
DIM
100
AcDbText
 10
86.315545
 20
109.945051
 30
0.0
 40
0.13125
  1
A
  7
ROMANS
100
AcDbText
  0
SOLID
  5
E5F
100
AcDbEntity
  8
DIM
100
AcDbTrace
 10
86.338231
 20
109.767144
 30
0.0
 11
86.388231
 21
109.767144
 31
0.0
 12
86.363231
 22
109.917144
 32
0.0
 13
86.363231
 23
109.917144
 33
0.0
  0
LINE
  5
E60
100
AcDbEntity
  8
CENTER
100
AcDbLine
 10
86.363231
 20
109.380354
 30
0.0
 11
86.363231
 21
109.917144
 31
0.0
  0
SOLID
  5
E61
100
AcDbEntity
  8
DIM
100
AcDbTrace
 10
79.959698
 20
109.767144
 30
0.0
 11
80.009698
 21
109.767144
 31
0.0
 12
79.984698
 22
109.917144
 32
0.0
 13
79.984698
 23
109.917144
 33
0.0
  0
TEXT
  5
E62
100
AcDbEntity
  8
DIM
100
AcDbText
 10
79.937012
 20
109.945051
 30
0.0
 40
0.13125
  1
A
  7
ROMANS
100
AcDbText
  0
LINE
  5
E63
100
AcDbEntity
  8
CENTER
100
AcDbLine
 10
79.984698
 20
109.380354
 30
0.0
 11
79.984698
 21
109.917144
 31
0.0
  0
LINE
  5
E64
100
AcDbEntity
  8
DIM
100
AcDbLine
 10
93.107746
 20
111.615521
 30
0.0
 11
93.107746
 21
106.516742
 31
0.0
  0
LWPOLYLINE
  5
E65
100
AcDbEntity
  8
DIM
 62
     6
100
AcDbPolyline
 90
        2
 70
     0
 43
0.032691
 39
2.615295
 10
90.582786
 20
111.615521
 10
93.961153
 20
111.615521
  0
LWPOLYLINE
  5
E69
100
AcDbEntity
  8
DIM
 62
     6
100
AcDbPolyline
 90
        2
 70
     0
 43
0.032691
 39
2.615295
 10
90.582786
 20
111.615521
 10
90.582786
 20
106.516742
  0
LWPOLYLINE
  5
E6D
100
AcDbEntity
  8
DIM
 62
     6
100
AcDbPolyline
 90
        2
 70
     0
 43
0.032691
 39
2.615295
 10
90.582786
 20
110.562054
 10
93.961153
 20
110.562054
  0
TEXT
  5
E71
100
AcDbEntity
  8
DIM
100
AcDbText
 10
92.389072
 20
110.299394
 30
0.0
 40
0.159824
  1
.675
  7
ROMANS
100
AcDbText
  0
TEXT
  5
E72
100
AcDbEntity
  8
DIM
100
AcDbText
 10
93.475931
 20
110.299394
 30
0.0
 40
0.159824
  1
1
  7
ROMANS
100
AcDbText
  0
TEXT
  5
E73
100
AcDbEntity
  8
DIM
100
AcDbText
 10
91.608156
 20
109.894863
 30
0.0
 40
0.159824
  1
1/2
  7
ROMANS
100
AcDbText
  0
TEXT
  5
E74
100
AcDbEntity
  8
DIM
100
AcDbText
 10
90.655088
 20
109.894863
 30
0.0
 40
0.159824
  1
G050
  7
ROMANS
100
AcDbText
  0
TEXT
  5
E75
100
AcDbEntity
  8
DIM
100
AcDbText
 10
92.389072
 20
109.894863
 30
0.0
 40
0.159824
  1
.840
  7
ROMANS
100
AcDbText
  0
TEXT
  5
E76
100
AcDbEntity
  8
DIM
100
AcDbText
 10
93.111249
 20
109.894863
 30
0.0
 40
0.159824
  1
1 1/4
  7
ROMANS
100
AcDbText
  0
LWPOLYLINE
  5
E77
100
AcDbEntity
  8
DIM
 62
     6
100
AcDbPolyline
 90
        2
 70
     0
 43
0.032691
 39
2.615295
 10
90.582786
 20
110.157523
 10
93.961153
 20
110.157523
  0
TEXT
  5
E7B
100
AcDbEntity
  8
DIM
100
AcDbText
 10
91.608156
 20
109.490331
 30
0.0
 40
0.159824
  1
3/4
  7
ROMANS
100
AcDbText
  0
TEXT
  5
E7C
100
AcDbEntity
  8
DIM
100
AcDbText
 10
90.655088
 20
109.490331
 30
0.0
 40
0.159824
  1
G075
  7
ROMANS
100
AcDbText
  0
TEXT
  5
E7D
100
AcDbEntity
  8
DIM
100
AcDbText
 10
92.326196
 20
109.490331
 30
0.0
 40
0.159824
  1
1.050
  7
ROMANS
100
AcDbText
  0
TEXT
  5
E7E
100
AcDbEntity
  8
DIM
100
AcDbText
 10
93.111249
 20
109.490331
 30
0.0
 40
0.159824
  1
1 1/4
  7
ROMANS
100
AcDbText
  0
LWPOLYLINE
  5
E7F
100
AcDbEntity
  8
DIM
 62
     6
100
AcDbPolyline
 90
        2
 70
     0
 43
0.032691
 39
2.615295
 10
90.582786
 20
109.752992
 10
93.961153
 20
109.752992
  0
TEXT
  5
E83
100
AcDbEntity
  8
DIM
100
AcDbText
 10
91.696182
 20
109.0858
 30
0.0
 40
0.159824
  1
1
  7
ROMANS
100
AcDbText
  0
TEXT
  5
E84
100
AcDbEntity
  8
DIM
100
AcDbText
 10
90.655088
 20
109.0858
 30
0.0
 40
0.159824
  1
G100
  7
ROMANS
100
AcDbText
  0
TEXT
  5
E85
100
AcDbEntity
  8
DIM
100
AcDbText
 10
92.326196
 20
109.0858
 30
0.0
 40
0.159824
  1
1.315
  7
ROMANS
100
AcDbText
  0
TEXT
  5
E86
100
AcDbEntity
  8
DIM
100
AcDbText
 10
93.111249
 20
109.0858
 30
0.0
 40
0.159824
  1
1 3/4
  7
ROMANS
100
AcDbText
  0
LWPOLYLINE
  5
E87
100
AcDbEntity
  8
DIM
 62
     6
100
AcDbPolyline
 90
        2
 70
     0
 43
0.032691
 39
2.615295
 10
90.582786
 20
109.348461
 10
93.961153
 20
109.348461
  0
TEXT
  5
E8B
100
AcDbEntity
  8
DIM
100
AcDbText
 10
91.444678
 20
108.681269
 30
0.0
 40
0.159824
  1
1 1/4
  7
ROMANS
100
AcDbText
  0
TEXT
  5
E8C
100
AcDbEntity
  8
DIM
100
AcDbText
 10
90.655088
 20
108.681269
 30
0.0
 40
0.159824
  1
G125
  7
ROMANS
100
AcDbText
  0
TEXT
  5
E8D
100
AcDbEntity
  8
DIM
100
AcDbText
 10
92.326196
 20
108.681269
 30
0.0
 40
0.159824
  1
1.660
  7
ROMANS
100
AcDbText
  0
TEXT
  5
E8E
100
AcDbEntity
  8
DIM
100
AcDbText
 10
93.475931
 20
108.681269
 30
0.0
 40
0.159824
  1
3
  7
ROMANS
100
AcDbText
  0
LWPOLYLINE
  5
E8F
100
AcDbEntity
  8
DIM
 62
     6
100
AcDbPolyline
 90
        2
 70
     0
 43
0.032691
 39
2.615295
 10
90.582786
 20
108.943929
 10
93.961153
 20
108.943929
  0
TEXT
  5
E93
100
AcDbEntity
  8
DIM
100
AcDbText
 10
91.444678
 20
108.276738
 30
0.0
 40
0.159824
  1
1 1/2
  7
ROMANS
100
AcDbText
  0
TEXT
  5
E94
100
AcDbEntity
  8
DIM
100
AcDbText
 10
90.655088
 20
108.276738
 30
0.0
 40
0.159824
  1
G150
  7
ROMANS
100
AcDbText
  0
TEXT
  5
E95
100
AcDbEntity
  8
DIM
100
AcDbText
 10
92.326196
 20
108.276738
 30
0.0
 40
0.159824
  1
1.900
  7
ROMANS
100
AcDbText
  0
TEXT
  5
E96
100
AcDbEntity
  8
DIM
100
AcDbText
 10
93.475931
 20
108.276738
 30
0.0
 40
0.159824
  1
3
  7
ROMANS
100
AcDbText
  0
LWPOLYLINE
  5
E97
100
AcDbEntity
  8
DIM
 62
     6
100
AcDbPolyline
 90
        2
 70
     0
 43
0.032691
 39
2.615295
 10
90.582786
 20
108.539398
 10
93.961153
 20
108.539398
  0
TEXT
  5
E9B
100
AcDbEntity
  8
DIM
100
AcDbText
 10
91.721332
 20
107.872206
 30
0.0
 40
0.159824
  1
2
  7
ROMANS
100
AcDbText
  0
TEXT
  5
E9C
100
AcDbEntity
  8
DIM
100
AcDbText
 10
90.655088
 20
107.872206
 30
0.0
 40
0.159824
  1
G200
  7
ROMANS
100
AcDbText
  0
TEXT
  5
E9D
100
AcDbEntity
  8
DIM
100
AcDbText
 10
92.326196
 20
107.872206
 30
0.0
 40
0.159824
  1
2.375
  7
ROMANS
100
AcDbText
  0
TEXT
  5
E9E
100
AcDbEntity
  8
DIM
100
AcDbText
 10
93.475931
 20
107.872206
 30
0.0
 40
0.159824
  1
3
  7
ROMANS
100
AcDbText
  0
LWPOLYLINE
  5
E9F
100
AcDbEntity
  8
DIM
 62
     6
100
AcDbPolyline
 90
        2
 70
     0
 43
0.032691
 39
2.615295
 10
90.582786
 20
108.134867
 10
93.961153
 20
108.134867
  0
TEXT
  5
EA3
100
AcDbEntity
  8
DIM
100
AcDbText
 10
91.721332
 20
107.467675
 30
0.0
 40
0.159824
  1
3
  7
ROMANS
100
AcDbText
  0
TEXT
  5
EA4
100
AcDbEntity
  8
DIM
100
AcDbText
 10
90.655088
 20
107.467675
 30
0.0
 40
0.159824
  1
G300
  7
ROMANS
100
AcDbText
  0
TEXT
  5
EA5
100
AcDbEntity
  8
DIM
100
AcDbText
 10
92.326196
 20
107.467675
 30
0.0
 40
0.159824
  1
3.500
  7
ROMANS
100
AcDbText
  0
TEXT
  5
EA6
100
AcDbEntity
  8
DIM
100
AcDbText
 10
93.475931
 20
107.467675
 30
0.0
 40
0.159824
  1
4
  7
ROMANS
100
AcDbText
  0
LWPOLYLINE
  5
EA7
100
AcDbEntity
  8
DIM
 62
     6
100
AcDbPolyline
 90
        2
 70
     0
 43
0.032691
 39
2.615295
 10
90.582786
 20
107.730335
 10
93.961153
 20
107.730335
  0
TEXT
  5
EAB
100
AcDbEntity
  8
DIM
100
AcDbText
 10
91.721332
 20
107.063144
 30
0.0
 40
0.159824
  1
4
  7
ROMANS
100
AcDbText
  0
TEXT
  5
EAC
100
AcDbEntity
  8
DIM
100
AcDbText
 10
90.655088
 20
107.063144
 30
0.0
 40
0.159824
  1
G400
  7
ROMANS
100
AcDbText
  0
TEXT
  5
EAD
100
AcDbEntity
  8
DIM
100
AcDbText
 10
92.326196
 20
107.063144
 30
0.0
 40
0.159824
  1
4.500
  7
ROMANS
100
AcDbText
  0
TEXT
  5
EAE
100
AcDbEntity
  8
DIM
100
AcDbText
 10
93.475931
 20
107.063144
 30
0.0
 40
0.159824
  1
5
  7
ROMANS
100
AcDbText
  0
LWPOLYLINE
  5
EAF
100
AcDbEntity
  8
DIM
 62
     6
100
AcDbPolyline
 90
        2
 70
     0
 43
0.032691
 39
2.615295
 10
90.582786
 20
107.325804
 10
93.961153
 20
107.325804
  0
TEXT
  5
EB3
100
AcDbEntity
  8
DIM
100
AcDbText
 10
91.721332
 20
106.658613
 30
0.0
 40
0.159824
  1
6
  7
ROMANS
100
AcDbText
  0
TEXT
  5
EB4
100
AcDbEntity
  8
DIM
100
AcDbText
 10
90.655088
 20
106.658613
 30
0.0
 40
0.159824
  1
G600
  7
ROMANS
100
AcDbText
  0
TEXT
  5
EB5
100
AcDbEntity
  8
DIM
100
AcDbText
 10
92.326196
 20
106.658613
 30
0.0
 40
0.159824
  1
6.625
  7
ROMANS
100
AcDbText
  0
TEXT
  5
EB6
100
AcDbEntity
  8
DIM
100
AcDbText
 10
93.475931
 20
106.658613
 30
0.0
 40
0.159824
  1
7
  7
ROMANS
100
AcDbText
  0
LWPOLYLINE
  5
EB7
100
AcDbEntity
  8
DIM
 62
     6
100
AcDbPolyline
 90
        2
 70
     0
 43
0.032691
 39
2.615295
 10
90.582786
 20
106.921273
 10
93.961153
 20
106.921273
  0
LWPOLYLINE
  5
EBB
100
AcDbEntity
  8
DIM
 62
     6
100
AcDbPolyline
 90
        2
 70
     0
 43
0.032691
 39
2.615295
 10
90.582786
 20
106.516742
 10
93.961153
 20
106.516742
  0
LWPOLYLINE
  5
EBF
100
AcDbEntity
  8
DIM
 62
     6
100
AcDbPolyline
 90
        2
 70
     0
 43
0.032691
 39
2.615295
 10
93.961153
 20
111.615521
 10
93.961153
 20
106.516742
  0
TEXT
  5
EC3
100
AcDbEntity
  8
DIM
100
AcDbText
 10
83.105684
 20
106.049991
 30
0.0
 40
0.13125
  1
C
  7
ROMANS
100
AcDbText
  0
TEXT
  5
EC4
100
AcDbEntity
  8
DIM
100
AcDbText
 10
83.146687
 20
105.987662
 30
0.0
 40
0.13125
  1
L
  7
ROMANS
100
AcDbText
  0
DIMENSION
  5
EC5
100
AcDbEntity
  8
DIM
100
AcDbDimension
  2
*D1
 10
91.411716
 20
101.314333
 30
0.0
 11
90.161716
 21
101.314333
 31
0.0
 12
-57.63524
 22
4.378969
 32
0.0
  1
2 1/2"
100
AcDbAlignedDimension
 13
88.911716
 23
102.05717
 33
0.0
 14
91.411716
 24
102.05717
 34
0.0
100
AcDbRotatedDimension
  0
TEXT
  5
EC6
100
AcDbEntity
  8
DIM
100
AcDbText
 10
82.08077
 20
102.029812
 30
0.0
 40
0.13125
  1
B
  7
ROMANS
100
AcDbText
  0
SOLID
  5
EC7
100
AcDbEntity
  8
DIM
100
AcDbTrace
 10
83.60607
 20
101.262799
 30
0.0
 11
83.628592
 21
101.225778
 31
0.0
 12
83.728393
 22
101.311855
 32
0.0
 13
83.728393
 23
101.311855
 33
0.0
  0
LINE
  5
EC8
100
AcDbEntity
  8
DIM
100
AcDbLine
 10
83.617331
 20
101.244289
 30
0.0
 11
82.030411
 21
100.278863
 31
0.0
  0
LINE
  5
ECA
100
AcDbEntity
  8
DIM
 62
     2
100
AcDbLine
 39
20.0
 10
86.971865
 20
106.655354
 30
0.0
 11
86.971865
 21
112.105354
 31
0.0
  0
LINE
  5
ECB
100
AcDbEntity
  8
OBJECT
100
AcDbLine
 10
87.171865
 20
106.455354
 30
0.0
 11
86.971865
 21
106.655354
 31
0.0
  0
LINE
  5
ECC
100
AcDbEntity
  8
OBJECT
100
AcDbLine
 10
87.171865
 20
112.305354
 30
0.0
 11
86.971865
 21
112.105354
 31
0.0
  0
LINE
  5
ECD
100
AcDbEntity
  8
DIM
 62
     2
100
AcDbLine
 39
20.0
 10
87.271865
 20
112.305354
 30
0.0
 11
87.171865
 21
112.305354
 31
0.0
  0
CIRCLE
  5
ECE
100
AcDbEntity
  8
OBJECT
100
AcDbCircle
 10
83.173964
 20
109.380354
 30
0.0
 40
2.725
  0
CIRCLE
  5
ECF
100
AcDbEntity
  8
OBJECT
100
AcDbCircle
 10
83.173964
 20
109.380354
 30
0.0
 40
2.225
  0
LINE
  5
ED0
100
AcDbEntity
  8
OBJECT
100
AcDbLine
 10
89.105981
 20
106.455354
 30
0.0
 11
88.905981
 21
106.655354
 31
0.0
  0
LINE
  5
ED1
100
AcDbEntity
  8
DIM
 62
     2
100
AcDbLine
 39
20.0
 10
89.205981
 20
106.455354
 30
0.0
 11
89.205981
 21
106.830354
 31
0.0
  0
LINE
  5
ED2
100
AcDbEntity
  8
DIM
 62
     2
100
AcDbLine
 39
20.0
 10
89.205981
 20
106.455354
 30
0.0
 11
89.105981
 21
106.455354
 31
0.0
  0
LINE
  5
ED3
100
AcDbEntity
  8
DIM
 62
     2
100
AcDbLine
 39
20.0
 10
88.905981
 20
106.655354
 30
0.0
 11
88.905981
 21
112.105354
 31
0.0
  0
LINE
  5
ED4
100
AcDbEntity
  8
DIM
 62
     2
100
AcDbLine
 39
20.0
 10
89.705981
 20
106.830354
 30
0.0
 11
89.705981
 21
111.930354
 31
0.0
  0
LINE
  5
ED5
100
AcDbEntity
  8
DIM
 62
     2
100
AcDbLine
 39
20.0
 10
89.705981
 20
106.830354
 30
0.0
 11
89.205981
 21
106.830354
 31
0.0
  0
LINE
  5
ED6
100
AcDbEntity
  8
OBJECT
100
AcDbLine
 10
89.020981
 20
107.270354
 30
0.0
 11
88.905981
 21
107.155354
 31
0.0
  0
LINE
  5
ED7
100
AcDbEntity
  8
OBJECT
100
AcDbLine
 10
89.020981
 20
107.270354
 30
0.0
 11
89.290981
 21
107.155354
 31
0.0
  0
LINE
  5
ED8
100
AcDbEntity
  8
OBJECT
100
AcDbLine
 10
89.705981
 20
107.430354
 30
0.0
 11
89.290981
 21
107.155354
 31
0.0
  0
INSERT
  5
ED9
100
AcDbEntity
  8
HATCH
100
AcDbBlockReference
  2
*X2
 10
-57.63524
 20
3.962134
 30
0.0
1001
ACAD
1000
HATCH
1002
{
1070
    16
1000
ANSI37
1040
1.0
1040
0.0
1002
}
  0
INSERT
  5
EDA
100
AcDbEntity
  8
HATCH
100
AcDbBlockReference
  2
*X2
 10
-57.63524
 20
214.798574
 30
0.0
 41
-1.0
 50
180.0
1001
ACAD
1000
HATCH
1002
{
1070
    16
1000
ANSI37
1040
1.0
1040
0.0
1002
}
  0
LINE
  5
EDB
100
AcDbEntity
  8
DIM
 62
     2
100
AcDbLine
 39
20.0
 10
89.205981
 20
112.305354
 30
0.0
 11
89.205981
 21
111.930354
 31
0.0
  0
LINE
  5
EDC
100
AcDbEntity
  8
OBJECT
100
AcDbLine
 10
89.105981
 20
112.305354
 30
0.0
 11
88.905981
 21
112.105354
 31
0.0
  0
LINE
  5
EDD
100
AcDbEntity
  8
DIM
 62
     2
100
AcDbLine
 39
20.0
 10
89.205981
 20
112.305354
 30
0.0
 11
89.105981
 21
112.305354
 31
0.0
  0
LINE
  5
EDE
100
AcDbEntity
  8
DIM
 62
     2
100
AcDbLine
 39
20.0
 10
89.705981
 20
111.930354
 30
0.0
 11
89.205981
 21
111.930354
 31
0.0
  0
LINE
  5
EDF
100
AcDbEntity
  8
OBJECT
100
AcDbLine
 10
89.705981
 20
111.330354
 30
0.0
 11
89.290981
 21
111.605354
 31
0.0
  0
LINE
  5
EE0
100
AcDbEntity
  8
OBJECT
100
AcDbLine
 10
89.020981
 20
111.490354
 30
0.0
 11
89.290981
 21
111.605354
 31
0.0
  0
LINE
  5
EE1
100
AcDbEntity
  8
OBJECT
100
AcDbLine
 10
89.020981
 20
111.490354
 30
0.0
 11
88.905981
 21
111.605354
 31
0.0
  0
LINE
  5
EE2
100
AcDbEntity
  8
OBJECT
100
AcDbLine
 10
89.019884
 20
111.49145
 30
0.0
 11
89.020981
 21
107.270354
 31
0.0
  0
LINE
  5
EE3
100
AcDbEntity
  8
OBJECT
100
AcDbLine
 10
89.302759
 20
111.597549
 30
0.0
 11
89.302759
 21
107.163159
 31
0.0
  0
CIRCLE
  5
EE4
100
AcDbEntity
  8
OBJECT
100
AcDbCircle
 10
83.173964
 20
109.380354
 30
0.0
 40
2.11
  0
CIRCLE
  5
EE5
100
AcDbEntity
  8
OBJECT
100
AcDbCircle
 10
83.173964
 20
109.380354
 30
0.0
 40
1.95
  0
TEXT
  5
EE6
100
AcDbEntity
  8
DIM
100
AcDbText
 10
90.611055
 20
106.294394
 30
0.0
 40
0.119868
  1
ALL DIMENSIONS IN INCHES
  7
ROMANS
100
AcDbText
  0
LWPOLYLINE
  5
1BE7
100
AcDbEntity
  8
BORDER
 62
     5
100
AcDbPolyline
 90
        6
 70
     0
 43
0.074163
 10
79.417641
 20
97.609015
 10
79.417641
 20
115.135609
 42
-0.414214
 10
79.584136
 20
115.302104
 10
94.344779
 20
115.302104
 42
-0.414214
 10
94.511274
 20
115.135609
 10
94.511274
 20
97.609015
  0
LWPOLYLINE
  5
1BE8
100
AcDbEntity
  8
BORDER
 62
     5
100
AcDbPolyline
 90
        2
 70
     0
 43
0.041624
 10
79.417641
 20
97.609015
 10
79.417641
 20
115.135609
  0
LINE
  5
1BE9
100
AcDbEntity
  8
LIMITS
 62
     7
100
AcDbLine
 10
79.08465
 20
115.635094
 30
0.0
 11
79.08465
 21
95.2403
 31
0.0
  0
LWPOLYLINE
  5
1BEA
100
AcDbEntity
  8
BORDER
 62
     5
100
AcDbPolyline
 90
        2
 70
     0
 43
0.041624
 10
94.511274
 20
97.609015
 10
94.511274
 20
115.135609
  0
LINE
  5
1BEB
100
AcDbEntity
  8
LIMITS
 62
     7
100
AcDbLine
 10
94.844264
 20
95.2403
 30
0.0
 11
94.844264
 21
115.635094
 31
0.0
  0
LINE
  5
1BEC
100
AcDbEntity
  8
LIMITS
100
AcDbLine
 10
94.844264
 20
115.219718
 30
0.0
 11
94.844264
 21
95.2403
 31
0.0
  0
LINE
  5
1BED
100
AcDbEntity
  8
LIMITS
100
AcDbLine
 10
94.844264
 20
95.2403
 30
0.0
 11
94.844264
 21
115.219718
 31
0.0
  0
LWPOLYLINE
  5
1BEE
100
AcDbEntity
  8
BORDER
 62
     5
100
AcDbPolyline
 90
        2
 70
     0
 43
0.104059
 10
91.805728
 20
97.529608
 42
0.414214
 10
91.38949
 20
97.11337
 42
-0.560527
  0
LWPOLYLINE
  5
1BEF
100
AcDbEntity
  8
BORDER
 62
     5
100
AcDbPolyline
 90
        2
 70
     0
 43
0.104059
 10
94.095036
 20
95.656538
 10
79.833879
 20
95.656538
  0
LINE
  5
1BF0
100
AcDbEntity
  8
LIMITS
 62
     7
100
AcDbLine
 10
79.08465
 20
95.2403
 30
0.0
 11
94.844264
 21
95.2403
 31
0.0
  0
LWPOLYLINE
  5
1BF1
100
AcDbEntity
  8
BORDER
 62
     5
100
AcDbPolyline
 90
        2
 70
     0
 43
0.104059
 10
83.163782
 20
97.529608
 10
90.765133
 20
97.529608
  0
TEXT
  5
1BF2
100
AcDbEntity
  8
BORDER
 62
     6
100
AcDbText
 10
83.818592
 20
96.058861
 30
0.0
 40
0.079371
  1
Rochester, IN  46975
  7
ROMANC
100
AcDbText
  0
TEXT
  5
1BF3
100
AcDbEntity
  8
BORDER
 62
     6
100
AcDbText
 10
83.101975
 20
95.899229
 30
0.0
 40
0.079371
  1
Phone: 800/354-4534  Fax: 574/223-6106
  7
ROMANC
100
AcDbText
  0
LINE
  5
1BF4
100
AcDbEntity
  8
BORDER
100
AcDbLine
 10
82.955663
 20
96.840862
 30
0.0
 11
86.1279
 21
96.840862
 31
0.0
  0
LINE
  5
1BF5
100
AcDbEntity
  8
BORDER
100
AcDbLine
 10
82.955663
 20
96.339511
 30
0.0
 11
87.865101
 21
96.339511
 31
0.0
  0
LINE
  5
1BF6
100
AcDbEntity
  8
BORDER
100
AcDbLine
 10
82.955663
 20
96.489013
 30
0.0
 11
87.865101
 21
96.489013
 31
0.0
  0
LINE
  5
1BF7
100
AcDbEntity
  8
BORDER
100
AcDbLine
 10
83.163782
 20
97.321489
 30
0.0
 11
87.865101
 21
97.321489
 31
0.0
  0
LINE
  5
1BF8
100
AcDbEntity
  8
BORDER
100
AcDbLine
 10
82.955663
 20
95.864657
 30
0.0
 11
87.865101
 21
95.864657
 31
0.0
  0
TEXT
  5
1BF9
100
AcDbEntity
  8
BORDER
 62
     6
100
AcDbText
 10
83.476797
 20
96.199817
 30
0.0
 40
0.079371
  1
Highway 25 North P.O. Box 420
  7
ROMANC
100
AcDbText
  0
ARC
  5
1BFA
100
AcDbEntity
  8
BORDER
100
AcDbCircle
 10
81.166027
 20
96.958201
 30
0.0
 40
0.062475
100
AcDbArc
 50
270.0
 51
90.0
  0
LINE
  5
1BFB
100
AcDbEntity
  8
BORDER
100
AcDbLine
 10
81.177389
 20
96.163348
 30
0.0
 11
81.236565
 21
96.163348
 31
0.0
  0
LINE
  5
1BFC
100
AcDbEntity
  8
BORDER
100
AcDbLine
 10
81.236565
 20
96.251117
 30
0.0
 11
81.177389
 21
96.251117
 31
0.0
  0
ELLIPSE
  5
1BFD
102
{ACAD_REACTORS
330
1BFE
102
}
100
AcDbEntity
  8
BORDER
100
AcDbEllipse
 10
81.033006
 20
96.562141
 30
0.0
 11
0.0000000000000016
 21
0.2324674884068887
 31
0.0
210
0.0
220
0.0
230
1.0
 40
0.93822
 41
0.0
 42
6.283185307179586
  0
HATCH
  5
1BFE
100
AcDbEntity
  8
BORDER
100
AcDbHatch
 10
0.0
 20
0.0
 30
0.0
210
0.0
220
0.0
230
1.0
  2
ANSI37
 70
     0
 71
     1
 91
        2
 92
        5
 93
        1
 72
     3
 10
81.033006
 20
96.562141
 11
0.0
 21
0.232467
 40
0.93822
 50
0.0
 51
360.0
 73
     1
 97
        1
330
1BFD
 92
       20
 93
        1
 72
     3
 10
81.033006
 20
96.563465
 11
0.0
 21
0.208625
 40
0.683214
 50
0.0
 51
360.0
 73
     1
 97
        1
330
1C1E
 75
     0
 76
     1
 52
0.0
 41
0.003224
 77
     0
 78
     2
 53
45.0
 43
79.291979
 44
84.693955
 45
-0.0002850075518983
 46
0.0002850075518983
 79
     0
 53
135.0
 43
79.291979
 44
84.693955
 45
-0.0002850075518983
 46
-0.0002850075518983
 79
     0
 47
0.027301
 98
        2
 10
80.876139
 20
96.656759
 10
80.876139
 20
96.656759
  0
LINE
  5
1BFF
100
AcDbEntity
  8
BORDER
100
AcDbLine
 10
80.914593
 20
96.838165
 30
0.0
 11
81.981135
 21
96.838165
 31
0.0
  0
LINE
  5
1C00
100
AcDbEntity
  8
BORDER
100
AcDbLine
 10
79.938377
 20
96.306184
 30
0.0
 11
82.030357
 21
96.306184
 31
0.0
  0
LINE
  5
1C01
100
AcDbEntity
  8
BORDER
100
AcDbLine
 10
79.938377
 20
96.306184
 30
0.0
 11
82.030357
 21
96.306184
 31
0.0
  0
LWPOLYLINE
  5
1C02
100
AcDbEntity
  8
BORDER
 62
     5
100
AcDbPolyline
 90
        2
 70
     0
 43
0.104059
 10
79.833879
 20
97.529608
 10
82.123187
 20
97.529608
  0
LINE
  5
1C03
100
AcDbEntity
  8
BORDER
100
AcDbLine
 10
79.833879
 20
97.321489
 30
0.0
 11
82.123187
 21
97.321489
 31
0.0
  0
LINE
  5
1C04
100
AcDbEntity
  8
BORDER
100
AcDbLine
 10
79.833879
 20
95.864657
 30
0.0
 11
82.331306
 21
95.864657
 31
0.0
  0
LWPOLYLINE
  5
1C05
100
AcDbEntity
  8
BORDER
 62
     5
100
AcDbPolyline
 90
        2
 70
     0
 43
0.104059
 10
79.833879
 20
95.656538
 42
-0.414214
 10
79.417641
 20
96.072776
 42
0.560527
  0
LWPOLYLINE
  5
1C06
100
AcDbEntity
  8
BORDER
 62
     5
100
AcDbPolyline
 90
        2
 70
     0
 43
0.104059
 10
79.833879
 20
97.529608
 42
0.414214
 10
79.417641
 20
97.11337
 42
-0.560527
  0
LWPOLYLINE
  5
1C07
100
AcDbEntity
  8
BORDER
 62
     5
100
AcDbPolyline
 90
        2
 70
     0
 43
0.104059
 10
79.417641
 20
97.11337
 10
79.417641
 20
96.072776
  0
ARC
  5
1C08
100
AcDbEntity
  8
BORDER
100
AcDbCircle
 10
79.833879
 20
97.11337
 30
0.0
 40
0.208119
100
AcDbArc
 50
90.0
 51
180.0
  0
LINE
  5
1C09
102
{ACAD_REACTORS
330
1C0F
102
}
100
AcDbEntity
  8
BORDER
100
AcDbLine
 10
80.281351
 20
97.048029
 30
0.0
 11
80.374844
 21
97.048029
 31
0.0
  0
ARC
  5
1C0A
100
AcDbEntity
  8
BORDER
100
AcDbCircle
 10
80.360664
 20
96.166876
 30
0.0
 40
0.084263
100
AcDbArc
 50
44.321228
 51
180.91508
  0
ARC
  5
1C0B
102
{ACAD_REACTORS
330
1C0F
102
}
100
AcDbEntity
  8
BORDER
100
AcDbCircle
 10
80.268625
 20
96.463437
 30
0.0
 40
0.106219
100
AcDbArc
 50
270.0
 51
0.0
  0
LINE
  5
1C0C
102
{ACAD_REACTORS
330
1C0F
102
}
100
AcDbEntity
  8
BORDER
100
AcDbLine
 10
80.234417
 20
96.335062
 30
0.0
 11
80.698846
 21
96.335062
 31
0.0
  0
ARC
  5
1C0D
100
AcDbEntity
  8
BORDER
100
AcDbCircle
 10
80.35458
 20
96.158331
 30
0.0
 40
0.078498
100
AcDbArc
 50
174.737783
 51
327.723969
  0
LINE
  5
1C0E
102
{ACAD_REACTORS
330
1C0F
102
}
100
AcDbEntity
  8
BORDER
100
AcDbLine
 10
80.047181
 20
97.102188
 30
0.0
 11
80.886082
 21
97.102188
 31
0.0
  0
HATCH
  5
1C0F
100
AcDbEntity
  8
BORDER
100
AcDbHatch
 10
0.0
 20
0.0
 30
0.0
210
0.0
220
0.0
230
1.0
  2
ANSI37
 70
     0
 71
     1
 91
        1
 92
        7
 72
     1
 73
     1
 93
       18
 10
80.37484407719523
 20
96.46343735822014
 42
-0.4142135623730561
 10
80.2686246555158
 20
96.35721793654074
 42
0.0
 10
80.23441708707544
 20
96.35721793654075
 42
0.0
 10
80.23441708707544
 20
96.33506194012605
 42
0.0
 10
80.69884646735534
 20
96.33506194012609
 42
0.0
 10
80.69884646735532
 20
96.35721793654074
 42
0.0
 10
80.6646388989149
 20
96.35721793654074
 42
-0.4142135623730168
 10
80.55841947723552
 20
96.46343735822014
 42
0.0
 10
80.55841947723553
 20
97.04802871902092
 42
0.0
 10
80.65191206458724
 20
97.04802871902092
 42
-0.4138200196737562
 10
80.86390960597102
 20
96.83631587414348
 42
0.0
 10
80.88608245418177
 20
96.83631587414348
 42
0.0
 10
80.88608245418184
 20
97.10218783111892
 42
0.0
 10
80.04718110024894
 20
97.10218783111892
 42
0.0
 10
80.04718110024894
 20
96.8363158741435
 42
0.0
 10
80.06935394845974
 20
96.83631587414348
 42
-0.4138200196737564
 10
80.28135148984352
 20
97.04802871902092
 42
0.0
 10
80.37484407719523
 20
97.04802871902092
 42
0.0
 97
       18
330
1C30
330
1C2D
330
1C34
330
1C38
330
1C0E
330
1C1C
330
1C1B
330
1C1A
330
1C09
330
1C2E
330
1C0B
330
1C18
330
1C17
330
1C0C
330
1C24
330
1C20
330
1C1D
330
1C2F
 75
     0
 76
     1
 52
0.0
 41
0.003224
 77
     0
 78
     2
 53
45.0
 43
79.291979
 44
84.693955
 45
-0.0002850075518983
 46
0.0002850075518983
 79
     0
 53
135.0
 43
79.291979
 44
84.693955
 45
-0.0002850075518983
 46
-0.0002850075518983
 79
     0
 47
0.049862
 98
        1
 10
80.444103
 20
96.744392
  0
LINE
  5
1C10
100
AcDbEntity
  8
BORDER
100
AcDbLine
 10
79.62576
 20
96.072776
 30
0.0
 11
79.62576
 21
97.11337
 31
0.0
  0
ARC
  5
1C11
100
AcDbEntity
  8
BORDER
100
AcDbCircle
 10
79.833879
 20
96.072776
 30
0.0
 40
0.208119
100
AcDbArc
 50
180.0
 51
270.0
  0
LINE
  5
1C12
100
AcDbEntity
  8
BORDER
100
AcDbLine
 10
80.236263
 20
96.079943
 30
0.0
 11
80.10511
 21
96.251117
 31
0.0
  0
LINE
  5
1C13
100
AcDbEntity
  8
BORDER
100
AcDbLine
 10
79.995115
 20
96.251117
 30
0.0
 11
80.065215
 21
96.251117
 31
0.0
  0
LINE
  5
1C14
100
AcDbEntity
  8
BORDER
100
AcDbLine
 10
79.995115
 20
96.079943
 30
0.0
 11
80.065215
 21
96.079943
 31
0.0
  0
LINE
  5
1C15
100
AcDbEntity
  8
BORDER
100
AcDbLine
 10
80.030165
 20
96.251117
 30
0.0
 11
80.030165
 21
96.079943
 31
0.0
  0
LINE
  5
1C16
100
AcDbEntity
  8
BORDER
100
AcDbLine
 10
80.10511
 20
96.251117
 30
0.0
 11
80.10511
 21
96.079943
 31
0.0
  0
LINE
  5
1C17
102
{ACAD_REACTORS
330
1C0F
102
}
100
AcDbEntity
  8
BORDER
100
AcDbLine
 10
80.234417
 20
96.357218
 30
0.0
 11
80.234417
 21
96.335062
 31
0.0
  0
LINE
  5
1C18
102
{ACAD_REACTORS
330
1C0F
102
}
100
AcDbEntity
  8
BORDER
100
AcDbLine
 10
80.234417
 20
96.357218
 30
0.0
 11
80.268625
 21
96.357218
 31
0.0
  0
LINE
  5
1C19
100
AcDbEntity
  8
BORDER
100
AcDbLine
 10
80.236263
 20
96.251117
 30
0.0
 11
80.236263
 21
96.079943
 31
0.0
  0
ARC
  5
1C1A
102
{ACAD_REACTORS
330
1C0F
102
}
100
AcDbEntity
  8
BORDER
100
AcDbCircle
 10
80.281351
 20
96.836031
 30
0.0
 40
0.211998
100
AcDbArc
 50
90.0
 51
179.923004
  0
LINE
  5
1C1B
102
{ACAD_REACTORS
330
1C0F
102
}
100
AcDbEntity
  8
BORDER
100
AcDbLine
 10
80.047181
 20
96.836316
 30
0.0
 11
80.069354
 21
96.836316
 31
0.0
  0
LINE
  5
1C1C
102
{ACAD_REACTORS
330
1C0F
102
}
100
AcDbEntity
  8
BORDER
100
AcDbLine
 10
80.047181
 20
96.836316
 30
0.0
 11
80.047181
 21
97.102188
 31
0.0
  0
ARC
  5
1C1D
102
{ACAD_REACTORS
330
1C0F
102
}
100
AcDbEntity
  8
BORDER
100
AcDbCircle
 10
80.664639
 20
96.463437
 30
0.0
 40
0.106219
100
AcDbArc
 50
180.0
 51
270.0
  0
ELLIPSE
  5
1C1E
102
{ACAD_REACTORS
330
1BFE
102
}
100
AcDbEntity
  8
BORDER
100
AcDbEllipse
 10
81.033006
 20
96.563465
 30
0.0
 11
0.0000000000000016
 21
0.208624677521576
 31
0.0
210
0.0
220
0.0
230
1.0
 40
0.683214
 41
0.0
 42
6.283185307179586
  0
SPLINE
  5
1C1F
100
AcDbEntity
  8
BORDER
100
AcDbSpline
210
0.0
220
0.0
230
1.0
 70
    11
 71
     3
 72
    24
 73
    20
 74
     0
 42
0.0000001
 43
0.0000001
 40
0.0
 40
0.0
 40
0.0
 40
0.0
 40
0.474866629778075
 40
0.474866629778075
 40
1.277791044886493
 40
1.277791044886493
 40
2.080715459994911
 40
2.080715459994911
 40
2.883639875103329
 40
2.883639875103329
 40
3.686564290211747
 40
3.686564290211747
 40
4.489488705320165
 40
4.489488705320165
 40
5.292413120428583
 40
5.292413120428583
 40
6.095337535537001
 40
6.095337535537001
 40
6.283185307179586
 40
6.283185307179586
 40
6.283185307179586
 40
6.283185307179586
 10
80.53319679954855
 20
96.25343839419073
 30
0.0
 10
80.51932351130345
 20
96.25343839419073
 30
0.0
 10
80.50546190920307
 20
96.2500731951439
 30
0.0
 10
80.47226335419713
 20
96.23295160856759
 30
0.0
 10
80.45606700948793
 20
96.2134424549218
 30
0.0
 10
80.4425196147323
 20
96.16839491144279
 30
0.0
 10
80.44525862942668
 20
96.14315833285376
 30
0.0
 10
80.46815380275745
 20
96.10208970038485
 30
0.0
 10
80.48815739217866
 20
96.08653345358018
 30
0.0
 10
80.53351950053139
 20
96.07452760856981
 30
0.0
 10
80.55857242977216
 20
96.07815952586808
 30
0.0
 10
80.59868875832682
 20
96.1025554376588
 30
0.0
 10
80.61348277678993
 20
96.12315432872021
 30
0.0
 10
80.62385130227534
 20
96.16904279427808
 30
0.0
 10
80.61935691413264
 20
96.1940250854359
 30
0.0
 10
80.59364990973508
 20
96.2333846157419
 30
0.0
 10
80.57260876334199
 20
96.24749727236455
 30
0.0
 10
80.54417267777127
 20
96.25291978917633
 30
0.0
 10
80.53868479579586
 20
96.25343839419073
 30
0.0
 10
80.53319679954855
 20
96.25343839419073
 30
0.0
  0
LINE
  5
1C20
102
{ACAD_REACTORS
330
1C0F
102
}
100
AcDbEntity
  8
BORDER
100
AcDbLine
 10
80.698846
 20
96.357218
 30
0.0
 11
80.664639
 21
96.357218
 31
0.0
  0
LINE
  5
1C21
100
AcDbEntity
  8
BORDER
100
AcDbLine
 10
80.720441
 20
96.251117
 30
0.0
 11
80.661266
 21
96.251117
 31
0.0
  0
LINE
  5
1C22
100
AcDbEntity
  8
BORDER
100
AcDbLine
 10
80.661266
 20
96.163348
 30
0.0
 11
80.720441
 21
96.163348
 31
0.0
  0
ARC
  5
1C23
100
AcDbEntity
  8
BORDER
100
AcDbCircle
 10
80.720441
 20
96.207232
 30
0.0
 40
0.043884
100
AcDbArc
 50
270.0
 51
90.0
  0
LINE
  5
1C24
102
{ACAD_REACTORS
330
1C0F
102
}
100
AcDbEntity
  8
BORDER
100
AcDbLine
 10
80.698846
 20
96.357218
 30
0.0
 11
80.698846
 21
96.335062
 31
0.0
  0
LINE
  5
1C25
100
AcDbEntity
  8
BORDER
100
AcDbLine
 10
80.661266
 20
96.251117
 30
0.0
 11
80.661266
 21
96.079943
 31
0.0
  0
LINE
  5
1C26
100
AcDbEntity
  8
BORDER
100
AcDbLine
 10
80.708117
 20
96.163348
 30
0.0
 11
80.776073
 21
96.079943
 31
0.0
  0
SPLINE
  5
1C27
100
AcDbEntity
  8
BORDER
100
AcDbSpline
210
0.0
220
0.0
230
1.0
 70
    11
 71
     3
 72
    24
 73
    20
 74
     0
 42
0.0000001
 43
0.0000001
 40
0.0
 40
0.0
 40
0.0
 40
0.0
 40
0.474866629778075
 40
0.474866629778075
 40
1.277791044886493
 40
1.277791044886493
 40
2.080715459994911
 40
2.080715459994911
 40
2.883639875103329
 40
2.883639875103329
 40
3.686564290211747
 40
3.686564290211747
 40
4.489488705320165
 40
4.489488705320165
 40
5.292413120428583
 40
5.292413120428583
 40
6.095337535537001
 40
6.095337535537001
 40
6.283185307179586
 40
6.283185307179586
 40
6.283185307179586
 40
6.283185307179586
 10
81.04251554624251
 20
96.25343839419073
 30
0.0
 10
81.02864225799738
 20
96.25343839419073
 30
0.0
 10
81.014780655897
 20
96.2500731951439
 30
0.0
 10
80.98158210089106
 20
96.23295160856759
 30
0.0
 10
80.96538575618188
 20
96.2134424549218
 30
0.0
 10
80.95183836142627
 20
96.16839491144279
 30
0.0
 10
80.95457737612067
 20
96.14315833285376
 30
0.0
 10
80.97747254945138
 20
96.10208970038485
 30
0.0
 10
80.99747613887259
 20
96.08653345358018
 30
0.0
 10
81.04283824722534
 20
96.07452760856981
 30
0.0
 10
81.06789117646611
 20
96.07815952586808
 30
0.0
 10
81.10800750502077
 20
96.1025554376588
 30
0.0
 10
81.12280152348384
 20
96.12315432872021
 30
0.0
 10
81.13317004896932
 20
96.16904279427808
 30
0.0
 10
81.12867566082661
 20
96.1940250854359
 30
0.0
 10
81.10296865642906
 20
96.2333846157419
 30
0.0
 10
81.08192751003592
 20
96.24749727236455
 30
0.0
 10
81.0534914244652
 20
96.25291978917633
 30
0.0
 10
81.04800354248984
 20
96.25343839419073
 30
0.0
 10
81.04251554624251
 20
96.25343839419073
 30
0.0
  0
ARC
  5
1C28
100
AcDbEntity
  8
BORDER
100
AcDbCircle
 10
80.886516
 20
96.207232
 30
0.0
 40
0.043884
100
AcDbArc
 50
270.0
 51
90.0
  0
LINE
  5
1C29
100
AcDbEntity
  8
BORDER
100
AcDbLine
 10
80.842089
 20
96.251117
 30
0.0
 11
80.842089
 21
96.079943
 31
0.0
  0
LINE
  5
1C2A
100
AcDbEntity
  8
BORDER
100
AcDbLine
 10
80.886516
 20
96.251117
 30
0.0
 11
80.842089
 21
96.251117
 31
0.0
  0
LINE
  5
1C2B
100
AcDbEntity
  8
BORDER
100
AcDbLine
 10
80.842089
 20
96.163348
 30
0.0
 11
80.886516
 21
96.163348
 31
0.0
  0
LINE
  5
1C2C
100
AcDbEntity
  8
BORDER
100
AcDbLine
 10
81.177389
 20
96.251117
 30
0.0
 11
81.177389
 21
96.079943
 31
0.0
  0
ARC
  5
1C2D
102
{ACAD_REACTORS
330
1C0F
102
}
100
AcDbEntity
  8
BORDER
100
AcDbCircle
 10
80.651912
 20
96.836031
 30
0.0
 40
0.211998
100
AcDbArc
 50
0.076996
 51
90.0
  0
LINE
  5
1C2E
102
{ACAD_REACTORS
330
1C0F
102
}
100
AcDbEntity
  8
BORDER
100
AcDbLine
 10
80.374844
 20
96.463437
 30
0.0
 11
80.374844
 21
97.048029
 31
0.0
  0
LINE
  5
1C2F
102
{ACAD_REACTORS
330
1C0F
102
}
100
AcDbEntity
  8
BORDER
100
AcDbLine
 10
80.558419
 20
96.463437
 30
0.0
 11
80.558419
 21
97.048029
 31
0.0
  0
LINE
  5
1C30
102
{ACAD_REACTORS
330
1C0F
102
}
100
AcDbEntity
  8
BORDER
100
AcDbLine
 10
80.651912
 20
97.048029
 30
0.0
 11
80.558419
 21
97.048029
 31
0.0
  0
LINE
  5
1C31
100
AcDbEntity
  8
BORDER
100
AcDbLine
 10
81.086328
 20
96.895726
 30
0.0
 11
81.000682
 21
97.023289
 31
0.0
  0
LINE
  5
1C32
100
AcDbEntity
  8
BORDER
100
AcDbLine
 10
80.924919
 20
97.020676
 30
0.0
 11
80.944155
 21
97.020676
 31
0.0
  0
LINE
  5
1C33
100
AcDbEntity
  8
BORDER
100
AcDbLine
 10
80.944155
 20
97.020676
 30
0.0
 11
80.96339
 21
97.020676
 31
0.0
  0
LINE
  5
1C34
102
{ACAD_REACTORS
330
1C0F
102
}
100
AcDbEntity
  8
BORDER
100
AcDbLine
 10
80.886082
 20
96.836316
 30
0.0
 11
80.86391
 21
96.836316
 31
0.0
  0
LINE
  5
1C35
100
AcDbEntity
  8
BORDER
100
AcDbLine
 10
80.924919
 20
96.895726
 30
0.0
 11
80.96339
 21
96.895726
 31
0.0
  0
LINE
  5
1C36
100
AcDbEntity
  8
BORDER
100
AcDbLine
 10
80.944155
 20
97.020676
 30
0.0
 11
80.944155
 21
96.895726
 31
0.0
  0
LINE
  5
1C37
100
AcDbEntity
  8
BORDER
100
AcDbLine
 10
81.000682
 20
97.023289
 30
0.0
 11
81.000682
 21
96.895726
 31
0.0
  0
LINE
  5
1C38
102
{ACAD_REACTORS
330
1C0F
102
}
100
AcDbEntity
  8
BORDER
100
AcDbLine
 10
80.886082
 20
96.836316
 30
0.0
 11
80.886082
 21
97.102188
 31
0.0
  0
LINE
  5
1C39
100
AcDbEntity
  8
BORDER
100
AcDbLine
 10
81.166027
 20
97.020676
 30
0.0
 11
81.139429
 21
97.020676
 31
0.0
  0
LINE
  5
1C3A
100
AcDbEntity
  8
BORDER
100
AcDbLine
 10
81.139429
 20
96.895726
 30
0.0
 11
81.166027
 21
96.895726
 31
0.0
  0
LINE
  5
1C3B
100
AcDbEntity
  8
BORDER
100
AcDbLine
 10
81.086328
 20
97.020676
 30
0.0
 11
81.086328
 21
96.895726
 31
0.0
  0
LINE
  5
1C3C
100
AcDbEntity
  8
BORDER
100
AcDbLine
 10
81.139429
 20
97.020676
 30
0.0
 11
81.139429
 21
96.895726
 31
0.0
  0
ARC
  5
1C3D
100
AcDbEntity
  8
BORDER
100
AcDbCircle
 10
83.163782
 20
97.11337
 30
0.0
 40
0.208119
100
AcDbArc
 50
90.0
 51
180.0
  0
LWPOLYLINE
  5
1C3E
100
AcDbEntity
  8
BORDER
 62
     5
100
AcDbPolyline
 90
        2
 70
     0
 43
0.104059
 10
83.163782
 20
97.529608
 42
0.414214
 10
82.747544
 20
97.11337
 42
-0.560527
  0
ARC
  5
1C3F
100
AcDbEntity
  8
BORDER
100
AcDbCircle
 10
82.123187
 20
97.11337
 30
0.0
 40
0.208119
100
AcDbArc
 50
0.0
 51
90.0
  0
LWPOLYLINE
  5
1C40
100
AcDbEntity
  8
BORDER
 62
     5
100
AcDbPolyline
 90
        2
 70
     0
 43
0.104059
 10
82.123187
 20
97.529608
 42
-0.414214
 10
82.539425
 20
97.11337
 42
0.560527
  0
ARC
  5
1C41
102
{ACAD_REACTORS
330
1C43
102
}
100
AcDbEntity
  8
BORDER
100
AcDbCircle
 10
81.831865
 20
96.393993
 30
0.0
 40
0.043846
100
AcDbArc
 50
180.0
 51
270.0
  0
ARC
  5
1C42
102
{ACAD_REACTORS
330
1C43
102
}
100
AcDbEntity
  8
BORDER
100
AcDbCircle
 10
81.682138
 20
96.393993
 30
0.0
 40
0.043846
100
AcDbArc
 50
270.0
 51
360.0
  0
HATCH
  5
1C43
100
AcDbEntity
  8
BORDER
100
AcDbHatch
 10
0.0
 20
0.0
 30
0.0
210
0.0
220
0.0
230
1.0
  2
ANSI37
 70
     0
 71
     1
 91
        2
 92
        7
 72
     1
 73
     1
 93
       16
 10
81.72598431903002
 20
96.39399327704108
 42
-0.4142135623728093
 10
81.6821379298484
 20
96.3501468878595
 42
0.0
 10
81.66184713691697
 20
96.3501468878595
 42
0.0
 10
81.66184713691697
 20
96.33858985128021
 42
0.0
 10
81.85215577879963
 20
96.33858985128021
 42
0.0
 10
81.85215577879963
 20
96.3501468878595
 42
0.0
 10
81.83186498586827
 20
96.3501468878595
 42
-0.4142135623734749
 10
81.78801859668659
 20
96.39399327704111
 42
0.0
 10
81.78801859668659
 20
96.54766669065063
 42
0.0609117558028414
 10
81.86477292477723
 20
96.53821098131851
 42
0.4291497434354913
 10
82.00040724402901
 20
96.66008493393261
 42
0.3916311771438105
 10
81.86762293326889
 20
96.78442125874454
 42
0.0
 10
81.66217682123713
 20
96.78442125874452
 42
0.0
 10
81.66217682123713
 20
96.77218351113976
 42
0.0
 10
81.68213792984845
 20
96.77218351113975
 42
-0.4142135623727154
 10
81.72598431903002
 20
96.72833712195812
 42
0.0
 97
       16
330
1C68
330
1C6C
330
1C6F
330
1C70
330
1C6E
330
1C72
330
1C42
330
1C51
330
1C50
330
1C55
330
1C4F
330
1C54
330
1C41
330
1C71
330
1C6B
330
1C73
 92
       22
 72
     1
 73
     1
 93
        3
 10
81.78801859668659
 20
96.75149036405843
 42
-0.5287425889416619
 10
81.92575575020502
 20
96.65483174745649
 42
-0.5439228899275065
 10
81.78801859668659
 20
96.56447691370775
 42
0.0
 97
        3
330
1C69
330
1C6A
330
1C6D
 75
     0
 76
     1
 52
0.0
 41
0.003224
 77
     0
 78
     2
 53
45.0
 43
79.291979
 44
84.693955
 45
-0.0002850075518983
 46
0.0002850075518983
 79
     0
 53
135.0
 43
79.291979
 44
84.693955
 45
-0.0002850075518983
 46
-0.0002850075518983
 79
     0
 47
0.027301
 98
        2
 10
81.751831
 20
96.633871
 10
81.751831
 20
96.633871
  0
LWPOLYLINE
  5
1C44
102
{ACAD_REACTORS
330
1C45
102
}
100
AcDbEntity
  8
BORDER
100
AcDbPolyline
 90
       17
 70
     0
 43
0.0
 10
81.490425
 20
96.5399
 42
-0.060912
 10
81.413671
 20
96.549356
 10
81.413671
 20
96.395682
 42
0.414214
 10
81.457517
 20
96.351836
 10
81.477808
 20
96.351836
 10
81.477808
 20
96.340279
 10
81.2875
 20
96.340279
 10
81.2875
 20
96.351836
 10
81.30779
 20
96.351836
 42
0.414214
 10
81.351637
 20
96.395682
 10
81.351637
 20
96.730026
 42
0.414214
 10
81.30779
 20
96.773872
 10
81.287829
 20
96.773872
 10
81.287829
 20
96.78611
 10
81.491665
 20
96.78611
 42
-0.395102
 10
81.62606
 20
96.661774
 42
-0.42915
 10
81.490425
 20
96.5399
  0
HATCH
  5
1C45
100
AcDbEntity
  8
BORDER
100
AcDbHatch
 10
0.0
 20
0.0
 30
0.0
210
0.0
220
0.0
230
1.0
  2
ANSI37
 70
     0
 71
     1
 91
        2
 92
        7
 72
     1
 73
     1
 93
       16
 10
81.3516367227702
 20
96.39568226357368
 42
-0.414213562373094
 10
81.3077903335886
 20
96.35183587439207
 42
0.0
 10
81.28749954065716
 20
96.35183587439207
 42
0.0
 10
81.28749954065716
 20
96.34027883781271
 42
0.0
 10
81.47780818253986
 20
96.34027883781271
 42
0.0
 10
81.47780818253988
 20
96.35183587439209
 42
0.0
 10
81.45751738960845
 20
96.35183587439207
 42
-0.4142135623732849
 10
81.41367100042684
 20
96.39568226357368
 42
0.0
 10
81.41367100042684
 20
96.54935567718318
 42
0.0609117558022594
 10
81.49042532851671
 20
96.53989996785107
 42
0.4291497434376071
 10
81.62605964776915
 20
96.66177392046536
 42
0.3916311771362606
 10
81.49327533701242
 20
96.78611024527704
 42
0.0
 10
81.2878292249773
 20
96.78611024527704
 42
0.0
 10
81.28782922497729
 20
96.77387249767235
 42
0.0
 10
81.3077903335886
 20
96.77387249767235
 42
-0.4142135623730951
 10
81.3516367227702
 20
96.73002610849074
 42
0.0
 97
        1
330
1C44
 92
       22
 72
     1
 73
     1
 93
        3
 10
81.41367100042684
 20
96.75317935059091
 42
-0.5287425889475456
 10
81.55140815394521
 20
96.6565207339871
 42
-0.5439228899208733
 10
81.41367100042684
 20
96.56616590024032
 42
0.0
 97
        1
330
1C5C
 75
     0
 76
     1
 52
0.0
 41
0.003224
 77
     0
 78
     2
 53
45.0
 43
79.291979
 44
84.693955
 45
-0.0002850075518983
 46
0.0002850075518983
 79
     0
 53
135.0
 43
79.291979
 44
84.693955
 45
-0.0002850075518983
 46
-0.0002850075518983
 79
     0
 47
0.027301
 98
        2
 10
81.376534
 20
96.672605
 10
81.376534
 20
96.672605
  0
LINE
  5
1C46
100
AcDbEntity
  8
BORDER
100
AcDbLine
 10
81.507438
 20
96.251117
 30
0.0
 11
81.652483
 21
96.251117
 31
0.0
  0
LINE
  5
1C47
100
AcDbEntity
  8
BORDER
100
AcDbLine
 10
81.363083
 20
96.142357
 30
0.0
 11
81.447874
 21
96.142357
 31
0.0
  0
LINE
  5
1C48
100
AcDbEntity
  8
BORDER
100
AcDbLine
 10
81.472627
 20
96.079943
 30
0.0
 11
81.40474
 21
96.251117
 31
0.0
  0
ARC
  5
1C49
100
AcDbEntity
  8
BORDER
100
AcDbCircle
 10
81.236565
 20
96.207232
 30
0.0
 40
0.043884
100
AcDbArc
 50
270.0
 51
90.0
  0
LINE
  5
1C4A
100
AcDbEntity
  8
BORDER
100
AcDbLine
 10
81.40474
 20
96.251117
 30
0.0
 11
81.339178
 21
96.079943
 31
0.0
  0
LINE
  5
1C4B
100
AcDbEntity
  8
BORDER
100
AcDbLine
 10
81.224241
 20
96.163348
 30
0.0
 11
81.292197
 21
96.079943
 31
0.0
  0
LINE
  5
1C4C
100
AcDbEntity
  8
BORDER
100
AcDbLine
 10
81.579961
 20
96.251117
 30
0.0
 11
81.579961
 21
96.079943
 31
0.0
  0
LINE
  5
1C4D
100
AcDbEntity
  8
BORDER
100
AcDbLine
 10
81.913064
 20
96.251117
 30
0.0
 11
81.848461
 21
96.251117
 31
0.0
  0
LINE
  5
1C4E
100
AcDbEntity
  8
BORDER
100
AcDbLine
 10
81.848461
 20
96.079943
 30
0.0
 11
81.913064
 21
96.079943
 31
0.0
  0
LINE
  5
1C4F
102
{ACAD_REACTORS
330
1C43
102
}
100
AcDbEntity
  8
BORDER
100
AcDbLine
 10
81.852156
 20
96.350147
 30
0.0
 11
81.852156
 21
96.33859
 31
0.0
  0
LINE
  5
1C50
102
{ACAD_REACTORS
330
1C43
102
}
100
AcDbEntity
  8
BORDER
100
AcDbLine
 10
81.661847
 20
96.350147
 30
0.0
 11
81.661847
 21
96.33859
 31
0.0
  0
LINE
  5
1C51
102
{ACAD_REACTORS
330
1C43
102
}
100
AcDbEntity
  8
BORDER
100
AcDbLine
 10
81.661847
 20
96.350147
 30
0.0
 11
81.682138
 21
96.350147
 31
0.0
  0
LINE
  5
1C52
100
AcDbEntity
  8
BORDER
100
AcDbLine
 10
81.690321
 20
96.251117
 30
0.0
 11
81.800757
 21
96.251117
 31
0.0
  0
LINE
  5
1C53
100
AcDbEntity
  8
BORDER
100
AcDbLine
 10
81.690321
 20
96.16553
 30
0.0
 11
81.763762
 21
96.16553
 31
0.0
  0
LINE
  5
1C54
102
{ACAD_REACTORS
330
1C43
102
}
100
AcDbEntity
  8
BORDER
100
AcDbLine
 10
81.831865
 20
96.350147
 30
0.0
 11
81.852156
 21
96.350147
 31
0.0
  0
LINE
  5
1C55
102
{ACAD_REACTORS
330
1C43
102
}
100
AcDbEntity
  8
BORDER
100
AcDbLine
 10
81.661847
 20
96.33859
 30
0.0
 11
81.852156
 21
96.33859
 31
0.0
  0
LINE
  5
1C56
100
AcDbEntity
  8
BORDER
100
AcDbLine
 10
81.800757
 20
96.079943
 30
0.0
 11
81.690321
 21
96.079943
 31
0.0
  0
LINE
  5
1C57
100
AcDbEntity
  8
BORDER
100
AcDbLine
 10
81.848461
 20
96.251117
 30
0.0
 11
81.848461
 21
96.079943
 31
0.0
  0
LINE
  5
1C58
100
AcDbEntity
  8
BORDER
100
AcDbLine
 10
81.690321
 20
96.079943
 30
0.0
 11
81.690321
 21
96.251117
 31
0.0
  0
ARC
  5
1C59
100
AcDbEntity
  8
BORDER
100
AcDbCircle
 10
81.913064
 20
96.16553
 30
0.0
 40
0.085587
100
AcDbArc
 50
270.0
 51
90.0
  0
LINE
  5
1C5A
100
AcDbEntity
  8
BORDER
100
AcDbLine
 10
81.66731
 20
97.020676
 30
0.0
 11
81.621861
 21
97.020676
 31
0.0
  0
LINE
  5
1C5B
100
AcDbEntity
  8
BORDER
100
AcDbLine
 10
81.621861
 20
96.957599
 30
0.0
 11
81.66731
 21
96.957599
 31
0.0
  0
LWPOLYLINE
  5
1C5C
102
{ACAD_REACTORS
330
1C45
102
}
100
AcDbEntity
  8
BORDER
100
AcDbPolyline
 90
        3
 70
     1
 43
0.0
 10
81.413671
 20
96.566166
 42
0.543923
 10
81.551408
 20
96.656521
 42
0.528743
 10
81.413671
 20
96.753179
  0
ARC
  5
1C5D
100
AcDbEntity
  8
BORDER
100
AcDbCircle
 10
81.980966
 20
97.8492
 30
0.0
 40
1.044547
100
AcDbArc
 50
236.383068
 51
240.315223
  0
ARC
  5
1C5E
100
AcDbEntity
  8
BORDER
100
AcDbCircle
 10
81.42987
 20
96.982058
 30
0.0
 40
0.038757
100
AcDbArc
 50
25.379638
 51
143.047804
  0
ARC
  5
1C5F
100
AcDbEntity
  8
BORDER
100
AcDbCircle
 10
81.4349
 20
96.935349
 30
0.0
 40
0.039561
100
AcDbArc
 50
200.502447
 51
334.026213
  0
LINE
  5
1C60
100
AcDbEntity
  8
BORDER
100
AcDbLine
 10
81.356972
 20
97.020676
 30
0.0
 11
81.356972
 21
96.937693
 31
0.0
  0
LINE
  5
1C61
100
AcDbEntity
  8
BORDER
100
AcDbLine
 10
81.273038
 20
96.937693
 30
0.0
 11
81.273038
 21
97.020676
 31
0.0
  0
ARC
  5
1C62
100
AcDbEntity
  8
BORDER
100
AcDbCircle
 10
81.412434
 20
96.994039
 30
0.0
 40
0.017644
100
AcDbArc
 50
140.101426
 51
236.383068
  0
ARC
  5
1C63
100
AcDbEntity
  8
BORDER
100
AcDbCircle
 10
81.315005
 20
96.937693
 30
0.0
 40
0.041967
100
AcDbArc
 50
180.0
 51
0.0
  0
LINE
  5
1C64
100
AcDbEntity
  8
BORDER
100
AcDbLine
 10
81.621861
 20
97.020676
 30
0.0
 11
81.621861
 21
96.895726
 31
0.0
  0
LINE
  5
1C65
100
AcDbEntity
  8
BORDER
100
AcDbLine
 10
81.544005
 20
97.020676
 30
0.0
 11
81.544005
 21
96.895726
 31
0.0
  0
ARC
  5
1C66
100
AcDbEntity
  8
BORDER
100
AcDbCircle
 10
81.454939
 20
96.926407
 30
0.0
 40
0.017644
100
AcDbArc
 50
331.630608
 51
60.315223
  0
LINE
  5
1C67
100
AcDbEntity
  8
BORDER
100
AcDbLine
 10
81.492672
 20
97.020676
 30
0.0
 11
81.595339
 21
97.020676
 31
0.0
  0
ARC
  5
1C68
102
{ACAD_REACTORS
330
1C43
102
}
100
AcDbEntity
  8
BORDER
100
AcDbCircle
 10
81.866818
 20
96.65049
 30
0.0
 40
0.133934
100
AcDbArc
 50
4.10812
 51
90.34444
  0
ARC
  5
1C69
102
{ACAD_REACTORS
330
1C43
102
}
100
AcDbEntity
  8
BORDER
100
AcDbCircle
 10
81.823962
 20
96.656243
 30
0.0
 40
0.101804
100
AcDbArc
 50
359.205673
 51
110.674935
  0
ARC
  5
1C6A
102
{ACAD_REACTORS
330
1C43
102
}
100
AcDbEntity
  8
BORDER
100
AcDbCircle
 10
81.827644
 20
96.654232
 30
0.0
 40
0.098113
100
AcDbArc
 50
246.179097
 51
0.350223
  0
ARC
  5
1C6B
102
{ACAD_REACTORS
330
1C43
102
}
100
AcDbEntity
  8
BORDER
100
AcDbCircle
 10
81.865061
 20
96.856793
 30
0.0
 40
0.318582
100
AcDbArc
 50
256.005504
 51
269.948223
  0
LINE
  5
1C6C
102
{ACAD_REACTORS
330
1C43
102
}
100
AcDbEntity
  8
BORDER
100
AcDbLine
 10
81.662177
 20
96.784421
 30
0.0
 11
81.867623
 21
96.784421
 31
0.0
  0
LINE
  5
1C6D
102
{ACAD_REACTORS
330
1C43
102
}
100
AcDbEntity
  8
BORDER
100
AcDbLine
 10
81.788019
 20
96.75149
 30
0.0
 11
81.788019
 21
96.564477
 31
0.0
  0
ARC
  5
1C6E
102
{ACAD_REACTORS
330
1C43
102
}
100
AcDbEntity
  8
BORDER
100
AcDbCircle
 10
81.682138
 20
96.728337
 30
0.0
 40
0.043846
100
AcDbArc
 50
0.0
 51
90.0
  0
LINE
  5
1C6F
102
{ACAD_REACTORS
330
1C43
102
}
100
AcDbEntity
  8
BORDER
100
AcDbLine
 10
81.662177
 20
96.784421
 30
0.0
 11
81.662177
 21
96.772184
 31
0.0
  0
LINE
  5
1C70
102
{ACAD_REACTORS
330
1C43
102
}
100
AcDbEntity
  8
BORDER
100
AcDbLine
 10
81.662177
 20
96.772184
 30
0.0
 11
81.682138
 21
96.772184
 31
0.0
  0
LINE
  5
1C71
102
{ACAD_REACTORS
330
1C43
102
}
100
AcDbEntity
  8
BORDER
100
AcDbLine
 10
81.788019
 20
96.547667
 30
0.0
 11
81.788019
 21
96.393993
 31
0.0
  0
LINE
  5
1C72
102
{ACAD_REACTORS
330
1C43
102
}
100
AcDbEntity
  8
BORDER
100
AcDbLine
 10
81.725984
 20
96.393993
 30
0.0
 11
81.725984
 21
96.728337
 31
0.0
  0
ARC
  5
1C73
102
{ACAD_REACTORS
330
1C43
102
}
100
AcDbEntity
  8
BORDER
100
AcDbCircle
 10
81.874668
 20
96.663609
 30
0.0
 40
0.125788
100
AcDbArc
 50
265.488062
 51
358.394374
  0
LINE
  5
1C74
100
AcDbEntity
  8
BORDER
100
AcDbLine
 10
81.814416
 20
97.020676
 30
0.0
 11
81.889629
 21
97.020676
 31
0.0
  0
LINE
  5
1C75
100
AcDbEntity
  8
BORDER
100
AcDbLine
 10
81.814416
 20
96.958201
 30
0.0
 11
81.873229
 21
96.958201
 31
0.0
  0
LINE
  5
1C76
100
AcDbEntity
  8
BORDER
100
AcDbLine
 10
81.889629
 20
96.895726
 30
0.0
 11
81.814416
 21
96.895726
 31
0.0
  0
ARC
  5
1C77
100
AcDbEntity
  8
BORDER
100
AcDbCircle
 10
81.66731
 20
96.989138
 30
0.0
 40
0.031539
100
AcDbArc
 50
270.0
 51
90.0
  0
LINE
  5
1C78
100
AcDbEntity
  8
BORDER
100
AcDbLine
 10
81.737271
 20
97.020676
 30
0.0
 11
81.775742
 21
97.020676
 31
0.0
  0
LINE
  5
1C79
100
AcDbEntity
  8
BORDER
100
AcDbLine
 10
81.737271
 20
96.895726
 30
0.0
 11
81.775742
 21
96.895726
 31
0.0
  0
LINE
  5
1C7A
100
AcDbEntity
  8
BORDER
100
AcDbLine
 10
81.756506
 20
97.020676
 30
0.0
 11
81.756506
 21
96.895726
 31
0.0
  0
LINE
  5
1C7B
100
AcDbEntity
  8
BORDER
100
AcDbLine
 10
81.814416
 20
96.895726
 30
0.0
 11
81.814416
 21
97.020676
 31
0.0
  0
LINE
  5
1C7C
100
AcDbEntity
  8
BORDER
100
AcDbLine
 10
81.658598
 20
96.957599
 30
0.0
 11
81.698226
 21
96.895726
 31
0.0
  0
ARC
  5
1C7D
100
AcDbEntity
  8
BORDER
100
AcDbCircle
 10
81.974684
 20
96.926407
 30
0.0
 40
0.017644
100
AcDbArc
 50
331.630608
 51
60.315223
  0
ARC
  5
1C7E
100
AcDbEntity
  8
BORDER
100
AcDbCircle
 10
81.932179
 20
96.994039
 30
0.0
 40
0.017644
100
AcDbArc
 50
140.101426
 51
236.383068
  0
ARC
  5
1C7F
100
AcDbEntity
  8
BORDER
100
AcDbCircle
 10
82.500711
 20
97.8492
 30
0.0
 40
1.044547
100
AcDbArc
 50
236.383068
 51
240.315223
  0
ARC
  5
1C80
100
AcDbEntity
  8
BORDER
100
AcDbCircle
 10
81.949615
 20
96.982058
 30
0.0
 40
0.038757
100
AcDbArc
 50
25.379638
 51
143.047804
  0
ARC
  5
1C81
100
AcDbEntity
  8
BORDER
100
AcDbCircle
 10
81.954645
 20
96.935349
 30
0.0
 40
0.039561
100
AcDbArc
 50
200.502447
 51
334.026213
  0
LINE
  5
1C82
100
AcDbEntity
  8
BORDER
100
AcDbLine
 10
82.331306
 20
95.864657
 30
0.0
 11
82.331306
 21
97.11337
 31
0.0
  0
LWPOLYLINE
  5
1C83
100
AcDbEntity
  8
BORDER
 62
     5
100
AcDbPolyline
 90
        2
 70
     0
 43
0.104059
 10
82.539425
 20
95.864657
 10
82.539425
 20
97.11337
  0
LWPOLYLINE
  5
1C84
100
AcDbEntity
  8
BORDER
 62
     5
100
AcDbPolyline
 90
        2
 70
     0
 43
0.104059
 10
82.747544
 20
97.11337
 10
82.747544
 20
95.864657
  0
TEXT
  5
1C85
100
AcDbEntity
  8
BORDER
 62
     6
100
AcDbText
 10
83.598318
 20
97.024094
 30
0.0
 40
0.107385
  1
GROMMETS
  7
ROMANC
100
AcDbText
  0
LINE
  5
1C86
100
AcDbEntity
  8
BORDER
100
AcDbLine
 10
82.955663
 20
95.864657
 30
0.0
 11
82.955663
 21
96.339511
 31
0.0
  0
TEXT
  5
1C87
100
AcDbEntity
  8
BORDER
 62
     6
100
AcDbText
 10
82.985819
 20
96.702213
 30
0.0
 40
0.093378
  1
Reference:
  7
ROMANC
100
AcDbText
  0
LINE
  5
1C88
100
AcDbEntity
  8
BORDER
100
AcDbLine
 10
82.955663
 20
96.489013
 30
0.0
 11
82.955663
 21
97.11337
 31
0.0
  0
TEXT
  5
1C89
100
AcDbEntity
  8
BORDER
 62
     6
100
AcDbText
 10
84.460327
 20
96.63601
 30
0.0
 40
0.093378
  1
-
  7
ROMANC
100
AcDbText
  0
TEXT
  5
1C8A
100
AcDbEntity
  8
BORDER
 62
     6
100
AcDbText
 10
87.1801
 20
95.948274
 30
0.0
 40
0.119668
  1
07/08/03
  7
ROMAND
100
AcDbText
  0
LINE
  5
1C8B
100
AcDbEntity
  8
BORDER
100
AcDbLine
 10
86.1279
 20
97.321489
 30
0.0
 11
90.765133
 21
97.321489
 31
0.0
  0
LINE
  5
1C8C
100
AcDbEntity
  8
BORDER
100
AcDbLine
 10
86.1279
 20
96.339511
 30
0.0
 11
88.475824
 21
96.339511
 31
0.0
  0
LINE
  5
1C8D
100
AcDbEntity
  8
BORDER
100
AcDbLine
 10
86.1279
 20
95.864657
 30
0.0
 11
88.475824
 21
95.864657
 31
0.0
  0
TEXT
  5
1C8E
100
AcDbEntity
  8
BORDER
 62
     6
100
AcDbText
 10
87.698449
 20
96.546106
 30
0.0
 40
0.078113
  1
in this print by any other source than TOPP INDUSTRIES, INC.
 41
0.839168
  7
ROMANS
 72
     5
 11
90.916657
 21
96.546106
 31
0.0
100
AcDbText
  0
TEXT
  5
1C8F
100
AcDbEntity
  8
BORDER
 62
     6
100
AcDbText
 10
87.698449
 20
96.672575
 30
0.0
 40
0.078113
  1
and will not be used to manufacture or procure the manufacture of the items shown
 41
0.600404
  7
ROMANS
 72
     5
 11
90.916657
 21
96.672575
 31
0.0
100
AcDbText
  0
TEXT
  5
1C90
100
AcDbEntity
  8
BORDER
 62
     6
100
AcDbText
 10
87.698449
 20
96.799045
 30
0.0
 40
0.078113
  1
be used as a record or to identify or inspect parts or for other information purposes
 41
0.596266
  7
ROMANS
 72
     5
 11
90.916657
 21
96.799045
 31
0.0
100
AcDbText
  0
TEXT
  5
1C91
100
AcDbEntity
  8
BORDER
 62
     6
100
AcDbText
 10
87.698449
 20
96.925514
 30
0.0
 40
0.078113
  1
restriction includes, but is not limited to the condition that this print will not only
 41
0.626489
  7
ROMANS
 72
     5
 11
90.916657
 21
96.925514
 31
0.0
100
AcDbText
  0
TEXT
  5
1C92
100
AcDbEntity
  8
BORDER
 62
     6
100
AcDbText
 10
87.698449
 20
97.051983
 30
0.0
 40
0.078113
  1
by TOPP INDUSTRIES, INC. It is furnished on a strictly confidential basis.  This
 41
0.659437
  7
ROMANS
 72
     5
 11
90.916657
 21
97.051983
 31
0.0
100
AcDbText
  0
TEXT
  5
1C93
100
AcDbEntity
  8
BORDER
 62
     6
100
AcDbText
 10
87.698449
 20
97.178453
 30
0.0
 40
0.078113
  1
This print is and contains confidential proprietary information owned exclusively
 41
0.656934
  7
ROMANS
 72
     5
 11
90.916657
 21
97.178453
 31
0.0
100
AcDbText
  0
LINE
  5
1C94
100
AcDbEntity
  8
BORDER
100
AcDbLine
 10
86.1279
 20
96.489013
 30
0.0
 11
90.973252
 21
96.489013
 31
0.0
  0
TEXT
  5
1C95
100
AcDbEntity
  8
BORDER
 62
     6
100
AcDbText
 10
86.170557
 20
96.516266
 30
0.0
 40
0.093378
  1
Date: 07/08/03
  7
ROMANC
100
AcDbText
  0
TEXT
  5
1C96
100
AcDbEntity
  8
BORDER
 62
     6
100
AcDbText
 10
86.17588
 20
96.177028
 30
0.0
 40
0.093378
  1
Supersedes Prints
  7
ROMANC
100
AcDbText
  0
TEXT
  5
1C97
100
AcDbEntity
  8
BORDER
 62
     6
100
AcDbText
 10
86.17588
 20
96.025845
 30
0.0
 40
0.093378
  1
Prior To:
  7
ROMANC
100
AcDbText
  0
TEXT
  5
1C98
100
AcDbEntity
  8
BORDER
 62
     6
100
AcDbText
 10
86.170557
 20
97.183732
 30
0.0
 40
0.093378
  1
Scale: None
  7
ROMANC
100
AcDbText
  0
TEXT
  5
1C99
100
AcDbEntity
  8
BORDER
 62
     6
100
AcDbText
 10
86.170557
 20
96.738754
 30
0.0
 40
0.093378
  1
Appv'd By: .
  7
ROMANC
100
AcDbText
  0
TEXT
  5
1C9A
100
AcDbEntity
  8
BORDER
 62
     6
100
AcDbText
 10
86.170557
 20
96.961243
 30
0.0
 40
0.093378
  1
Drawn By:
  7
ROMANC
100
AcDbText
  0
LINE
  5
1C9B
100
AcDbEntity
  8
BORDER
100
AcDbLine
 10
86.1279
 20
96.489013
 30
0.0
 11
86.1279
 21
97.321489
 31
0.0
  0
LINE
  5
1C9C
100
AcDbEntity
  8
BORDER
100
AcDbLine
 10
86.1279
 20
95.864657
 30
0.0
 11
86.1279
 21
96.339511
 31
0.0
  0
TEXT
  5
1C9D
100
AcDbEntity
  8
BORDER
 62
     6
100
AcDbText
 10
87.027509
 20
96.951298
 30
0.0
 40
0.127359
  1
RM
  7
COUNTRYBLUEPRINT
100
AcDbText
  0
TEXT
  5
1C9E
100
AcDbEntity
  8
BORDER
 62
     6
100
AcDbText
 10
89.47314
 20
95.970811
 30
0.0
 40
0.280134
  1
10096
  7
ROMANC
100
AcDbText
  0
LINE
  5
1C9F
100
AcDbEntity
  8
BORDER
100
AcDbLine
 10
88.625327
 20
95.864657
 30
0.0
 11
90.973252
 21
95.864657
 31
0.0
  0
LINE
  5
1CA0
100
AcDbEntity
  8
BORDER
100
AcDbLine
 10
88.625327
 20
96.339511
 30
0.0
 11
90.973252
 21
96.339511
 31
0.0
  0
TEXT
  5
1CA1
100
AcDbEntity
  8
BORDER
 62
     6
100
AcDbText
 10
88.67447
 20
96.187376
 30
0.0
 40
0.093378
  1
Reference
  7
ROMANC
100
AcDbText
  0
TEXT
  5
1CA2
100
AcDbEntity
  8
BORDER
 62
     6
100
AcDbText
 10
88.67447
 20
96.036192
 30
0.0
 40
0.093378
  1
No:
  7
ROMANC
100
AcDbText
  0
LINE
  5
1CA3
100
AcDbEntity
  8
BORDER
100
AcDbLine
 10
88.475824
 20
96.339511
 30
0.0
 11
88.475824
 21
95.864657
 31
0.0
  0
LINE
  5
1CA4
100
AcDbEntity
  8
BORDER
100
AcDbLine
 10
88.625327
 20
96.339511
 30
0.0
 11
88.625327
 21
95.864657
 31
0.0
  0
LWPOLYLINE
  5
1CA5
100
AcDbEntity
  8
BORDER
 62
     5
100
AcDbPolyline
 90
        2
 70
     0
 43
0.104059
 10
90.765133
 20
97.529608
 42
-0.414214
 10
91.181371
 20
97.11337
 42
0.560527
  0
ARC
  5
1CA6
100
AcDbEntity
  8
BORDER
100
AcDbCircle
 10
90.765133
 20
97.11337
 30
0.0
 40
0.208119
100
AcDbArc
 50
0.0
 51
90.0
  0
LWPOLYLINE
  5
1CA7
100
AcDbEntity
  8
BORDER
 62
     5
100
AcDbPolyline
 90
        2
 70
     0
 43
0.104059
 10
91.181371
 20
95.864657
 10
91.181371
 20
97.11337
  0
LWPOLYLINE
  5
1CA8
100
AcDbEntity
  8
BORDER
 62
     5
100
AcDbPolyline
 90
        2
 70
     0
 43
0.104059
 10
91.38949
 20
95.864657
 10
91.38949
 20
97.11337
  0
LINE
  5
1CA9
100
AcDbEntity
  8
BORDER
100
AcDbLine
 10
90.973252
 20
96.339511
 30
0.0
 11
90.973252
 21
95.864657
 31
0.0
  0
LINE
  5
1CAA
100
AcDbEntity
  8
BORDER
100
AcDbLine
 10
90.973252
 20
97.11337
 30
0.0
 11
90.973252
 21
96.489013
 31
0.0
  0
LWPOLYLINE
  5
1CAB
100
AcDbEntity
  8
BORDER
 62
     5
100
AcDbPolyline
 90
        2
 70
     0
 43
0.104059
 10
94.095036
 20
95.656538
 42
0.414214
 10
94.511274
 20
96.072776
 42
-0.560527
  0
LINE
  5
1CAC
100
AcDbEntity
  8
BORDER
100
AcDbLine
 10
94.095036
 20
95.864657
 30
0.0
 11
91.597609
 21
95.864657
 31
0.0
  0
TEXT
  5
1CAD
100
AcDbEntity
  8
BORDER
 62
     6
100
AcDbText
 10
92.03173
 20
96.794165
 30
0.0
 40
0.104059
  1
First Released 06/27/03
  7
ROMAND
100
AcDbText
  0
LINE
  5
1CAE
100
AcDbEntity
  8
BORDER
100
AcDbLine
 10
94.095036
 20
96.117601
 30
0.0
 11
91.805728
 21
96.117601
 31
0.0
  0
LINE
  5
1CAF
100
AcDbEntity
  8
BORDER
100
AcDbLine
 10
94.095036
 20
96.32572
 30
0.0
 11
91.805728
 21
96.32572
 31
0.0
  0
LINE
  5
1CB0
100
AcDbEntity
  8
BORDER
100
AcDbLine
 10
94.095036
 20
96.533839
 30
0.0
 11
91.805728
 21
96.533839
 31
0.0
  0
LINE
  5
1CB1
100
AcDbEntity
  8
BORDER
100
AcDbLine
 10
94.095036
 20
96.741958
 30
0.0
 11
91.805728
 21
96.741958
 31
0.0
  0
LINE
  5
1CB2
100
AcDbEntity
  8
BORDER
100
AcDbLine
 10
94.095036
 20
96.950077
 30
0.0
 11
91.805728
 21
96.950077
 31
0.0
  0
LINE
  5
1CB3
100
AcDbEntity
  8
BORDER
100
AcDbLine
 10
94.095036
 20
97.321489
 30
0.0
 11
91.805728
 21
97.321489
 31
0.0
  0
LWPOLYLINE
  5
1CB4
100
AcDbEntity
  8
BORDER
 62
     5
100
AcDbPolyline
 90
        2
 70
     0
 43
0.104059
 10
94.095036
 20
97.529608
 10
91.805728
 20
97.529608
  0
TEXT
  5
1CB5
100
AcDbEntity
  8
BORDER
 62
     6
100
AcDbText
 10
92.395312
 20
97.043286
 30
0.0
 40
0.140067
  1
Revisions
  7
ROMANC
100
AcDbText
  0
ARC
  5
1CB6
100
AcDbEntity
  8
BORDER
100
AcDbCircle
 10
91.805728
 20
97.11337
 30
0.0
 40
0.208119
100
AcDbArc
 50
90.0
 51
180.0
  0
LINE
  5
1CB7
100
AcDbEntity
  8
BORDER
100
AcDbLine
 10
91.805728
 20
96.950077
 30
0.0
 11
91.805728
 21
96.117601
 31
0.0
  0
LINE
  5
1CB8
100
AcDbEntity
  8
BORDER
100
AcDbLine
 10
92.013847
 20
96.950077
 30
0.0
 11
92.013847
 21
96.117601
 31
0.0
  0
LINE
  5
1CB9
100
AcDbEntity
  8
BORDER
100
AcDbLine
 10
91.597609
 20
95.864657
 30
0.0
 11
91.597609
 21
97.11337
 31
0.0
  0
LWPOLYLINE
  5
1CBA
100
AcDbEntity
  8
BORDER
100
AcDbPolyline
 90
        6
 70
     1
 43
0.0
 10
91.954095
 20
96.768847
 10
91.998435
 20
96.845646
 10
91.954095
 20
96.922445
 10
91.865415
 20
96.922445
 10
91.821076
 20
96.845646
 10
91.865415
 20
96.768847
  0
TEXT
  5
1CBB
100
AcDbEntity
  8
BORDER
 62
     6
100
AcDbText
 10
91.860335
 20
96.794165
 30
0.0
 40
0.104059
  1
1
  7
ROMAND
100
AcDbText
  0
ARC
  5
1CBC
100
AcDbEntity
  8
BORDER
100
AcDbCircle
 10
94.095036
 20
97.11337
 30
0.0
 40
0.208119
100
AcDbArc
 50
0.0
 51
90.0
  0
LWPOLYLINE
  5
1CBD
100
AcDbEntity
  8
BORDER
 62
     5
100
AcDbPolyline
 90
        2
 70
     0
 43
0.104059
 10
94.095036
 20
97.529608
 42
-0.414214
 10
94.511274
 20
97.11337
 42
0.560527
  0
LINE
  5
1CBE
100
AcDbEntity
  8
BORDER
100
AcDbLine
 10
94.095036
 20
96.950077
 30
0.0
 11
94.095036
 21
96.117601
 31
0.0
  0
LINE
  5
1CBF
100
AcDbEntity
  8
BORDER
100
AcDbLine
 10
94.303155
 20
96.072776
 30
0.0
 11
94.303155
 21
97.11337
 31
0.0
  0
LWPOLYLINE
  5
1CC0
100
AcDbEntity
  8
BORDER
 62
     5
100
AcDbPolyline
 90
        2
 70
     0
 43
0.104059
 10
94.511274
 20
97.11337
 10
94.511274
 20
96.072776
  0
ARC
  5
1CC1
100
AcDbEntity
  8
BORDER
100
AcDbCircle
 10
94.095036
 20
96.072776
 30
0.0
 40
0.208119
100
AcDbArc
 50
270.0
 51
0.0
  0
LWPOLYLINE
  5
1CC2
100
AcDbEntity
  8
BORDER
 62
     5
100
AcDbPolyline
 90
        2
 70
     0
 43
0.041624
 10
94.344779
 20
115.302104
 10
79.584136
 20
115.302104
  0
LINE
  5
1CC3
100
AcDbEntity
  8
BORDER
 62
     5
100
AcDbLine
 10
94.344779
 20
115.302104
 30
0.0
 11
79.584136
 21
115.302104
 31
0.0
  0
LINE
  5
1CC4
100
AcDbEntity
  8
LIMITS
 62
     7
100
AcDbLine
 10
94.844264
 20
115.635094
 30
0.0
 11
79.08465
 21
115.635094
 31
0.0
  0
ENDSEC
  0
SECTION
  2
OBJECTS
  0
DICTIONARY
  5
C
100
AcDbDictionary
  3
ACAD_GROUP
350
D
  3
ACAD_MLINESTYLE
350
1A
  3
ACDBVARIABLEDICTIONARY
350
3E
  0
DICTIONARY
  5
D
102
{ACAD_REACTORS
330
C
102
}
100
AcDbDictionary
  0
DICTIONARY
  5
1A
102
{ACAD_REACTORS
330
C
102
}
100
AcDbDictionary
  3
STANDARD
350
1B
  0
DICTIONARY
  5
3E
102
{ACAD_REACTORS
330
C
102
}
100
AcDbDictionary
  3
DIMADEC
350
3F
  0
MLINESTYLE
  5
1B
102
{ACAD_REACTORS
330
1A
102
}
100
AcDbMlineStyle
  2
STANDARD
 70
     0
  3

 62
   256
 51
90.0
 52
90.0
 71
     2
 49
0.5
 62
   256
  6
BYLAYER
 49
-0.5
 62
   256
  6
BYLAYER
  0
DICTIONARYVAR
  5
3F
102
{ACAD_REACTORS
330
3E
102
}
100
DictionaryVariables
280
     0
  1
0
  0
ENDSEC
  0
EOF
