  0
SECTION
  2
HEADER
  9
$ACADVER
  1
AC1014
  9
$ACADMAINTVER
 70
     0
  9
$DWGCODEPAGE
  3
ANSI_1252
  9
$INSBASE
 10
0.0
 20
0.0
 30
0.0
  9
$EXTMIN
 10
212.213275
 20
122.36923
 30
0.0
  9
$EXTMAX
 10
277.176568
 20
206.439374
 30
10.78125
  9
$LIMMIN
 10
143.478344
 20
120.507783
  9
$LIMMAX
 10
209.507747
 20
206.821087
  9
$ORTHOMODE
 70
     0
  9
$REGENMODE
 70
     1
  9
$FILLMODE
 70
     1
  9
$QTEXTMODE
 70
     0
  9
$MIRRTEXT
 70
     1
  9
$DRAGMODE
 70
     2
  9
$LTSCALE
 40
1.0
  9
$OSMODE
 70
   675
  9
$ATTMODE
 70
     1
  9
$TEXTSIZE
 40
1.0
  9
$TRACEWID
 40
0.5
  9
$TEXTSTYLE
  7
ROMANT
  9
$CLAYER
  8
DIM
  9
$CELTYPE
  6
BYLAYER
  9
$CECOLOR
 62
   256
  9
$CELTSCALE
 40
1.0
  9
$DELOBJ
 70
     1
  9
$DISPSILH
 70
     0
  9
$DIMSCALE
 40
1.0
  9
$DIMASZ
 40
1.4
  9
$DIMEXO
 40
0.5
  9
$DIMDLI
 40
0.38
  9
$DIMRND
 40
0.0
  9
$DIMDLE
 40
0.0
  9
$DIMEXE
 40
0.5
  9
$DIMTP
 40
0.0
  9
$DIMTM
 40
0.0
  9
$DIMTXT
 40
0.18
  9
$DIMCEN
 40
0.09
  9
$DIMTSZ
 40
0.0
  9
$DIMTOL
 70
     0
  9
$DIMLIM
 70
     0
  9
$DIMTIH
 70
     1
  9
$DIMTOH
 70
     1
  9
$DIMSE1
 70
     0
  9
$DIMSE2
 70
     0
  9
$DIMTAD
 70
     0
  9
$DIMZIN
 70
     0
  9
$DIMBLK
  1

  9
$DIMASO
 70
     1
  9
$DIMSHO
 70
     1
  9
$DIMPOST
  1

  9
$DIMAPOST
  1

  9
$DIMALT
 70
     0
  9
$DIMALTD
 70
     2
  9
$DIMALTF
 40
25.4
  9
$DIMLFAC
 40
1.0
  9
$DIMTOFL
 70
     0
  9
$DIMTVP
 40
0.0
  9
$DIMTIX
 70
     1
  9
$DIMSOXD
 70
     0
  9
$DIMSAH
 70
     0
  9
$DIMBLK1
  1

  9
$DIMBLK2
  1

  9
$DIMSTYLE
  2
STANDARD
  9
$DIMCLRD
 70
     0
  9
$DIMCLRE
 70
     0
  9
$DIMCLRT
 70
     0
  9
$DIMTFAC
 40
1.0
  9
$DIMGAP
 40
0.5
  9
$DIMJUST
 70
     0
  9
$DIMSD1
 70
     0
  9
$DIMSD2
 70
     0
  9
$DIMTOLJ
 70
     1
  9
$DIMTZIN
 70
     0
  9
$DIMALTZ
 70
     0
  9
$DIMALTTZ
 70
     0
  9
$DIMFIT
 70
     5
  9
$DIMUPT
 70
     0
  9
$DIMUNIT
 70
     2
  9
$DIMDEC
 70
     4
  9
$DIMTDEC
 70
     4
  9
$DIMALTU
 70
     2
  9
$DIMALTTD
 70
     2
  9
$DIMTXSTY
  7
ROMANT
  9
$DIMAUNIT
 70
     0
  9
$LUNITS
 70
     2
  9
$LUPREC
 70
     4
  9
$SKETCHINC
 40
0.1
  9
$FILLETRAD
 40
0.0
  9
$AUNITS
 70
     0
  9
$AUPREC
 70
     0
  9
$MENU
  1
acad
  9
$ELEVATION
 40
0.0
  9
$PELEVATION
 40
0.0
  9
$THICKNESS
 40
0.0
  9
$LIMCHECK
 70
     0
  9
$BLIPMODE
 70
     0
  9
$CHAMFERA
 40
0.0
  9
$CHAMFERB
 40
0.0
  9
$CHAMFERC
 40
0.0
  9
$CHAMFERD
 40
0.0
  9
$SKPOLY
 70
     0
  9
$TDCREATE
 40
2449646.666749653
  9
$TDUPDATE
 40
2452829.599867060
  9
$TDINDWG
 40
0.2101614583
  9
$TDUSRTIMER
 40
0.2101614583
  9
$USRTIMER
 70
     1
  9
$ANGBASE
 50
0.0
  9
$ANGDIR
 70
     0
  9
$PDMODE
 70
     0
  9
$PDSIZE
 40
0.0
  9
$PLINEWID
 40
0.05
  9
$COORDS
 70
     1
  9
$SPLFRAME
 70
     0
  9
$SPLINETYPE
 70
     6
  9
$SPLINESEGS
 70
     8
  9
$ATTDIA
 70
     0
  9
$ATTREQ
 70
     1
  9
$HANDLING
 70
     1
  9
$HANDSEED
  5
2119
  9
$SURFTAB1
 70
     6
  9
$SURFTAB2
 70
     6
  9
$SURFTYPE
 70
     6
  9
$SURFU
 70
     6
  9
$SURFV
 70
     6
  9
$UCSNAME
  2

  9
$UCSORG
 10
0.0
 20
0.0
 30
0.0
  9
$UCSXDIR
 10
1.0
 20
0.0
 30
0.0
  9
$UCSYDIR
 10
0.0
 20
1.0
 30
0.0
  9
$PUCSNAME
  2

  9
$PUCSORG
 10
0.0
 20
0.0
 30
0.0
  9
$PUCSXDIR
 10
1.0
 20
0.0
 30
0.0
  9
$PUCSYDIR
 10
0.0
 20
1.0
 30
0.0
  9
$USERI1
 70
     0
  9
$USERI2
 70
     0
  9
$USERI3
 70
     0
  9
$USERI4
 70
     0
  9
$USERI5
 70
     0
  9
$USERR1
 40
0.0
  9
$USERR2
 40
0.0
  9
$USERR3
 40
0.0
  9
$USERR4
 40
0.0
  9
$USERR5
 40
0.0
  9
$WORLDVIEW
 70
     1
  9
$SHADEDGE
 70
     3
  9
$SHADEDIF
 70
    70
  9
$TILEMODE
 70
     1
  9
$MAXACTVP
 70
    16
  9
$PINSBASE
 10
0.0
 20
0.0
 30
0.0
  9
$PLIMCHECK
 70
     0
  9
$PEXTMIN
 10
1.000000E+20
 20
1.000000E+20
 30
1.000000E+20
  9
$PEXTMAX
 10
-1.000000E+20
 20
-1.000000E+20
 30
-1.000000E+20
  9
$PLIMMIN
 10
0.0
 20
0.0
  9
$PLIMMAX
 10
12.0
 20
9.0
  9
$UNITMODE
 70
     0
  9
$VISRETAIN
 70
     0
  9
$PLINEGEN
 70
     0
  9
$PSLTSCALE
 70
     1
  9
$TREEDEPTH
 70
  3020
  9
$PICKSTYLE
 70
     1
  9
$CMLSTYLE
  2
STANDARD
  9
$CMLJUST
 70
     0
  9
$CMLSCALE
 40
1.0
  9
$PROXYGRAPHICS
 70
     1
  9
$MEASUREMENT
 70
     0
  0
ENDSEC
  0
SECTION
  2
CLASSES
  0
CLASS
  1
DICTIONARYVAR
  2
AcDbDictionaryVar
  3
"AutoCAD"
 90
        0
280
     0
281
     0
  0
CLASS
  1
LWPOLYLINE
  2
AcDbPolyline
  3
"AutoCAD"
 90
        0
280
     0
281
     1
  0
CLASS
  1
HATCH
  2
AcDbHatch
  3
"ACAD_SEDONA"
 90
        0
280
     0
281
     1
  0
ENDSEC
  0
SECTION
  2
TABLES
  0
TABLE
  2
VPORT
  5
8
100
AcDbSymbolTable
 70
     1
  0
VPORT
  5
2110
100
AcDbSymbolTableRecord
100
AcDbViewportTableRecord
  2
*ACTIVE
 70
     0
 10
0.0
 20
0.0
 11
1.0
 21
1.0
 12
244.694308
 22
164.403761
 13
0.0
 23
0.0
 14
1.732051
 24
0.5
 15
0.0
 25
0.0
 16
0.0
 26
0.0
 36
1.0
 17
0.0
 27
0.0
 37
0.0
 40
84.974691
 41
1.71048
 42
50.0
 43
0.0
 44
0.0
 50
0.0
 51
0.0
 71
     0
 72
   100
 73
     1
 74
     0
 75
     0
 76
     0
 77
     1
 78
     1
  0
ENDTAB
  0
TABLE
  2
LTYPE
  5
5
100
AcDbSymbolTable
 70
     3
  0
LTYPE
  5
11
100
AcDbSymbolTableRecord
100
AcDbLinetypeTableRecord
  2
BYBLOCK
 70
     0
  3

 72
    65
 73
     0
 40
0.0
  0
LTYPE
  5
12
100
AcDbSymbolTableRecord
100
AcDbLinetypeTableRecord
  2
BYLAYER
 70
     0
  3

 72
    65
 73
     0
 40
0.0
  0
LTYPE
  5
13
100
AcDbSymbolTableRecord
100
AcDbLinetypeTableRecord
  2
CONTINUOUS
 70
     0
  3
Solid line
 72
    65
 73
     0
 40
0.0
  0
LTYPE
  5
3E
100
AcDbSymbolTableRecord
100
AcDbLinetypeTableRecord
  2
CENTER
 70
     0
  3
____ _ ____ _ ____ _ ____ _ ____ _ ____ _ ____ 
 72
    65
 73
     4
 40
2.0
 49
1.25
 74
     0
 49
-0.25
 74
     0
 49
0.25
 74
     0
 49
-0.25
 74
     0
  0
LTYPE
  5
40
100
AcDbSymbolTableRecord
100
AcDbLinetypeTableRecord
  2
HIDDEN
 70
     0
  3
__ __ __ __ __ __ __ __ __ __ __ __ __ __ __ __
 72
    65
 73
     2
 40
0.375
 49
0.25
 74
     0
 49
-0.125
 74
     0
  0
ENDTAB
  0
TABLE
  2
LAYER
  5
2
100
AcDbSymbolTable
 70
     7
  0
LAYER
  5
E
100
AcDbSymbolTableRecord
100
AcDbLayerTableRecord
  2
0
 70
     0
 62
     7
  6
CONTINUOUS
  0
LAYER
  5
43
100
AcDbSymbolTableRecord
100
AcDbLayerTableRecord
  2
OBJECT
 70
     0
 62
     2
  6
CONTINUOUS
  0
LAYER
  5
44
100
AcDbSymbolTableRecord
100
AcDbLayerTableRecord
  2
DIM
 70
     0
 62
     6
  6
CONTINUOUS
  0
LAYER
  5
45
100
AcDbSymbolTableRecord
100
AcDbLayerTableRecord
  2
HIDDEN
 70
     0
 62
     1
  6
HIDDEN
  0
LAYER
  5
48
100
AcDbSymbolTableRecord
100
AcDbLayerTableRecord
  2
DEFPOINTS
 70
     0
 62
     7
  6
CONTINUOUS
  0
LAYER
  5
49
100
AcDbSymbolTableRecord
100
AcDbLayerTableRecord
  2
BORDER
 70
     0
 62
     5
  6
CONTINUOUS
  0
LAYER
  5
1F4C
100
AcDbSymbolTableRecord
100
AcDbLayerTableRecord
  2
LIMITS
 70
     0
 62
     7
  6
CONTINUOUS
  0
ENDTAB
  0
TABLE
  2
STYLE
  5
3
100
AcDbSymbolTable
 70
     6
  0
STYLE
  5
F
100
AcDbSymbolTableRecord
100
AcDbTextStyleTableRecord
  2
STANDARD
 70
     0
 40
0.0
 41
1.0
 50
0.0
 71
     0
 42
0.2
  3
txt
  4

  0
STYLE
  5
39
100
AcDbSymbolTableRecord
100
AcDbTextStyleTableRecord
  2
ROMANS
 70
     0
 40
1.0
 41
1.0
 50
0.0
 71
     0
 42
1.0
  3
romans
  4

  0
STYLE
  5
3A
100
AcDbSymbolTableRecord
100
AcDbTextStyleTableRecord
  2
ROMANT
 70
     0
 40
0.75
 41
1.0
 50
0.0
 71
     0
 42
1.0
  3
romant
  4

  0
STYLE
  5
3B
100
AcDbSymbolTableRecord
100
AcDbTextStyleTableRecord
  2
ROMAND
 70
     0
 40
0.1
 41
1.0
 50
0.0
 71
     0
 42
0.1
  3
romand
  4

  0
STYLE
  5
3C
100
AcDbSymbolTableRecord
100
AcDbTextStyleTableRecord
  2
ROMANC
 70
     0
 40
0.0531
 41
1.0
 50
0.0
 71
     0
 42
0.0531
  3
romanc
  4

  0
STYLE
  5
1F4D
100
AcDbSymbolTableRecord
100
AcDbTextStyleTableRecord
  2
COUNTRYBLUEPRINT
 70
     0
 40
0.061059
 41
1.0
 50
0.0
 71
     0
 42
0.061059
  3
cobt____.pfb
  4

  0
ENDTAB
  0
TABLE
  2
VIEW
  5
6
100
AcDbSymbolTable
 70
     0
  0
ENDTAB
  0
TABLE
  2
UCS
  5
7
100
AcDbSymbolTable
 70
     0
  0
ENDTAB
  0
TABLE
  2
APPID
  5
9
100
AcDbSymbolTable
 70
     1
  0
APPID
  5
10
100
AcDbSymbolTableRecord
100
AcDbRegAppTableRecord
  2
ACAD
 70
     0
  0
ENDTAB
  0
TABLE
  2
DIMSTYLE
  5
A
100
AcDbSymbolTable
 70
     1
  0
DIMSTYLE
105
1B10
100
AcDbSymbolTableRecord
100
AcDbDimStyleTableRecord
  2
STANDARD
 70
     0
  3

  4

  5

  6

  7

 40
1.0
 41
0.18
 42
0.0625
 43
0.38
 44
0.18
 45
0.0
 46
0.0
 47
0.0
 48
0.0
140
0.18
141
0.09
142
0.0
143
25.4
144
1.0
145
0.0
146
1.0
147
0.09
 71
     0
 72
     0
 73
     1
 74
     1
 75
     0
 76
     0
 77
     0
 78
     0
170
     0
171
     2
172
     0
173
     0
174
     0
175
     0
176
     0
177
     0
178
     0
270
     2
271
     4
272
     4
273
     2
274
     2
340
F
275
     0
280
     0
281
     0
282
     0
283
     1
284
     0
285
     0
286
     0
287
     3
288
     0
  0
ENDTAB
  0
TABLE
  2
BLOCK_RECORD
  5
1
100
AcDbSymbolTable
 70
     4
  0
BLOCK_RECORD
  5
17
100
AcDbSymbolTableRecord
100
AcDbBlockTableRecord
  2
*MODEL_SPACE
  0
BLOCK_RECORD
  5
14
100
AcDbSymbolTableRecord
100
AcDbBlockTableRecord
  2
*PAPER_SPACE
  0
BLOCK_RECORD
  5
35
100
AcDbSymbolTableRecord
100
AcDbBlockTableRecord
  2
*D0
  0
BLOCK_RECORD
  5
36
100
AcDbSymbolTableRecord
100
AcDbBlockTableRecord
  2
*D1
  0
BLOCK_RECORD
  5
37
100
AcDbSymbolTableRecord
100
AcDbBlockTableRecord
  2
*D2
  0
BLOCK_RECORD
  5
38
100
AcDbSymbolTableRecord
100
AcDbBlockTableRecord
  2
*D3
  0
ENDTAB
  0
ENDSEC
  0
SECTION
  2
BLOCKS
  0
BLOCK
  5
4E
100
AcDbEntity
  8
0
100
AcDbBlockBegin
  2
*MODEL_SPACE
 70
     0
 10
0.0
 20
0.0
 30
0.0
  3
*MODEL_SPACE
  1

  0
ENDBLK
  5
4F
100
AcDbEntity
  8
0
100
AcDbBlockEnd
  0
BLOCK
  5
4C
100
AcDbEntity
 67
     1
  8
0
100
AcDbBlockBegin
  2
*PAPER_SPACE
 70
     0
 10
0.0
 20
0.0
 30
0.0
  3
*PAPER_SPACE
  1

  0
ENDBLK
  5
4D
100
AcDbEntity
 67
     1
  8
0
100
AcDbBlockEnd
  0
BLOCK
  5
13B1
100
AcDbEntity
  8
0
100
AcDbBlockBegin
  2
*D0
 70
     1
 10
0.0
 20
0.0
 30
0.0
  3
*D0
  1

  0
LINE
  5
13B2
100
AcDbEntity
  8
0
  6
BYBLOCK
 62
     0
100
AcDbLine
 10
191.446926
 20
187.119969
 30
0.0
 11
200.956457
 21
187.119969
 31
0.0
  0
LINE
  5
13B3
100
AcDbEntity
  8
0
  6
BYBLOCK
 62
     0
100
AcDbLine
 10
190.009626
 20
191.345934
 30
0.0
 11
200.956457
 21
191.345934
 31
0.0
  0
LINE
  5
13B4
100
AcDbEntity
  8
0
  6
BYBLOCK
 62
     0
100
AcDbLine
 10
200.456457
 20
187.519969
 30
0.0
 11
200.456457
 21
188.642951
 31
0.0
  0
LINE
  5
13B5
100
AcDbEntity
  8
0
  6
BYBLOCK
 62
     0
100
AcDbLine
 10
200.456457
 20
190.945934
 30
0.0
 11
200.456457
 21
189.822951
 31
0.0
  0
SOLID
  5
13B6
100
AcDbEntity
  8
0
  6
BYBLOCK
 62
     0
100
AcDbTrace
 10
200.38979
 20
187.519969
 30
0.0
 11
200.523123
 21
187.519969
 31
0.0
 12
200.456457
 22
187.119969
 32
0.0
 13
200.456457
 23
187.119969
 33
0.0
  0
SOLID
  5
13B7
100
AcDbEntity
  8
0
  6
BYBLOCK
 62
     0
100
AcDbTrace
 10
200.38979
 20
190.945934
 30
0.0
 11
200.523123
 21
190.945934
 31
0.0
 12
200.456457
 22
191.345934
 32
0.0
 13
200.456457
 23
191.345934
 33
0.0
  0
TEXT
  5
13B8
100
AcDbEntity
  8
0
  6
BYBLOCK
 62
     0
100
AcDbText
 10
200.027885
 20
188.982951
 30
0.0
 40
0.5
  1
4"
  7
ROMANT
 72
     1
 11
200.456457
 21
189.232951
 31
0.0
100
AcDbText
 73
     2
  0
POINT
  5
13BA
100
AcDbEntity
  8
DEFPOINTS
  6
BYBLOCK
 62
     0
100
AcDbPoint
 10
190.946926
 20
187.119969
 30
0.0
  0
POINT
  5
13BB
100
AcDbEntity
  8
DEFPOINTS
  6
BYBLOCK
 62
     0
100
AcDbPoint
 10
189.509626
 20
191.345934
 30
0.0
  0
POINT
  5
13BC
100
AcDbEntity
  8
DEFPOINTS
  6
BYBLOCK
 62
     0
100
AcDbPoint
 10
200.456457
 20
191.345934
 30
0.0
  0
ENDBLK
  5
13BD
100
AcDbEntity
  8
0
100
AcDbBlockEnd
  0
BLOCK
  5
13BE
100
AcDbEntity
  8
0
100
AcDbBlockBegin
  2
*D1
 70
     1
 10
0.0
 20
0.0
 30
0.0
  3
*D1
  1

  0
LINE
  5
13BF
100
AcDbEntity
  8
0
  6
BYBLOCK
 62
     0
100
AcDbLine
 10
185.116948
 20
190.078767
 30
0.0
 11
185.116948
 21
184.769849
 31
0.0
  0
LINE
  5
13C0
100
AcDbEntity
  8
0
  6
BYBLOCK
 62
     0
100
AcDbLine
 10
193.902304
 20
190.078767
 30
0.0
 11
193.902304
 21
184.769849
 31
0.0
  0
LINE
  5
13C1
100
AcDbEntity
  8
0
  6
BYBLOCK
 62
     0
100
AcDbLine
 10
185.516948
 20
185.269849
 30
0.0
 11
188.640578
 21
185.269849
 31
0.0
  0
LINE
  5
13C2
100
AcDbEntity
  8
0
  6
BYBLOCK
 62
     0
100
AcDbLine
 10
193.502304
 20
185.269849
 30
0.0
 11
190.378674
 21
185.269849
 31
0.0
  0
SOLID
  5
13C3
100
AcDbEntity
  8
0
  6
BYBLOCK
 62
     0
100
AcDbTrace
 10
185.516948
 20
185.336516
 30
0.0
 11
185.516948
 21
185.203183
 31
0.0
 12
185.116948
 22
185.269849
 32
0.0
 13
185.116948
 23
185.269849
 33
0.0
  0
SOLID
  5
13C4
100
AcDbEntity
  8
0
  6
BYBLOCK
 62
     0
100
AcDbTrace
 10
193.502304
 20
185.336516
 30
0.0
 11
193.502304
 21
185.203183
 31
0.0
 12
193.902304
 22
185.269849
 32
0.0
 13
193.902304
 23
185.269849
 33
0.0
  0
TEXT
  5
13C5
100
AcDbEntity
  8
0
  6
BYBLOCK
 62
     0
100
AcDbText
 10
189.06915
 20
185.019849
 30
0.0
 40
0.5
  1
8"
  7
ROMANT
 72
     1
 11
189.509626
 21
185.269849
 31
0.0
100
AcDbText
 73
     2
  0
POINT
  5
13C6
100
AcDbEntity
  8
DEFPOINTS
  6
BYBLOCK
 62
     0
100
AcDbPoint
 10
185.116948
 20
190.578767
 30
0.0
  0
POINT
  5
13C7
100
AcDbEntity
  8
DEFPOINTS
  6
BYBLOCK
 62
     0
100
AcDbPoint
 10
193.902304
 20
190.578767
 30
0.0
  0
POINT
  5
13C8
100
AcDbEntity
  8
DEFPOINTS
  6
BYBLOCK
 62
     0
100
AcDbPoint
 10
193.902304
 20
185.269849
 30
0.0
  0
ENDBLK
  5
13C9
100
AcDbEntity
  8
0
100
AcDbBlockEnd
  0
BLOCK
  5
13CA
100
AcDbEntity
  8
0
100
AcDbBlockBegin
  2
*D2
 70
     1
 10
0.0
 20
0.0
 30
0.0
  3
*D2
  1

  0
LINE
  5
13CB
100
AcDbEntity
  8
0
  6
BYBLOCK
 62
     0
100
AcDbLine
 10
183.384626
 20
189.260969
 30
0.0
 11
183.384626
 21
182.158353
 31
0.0
  0
LINE
  5
13CC
100
AcDbEntity
  8
0
  6
BYBLOCK
 62
     0
100
AcDbLine
 10
195.634626
 20
189.260969
 30
0.0
 11
195.634626
 21
182.158353
 31
0.0
  0
LINE
  5
13CD
100
AcDbEntity
  8
0
  6
BYBLOCK
 62
     0
100
AcDbLine
 10
183.784626
 20
182.658353
 30
0.0
 11
187.426293
 21
182.658353
 31
0.0
  0
LINE
  5
13CE
100
AcDbEntity
  8
0
  6
BYBLOCK
 62
     0
100
AcDbLine
 10
195.234626
 20
182.658353
 30
0.0
 11
191.592959
 21
182.658353
 31
0.0
  0
SOLID
  5
13CF
100
AcDbEntity
  8
0
  6
BYBLOCK
 62
     0
100
AcDbTrace
 10
183.784626
 20
182.72502
 30
0.0
 11
183.784626
 21
182.591686
 31
0.0
 12
183.384626
 22
182.658353
 32
0.0
 13
183.384626
 23
182.658353
 33
0.0
  0
SOLID
  5
13D0
100
AcDbEntity
  8
0
  6
BYBLOCK
 62
     0
100
AcDbTrace
 10
195.234626
 20
182.72502
 30
0.0
 11
195.234626
 21
182.591686
 31
0.0
 12
195.634626
 22
182.658353
 32
0.0
 13
195.634626
 23
182.658353
 33
0.0
  0
TEXT
  5
13D1
100
AcDbEntity
  8
0
  6
BYBLOCK
 62
     0
100
AcDbText
 10
187.807245
 20
182.408353
 30
0.0
 40
0.5
  1
12 1/4"
  7
ROMANT
 72
     1
 11
189.509626
 21
182.658353
 31
0.0
100
AcDbText
 73
     2
  0
POINT
  5
13D2
100
AcDbEntity
  8
DEFPOINTS
  6
BYBLOCK
 62
     0
100
AcDbPoint
 10
183.384626
 20
189.760969
 30
0.0
  0
POINT
  5
13D3
100
AcDbEntity
  8
DEFPOINTS
  6
BYBLOCK
 62
     0
100
AcDbPoint
 10
195.634626
 20
189.760969
 30
0.0
  0
POINT
  5
13D4
100
AcDbEntity
  8
DEFPOINTS
  6
BYBLOCK
 62
     0
100
AcDbPoint
 10
195.634626
 20
182.658353
 30
0.0
  0
ENDBLK
  5
13D5
100
AcDbEntity
  8
0
100
AcDbBlockEnd
  0
BLOCK
  5
13D6
100
AcDbEntity
  8
0
100
AcDbBlockBegin
  2
*D3
 70
     1
 10
0.0
 20
0.0
 30
0.0
  3
*D3
  1

  0
LINE
  5
13D7
100
AcDbEntity
  8
0
  6
BYBLOCK
 62
     0
100
AcDbLine
 10
196.134626
 20
179.924151
 30
0.0
 11
200.563334
 21
179.924151
 31
0.0
  0
LINE
  5
13D8
100
AcDbEntity
  8
0
  6
BYBLOCK
 62
     0
100
AcDbLine
 10
196.134626
 20
153.924151
 30
0.0
 11
200.563334
 21
153.924151
 31
0.0
  0
LINE
  5
13D9
100
AcDbEntity
  8
0
  6
BYBLOCK
 62
     0
100
AcDbLine
 10
200.063334
 20
179.524151
 30
0.0
 11
200.063334
 21
167.514151
 31
0.0
  0
LINE
  5
13DA
100
AcDbEntity
  8
0
  6
BYBLOCK
 62
     0
100
AcDbLine
 10
200.063334
 20
154.324151
 30
0.0
 11
200.063334
 21
166.334151
 31
0.0
  0
SOLID
  5
13DB
100
AcDbEntity
  8
0
  6
BYBLOCK
 62
     0
100
AcDbTrace
 10
199.996668
 20
179.524151
 30
0.0
 11
200.130001
 21
179.524151
 31
0.0
 12
200.063334
 22
179.924151
 32
0.0
 13
200.063334
 23
179.924151
 33
0.0
  0
SOLID
  5
13DC
100
AcDbEntity
  8
0
  6
BYBLOCK
 62
     0
100
AcDbTrace
 10
199.996668
 20
154.324151
 30
0.0
 11
200.130001
 21
154.324151
 31
0.0
 12
200.063334
 22
153.924151
 32
0.0
 13
200.063334
 23
153.924151
 33
0.0
  0
TEXT
  5
13DD
100
AcDbEntity
  8
0
  6
BYBLOCK
 62
     0
100
AcDbText
 10
198.718096
 20
166.674151
 30
0.0
 40
0.5
  1
VARIES
  7
ROMANT
 72
     1
 11
200.063334
 21
166.924151
 31
0.0
100
AcDbText
 73
     2
  0
POINT
  5
13DE
100
AcDbEntity
  8
DEFPOINTS
  6
BYBLOCK
 62
     0
100
AcDbPoint
 10
195.634626
 20
179.924151
 30
0.0
  0
POINT
  5
13DF
100
AcDbEntity
  8
DEFPOINTS
  6
BYBLOCK
 62
     0
100
AcDbPoint
 10
195.634626
 20
153.924151
 30
0.0
  0
POINT
  5
13E0
100
AcDbEntity
  8
DEFPOINTS
  6
BYBLOCK
 62
     0
100
AcDbPoint
 10
200.063334
 20
153.924151
 30
0.0
  0
ENDBLK
  5
13E1
100
AcDbEntity
  8
0
100
AcDbBlockEnd
  0
ENDSEC
  0
SECTION
  2
ENTITIES
  0
LINE
  5
13E2
100
AcDbEntity
  8
OBJECT
100
AcDbLine
 10
251.614019
 20
154.899271
 30
0.0
 11
263.864019
 21
154.899271
 31
0.0
  0
LINE
  5
13E3
100
AcDbEntity
  8
OBJECT
100
AcDbLine
 10
263.864019
 20
180.899271
 30
0.0
 11
251.614019
 21
180.899271
 31
0.0
  0
LINE
  5
13E4
100
AcDbEntity
  8
OBJECT
100
AcDbLine
 10
251.614019
 20
190.73609
 30
0.0
 11
251.614019
 21
190.861418
 31
0.0
  0
LINE
  5
13E5
100
AcDbEntity
  8
OBJECT
100
AcDbLine
 10
263.864019
 20
190.73609
 30
0.0
 11
263.864019
 21
190.861418
 31
0.0
  0
LINE
  5
13E6
100
AcDbEntity
  8
OBJECT
100
AcDbLine
 10
256.306006
 20
187.98609
 30
0.0
 11
259.172032
 21
187.98609
 31
0.0
  0
ARC
  5
13E7
100
AcDbEntity
  8
OBJECT
100
AcDbCircle
 10
257.739019
 20
180.00532
 30
0.0
 40
12.355769
100
AcDbArc
 50
60.282771
 51
119.717229
  0
ARC
  5
13E8
100
AcDbEntity
  8
OBJECT
100
AcDbCircle
 10
257.739019
 20
180.00532
 30
0.0
 40
12.464769
100
AcDbArc
 50
60.568349
 51
119.431651
  0
LINE
  5
13E9
100
AcDbEntity
  8
OBJECT
100
AcDbLine
 10
259.297032
 20
188.019583
 30
0.0
 11
261.325281
 21
189.190593
 31
0.0
  0
LINE
  5
13EA
100
AcDbEntity
  8
OBJECT
100
AcDbLine
 10
261.435204
 20
189.321595
 30
0.0
 11
262.189436
 21
191.39383
 31
0.0
  0
LINE
  5
13EB
100
AcDbEntity
  8
OBJECT
100
AcDbLine
 10
254.042834
 20
189.321595
 30
0.0
 11
253.288602
 21
191.39383
 31
0.0
  0
LINE
  5
13EC
100
AcDbEntity
  8
OBJECT
100
AcDbLine
 10
256.181006
 20
188.019583
 30
0.0
 11
254.152757
 21
189.190593
 31
0.0
  0
ARC
  5
13ED
100
AcDbEntity
  8
OBJECT
100
AcDbCircle
 10
254.277757
 20
189.4071
 30
0.0
 40
0.25
100
AcDbArc
 50
200.0
 51
240.0
  0
ARC
  5
13EE
100
AcDbEntity
  8
OBJECT
100
AcDbCircle
 10
256.306006
 20
188.23609
 30
0.0
 40
0.25
100
AcDbArc
 50
240.0
 51
270.0
  0
ARC
  5
13EF
100
AcDbEntity
  8
OBJECT
100
AcDbCircle
 10
259.172032
 20
188.23609
 30
0.0
 40
0.25
100
AcDbArc
 50
270.0
 51
300.0
  0
ARC
  5
13F0
100
AcDbEntity
  8
OBJECT
100
AcDbCircle
 10
261.200281
 20
189.4071
 30
0.0
 40
0.25
100
AcDbArc
 50
300.0
 51
340.0
  0
ARC
  5
13F1
100
AcDbEntity
  8
OBJECT
100
AcDbCircle
 10
253.171141
 20
191.351077
 30
0.0
 40
0.125
100
AcDbArc
 50
20.0
 51
111.930048
  0
ARC
  5
13F2
100
AcDbEntity
  8
OBJECT
100
AcDbCircle
 10
262.306897
 20
191.351077
 30
0.0
 40
0.125
100
AcDbArc
 50
68.069952
 51
160.0
  0
LINE
  5
13F3
100
AcDbEntity
  8
OBJECT
100
AcDbLine
 10
253.614019
 20
178.899271
 30
0.0
 11
253.614019
 21
154.899271
 31
0.0
  0
LINE
  5
13F4
100
AcDbEntity
  8
OBJECT
100
AcDbLine
 10
256.241302
 20
178.899271
 30
0.0
 11
256.241302
 21
154.899271
 31
0.0
  0
LINE
  5
13F5
100
AcDbEntity
  8
OBJECT
100
AcDbLine
 10
259.236737
 20
178.899271
 30
0.0
 11
259.236737
 21
154.899271
 31
0.0
  0
LINE
  5
13F6
100
AcDbEntity
  8
OBJECT
100
AcDbLine
 10
261.864019
 20
178.899271
 30
0.0
 11
261.864019
 21
154.899271
 31
0.0
  0
LINE
  5
13F7
100
AcDbEntity
  8
OBJECT
100
AcDbLine
 10
261.864019
 20
178.899271
 30
0.0
 11
253.614019
 21
178.899271
 31
0.0
  0
LINE
  5
13F8
100
AcDbEntity
  8
OBJECT
100
AcDbLine
 10
251.614019
 20
180.899271
 30
0.0
 11
251.614019
 21
154.899271
 31
0.0
  0
LINE
  5
13F9
100
AcDbEntity
  8
OBJECT
100
AcDbLine
 10
263.864019
 20
180.899271
 30
0.0
 11
263.864019
 21
154.899271
 31
0.0
  0
LINE
  5
13FA
100
AcDbEntity
  8
OBJECT
100
AcDbLine
 10
225.852195
 20
174.324434
 30
0.0
 11
225.852195
 21
165.368785
 31
0.0
  0
LINE
  5
13FB
100
AcDbEntity
  8
OBJECT
100
AcDbLine
 10
226.807522
 20
174.20235
 30
0.0
 11
226.807522
 21
165.251142
 31
0.0
  0
LINE
  5
13FC
100
AcDbEntity
  8
OBJECT
100
AcDbLine
 10
228.156859
 20
174.045054
 30
0.0
 11
228.156859
 21
165.093846
 31
0.0
  0
LINE
  5
13FD
100
AcDbEntity
  8
OBJECT
100
AcDbLine
 10
229.561362
 20
174.855944
 30
0.0
 11
229.561362
 21
165.900295
 31
0.0
  0
LINE
  5
13FE
100
AcDbEntity
  8
OBJECT
100
AcDbLine
 10
230.232955
 20
176.180024
 30
0.0
 11
230.232955
 21
167.192668
 31
0.0
  0
LINE
  5
13FF
100
AcDbEntity
  8
OBJECT
100
AcDbLine
 10
225.852195
 20
174.324434
 30
0.0
 11
226.807522
 21
174.20235
 31
0.0
  0
LINE
  5
1400
100
AcDbEntity
  8
OBJECT
100
AcDbLine
 10
226.807522
 20
174.20235
 30
0.0
 11
228.156859
 21
174.045054
 31
0.0
  0
LINE
  5
1401
100
AcDbEntity
  8
OBJECT
100
AcDbLine
 10
228.156859
 20
174.045054
 30
0.0
 11
229.561362
 21
174.855944
 31
0.0
  0
LINE
  5
1402
100
AcDbEntity
  8
OBJECT
100
AcDbLine
 10
229.561362
 20
174.855944
 30
0.0
 11
230.232955
 21
176.180024
 31
0.0
  0
LINE
  5
1403
100
AcDbEntity
  8
OBJECT
100
AcDbLine
 10
229.561362
 20
165.934966
 30
0.0
 11
230.232955
 21
167.259046
 31
0.0
  0
LINE
  5
1404
100
AcDbEntity
  8
OBJECT
100
AcDbLine
 10
228.156859
 20
165.124076
 30
0.0
 11
229.561362
 21
165.934966
 31
0.0
  0
LINE
  5
1405
100
AcDbEntity
  8
OBJECT
100
AcDbLine
 10
225.852195
 20
165.403456
 30
0.0
 11
226.807522
 21
165.281371
 31
0.0
  0
LINE
  5
1406
100
AcDbEntity
  8
OBJECT
100
AcDbLine
 10
226.807522
 20
165.281371
 30
0.0
 11
228.156859
 21
165.124076
 31
0.0
  0
LINE
  5
1407
100
AcDbEntity
  8
OBJECT
100
AcDbLine
 10
230.232955
 20
176.180024
 30
0.0
 11
230.025628
 21
176.733967
 31
0.0
  0
LINE
  5
1408
100
AcDbEntity
  8
OBJECT
100
AcDbLine
 10
225.24507
 20
174.811171
 30
0.0
 11
225.24507
 21
165.052933
 31
0.0
  0
LINE
  5
1409
100
AcDbEntity
  8
OBJECT
100
AcDbLine
 10
225.211143
 20
174.769284
 30
0.0
 11
225.211143
 21
165.016009
 31
0.0
  0
LINE
  5
140A
100
AcDbEntity
  8
OBJECT
100
AcDbLine
 10
230.988865
 20
178.042206
 30
0.0
 11
230.988865
 21
168.351778
 31
0.0
  0
LINE
  5
140B
100
AcDbEntity
  8
OBJECT
100
AcDbLine
 10
225.852195
 20
165.403456
 30
0.0
 11
225.24507
 21
165.052933
 31
0.0
  0
LINE
  5
140C
100
AcDbEntity
  8
OBJECT
100
AcDbLine
 10
225.24507
 20
165.052933
 30
0.0
 11
225.211143
 21
165.072521
 31
0.0
  0
LINE
  5
140D
100
AcDbEntity
  8
OBJECT
100
AcDbLine
 10
230.232955
 20
167.932689
 30
0.0
 11
230.988865
 21
168.369114
 31
0.0
  0
LINE
  5
140E
100
AcDbEntity
  8
OBJECT
100
AcDbLine
 10
221.220488
 20
177.186878
 30
0.0
 11
223.955329
 21
175.607917
 31
0.0
  0
LINE
  5
140F
100
AcDbEntity
  8
OBJECT
100
AcDbLine
 10
223.933936
 20
182.958001
 30
0.0
 11
223.933936
 21
156.308915
 31
0.0
  0
LINE
  5
1410
100
AcDbEntity
  8
OBJECT
100
AcDbLine
 10
238.856982
 20
182.958001
 30
0.0
 11
238.856982
 21
156.308915
 31
0.0
  0
LINE
  5
1411
100
AcDbEntity
  8
OBJECT
100
AcDbLine
 10
238.841969
 20
163.46095
 30
0.0
 11
238.841969
 21
156.308915
 31
0.0
  0
LINE
  5
1412
100
AcDbEntity
  8
OBJECT
100
AcDbLine
 10
223.948949
 20
182.939339
 30
0.0
 11
223.948949
 21
156.308915
 31
0.0
  0
LINE
  5
1413
100
AcDbEntity
  8
OBJECT
100
AcDbLine
 10
238.826956
 20
163.469618
 30
0.0
 11
238.826956
 21
156.308915
 31
0.0
  0
LINE
  5
1414
100
AcDbEntity
  8
OBJECT
100
AcDbLine
 10
223.963962
 20
182.920826
 30
0.0
 11
223.963962
 21
156.308915
 31
0.0
  0
ARC
  5
1415
100
AcDbEntity
  8
OBJECT
100
AcDbCircle
 10
232.375356
 20
160.398063
 30
0.0
 40
8.409034
100
AcDbArc
 50
283.805115
 51
300.677107
  0
ARC
  5
1416
100
AcDbEntity
  8
OBJECT
100
AcDbCircle
 10
232.375356
 20
160.398063
 30
0.0
 40
8.394021
100
AcDbArc
 50
283.805115
 51
300.677107
  0
ARC
  5
1417
100
AcDbEntity
  8
OBJECT
100
AcDbCircle
 10
232.375356
 20
160.398063
 30
0.0
 40
8.379008
100
AcDbArc
 50
283.805115
 51
300.677107
  0
ARC
  5
1418
100
AcDbEntity
  8
OBJECT
100
AcDbCircle
 10
228.923784
 20
157.883337
 30
0.0
 40
5.485125
100
AcDbArc
 50
214.924692
 51
239.322893
  0
ARC
  5
1419
100
AcDbEntity
  8
OBJECT
100
AcDbCircle
 10
228.923784
 20
157.883337
 30
0.0
 40
5.470112
100
AcDbArc
 50
214.924692
 51
239.322893
  0
ARC
  5
141A
100
AcDbEntity
  8
OBJECT
100
AcDbCircle
 10
228.923784
 20
157.883337
 30
0.0
 40
5.455099
100
AcDbArc
 50
214.924692
 51
239.322893
  0
ARC
  5
141B
100
AcDbEntity
  8
OBJECT
100
AcDbCircle
 10
231.395459
 20
164.385956
 30
0.0
 40
12.515551
100
AcDbArc
 50
256.194885
 51
270.0
  0
ARC
  5
141C
100
AcDbEntity
  8
OBJECT
100
AcDbCircle
 10
231.395459
 20
164.385956
 30
0.0
 40
12.500538
100
AcDbArc
 50
256.194885
 51
270.0
  0
ARC
  5
141D
100
AcDbEntity
  8
OBJECT
100
AcDbCircle
 10
231.395459
 20
164.385956
 30
0.0
 40
12.485525
100
AcDbArc
 50
256.194885
 51
270.0
  0
ARC
  5
141E
100
AcDbEntity
  8
OBJECT
100
AcDbCircle
 10
230.415561
 20
160.398063
 30
0.0
 40
8.409034
100
AcDbArc
 50
239.322893
 51
256.194885
  0
ARC
  5
141F
100
AcDbEntity
  8
OBJECT
100
AcDbCircle
 10
230.415561
 20
160.398063
 30
0.0
 40
8.394021
100
AcDbArc
 50
239.322893
 51
256.194885
  0
ARC
  5
1420
100
AcDbEntity
  8
OBJECT
100
AcDbCircle
 10
230.415561
 20
160.398063
 30
0.0
 40
8.379008
100
AcDbArc
 50
239.322893
 51
256.194885
  0
ARC
  5
1421
100
AcDbEntity
  8
OBJECT
100
AcDbCircle
 10
231.395459
 20
164.385956
 30
0.0
 40
12.515551
100
AcDbArc
 50
270.0
 51
283.805115
  0
ARC
  5
1422
100
AcDbEntity
  8
OBJECT
100
AcDbCircle
 10
231.395459
 20
164.385956
 30
0.0
 40
12.500538
100
AcDbArc
 50
270.0
 51
283.805115
  0
ARC
  5
1423
100
AcDbEntity
  8
OBJECT
100
AcDbCircle
 10
231.395459
 20
164.385956
 30
0.0
 40
12.485525
100
AcDbArc
 50
270.0
 51
283.805115
  0
ARC
  5
1424
100
AcDbEntity
  8
OBJECT
100
AcDbCircle
 10
226.668975
 20
156.308915
 30
0.0
 40
2.735039
100
AcDbArc
 50
180.0
 51
214.924692
  0
ARC
  5
1425
100
AcDbEntity
  8
OBJECT
100
AcDbCircle
 10
226.668975
 20
156.308915
 30
0.0
 40
2.720026
100
AcDbArc
 50
180.0
 51
214.924692
  0
ARC
  5
1426
100
AcDbEntity
  8
OBJECT
100
AcDbCircle
 10
226.668975
 20
156.308915
 30
0.0
 40
2.705013
100
AcDbArc
 50
180.0
 51
214.924692
  0
ARC
  5
1427
100
AcDbEntity
  8
OBJECT
100
AcDbCircle
 10
233.867133
 20
157.883337
 30
0.0
 40
5.485125
100
AcDbArc
 50
300.677107
 51
325.075308
  0
ARC
  5
1428
100
AcDbEntity
  8
OBJECT
100
AcDbCircle
 10
233.867133
 20
157.883337
 30
0.0
 40
5.470112
100
AcDbArc
 50
300.677107
 51
325.075308
  0
ARC
  5
1429
100
AcDbEntity
  8
OBJECT
100
AcDbCircle
 10
233.867133
 20
157.883337
 30
0.0
 40
5.455099
100
AcDbArc
 50
300.677107
 51
325.075308
  0
ARC
  5
142A
100
AcDbEntity
  8
OBJECT
100
AcDbCircle
 10
236.121942
 20
156.308915
 30
0.0
 40
2.735039
100
AcDbArc
 50
325.075308
 51
0.0
  0
ARC
  5
142B
100
AcDbEntity
  8
OBJECT
100
AcDbCircle
 10
236.121942
 20
156.308915
 30
0.0
 40
2.720026
100
AcDbArc
 50
325.075308
 51
0.0
  0
ARC
  5
142C
100
AcDbEntity
  8
OBJECT
100
AcDbCircle
 10
236.121942
 20
156.308915
 30
0.0
 40
2.705013
100
AcDbArc
 50
325.075308
 51
0.0
  0
LWPOLYLINE
  5
142D
100
AcDbEntity
  8
OBJECT
100
AcDbPolyline
 90
       10
 70
     0
 43
0.0
 10
239.65229
 20
184.923202
 42
-0.099746
 10
239.170817
 20
183.800291
 42
-0.106948
 10
237.289499
 20
182.034206
 42
-0.07438
 10
234.751942
 20
180.98447
 42
-0.061015
 10
231.436868
 20
180.57842
 42
-0.061015
 10
228.121794
 20
180.98447
 42
-0.07438
 10
225.584237
 20
182.034206
 42
-0.106948
 10
223.702919
 20
183.800291
 42
-0.152131
 10
223.155914
 20
185.556486
 42
-0.031124
 10
223.179835
 20
185.940397
 42
-0.031124
  0
LWPOLYLINE
  5
1439
100
AcDbEntity
  8
OBJECT
100
AcDbPolyline
 90
       16
 70
     1
 43
0.0
 10
239.676412
 20
185.308323
 42
-0.152131
 10
239.129408
 20
183.552128
 42
-0.106948
 10
237.24809
 20
181.786043
 42
-0.07438
 10
234.710533
 20
180.736306
 42
-0.061015
 10
231.395459
 20
180.330257
 42
-0.061015
 10
228.080385
 20
180.736306
 42
-0.07438
 10
225.542828
 20
181.786043
 42
-0.106948
 10
223.66151
 20
183.552128
 42
-0.152131
 10
223.114505
 20
185.308323
 42
-0.152131
 10
223.66151
 20
187.064518
 42
-0.106948
 10
225.542828
 20
188.830603
 42
-0.07438
 10
228.080385
 20
189.88034
 42
-0.061015
 10
231.395459
 20
190.286389
 42
-0.061015
 10
234.710533
 20
189.88034
 42
-0.07438
 10
237.24809
 20
188.830603
 42
-0.106948
 10
239.129408
 20
187.064518
 42
-0.152131
  0
LWPOLYLINE
  5
144B
100
AcDbEntity
  8
OBJECT
100
AcDbPolyline
 90
       10
 70
     0
 43
0.0
 10
239.676412
 20
185.055191
 42
-0.152131
 10
239.129408
 20
183.298996
 42
-0.106948
 10
237.24809
 20
181.532911
 42
-0.07438
 10
234.710533
 20
180.483175
 42
-0.061015
 10
231.395459
 20
180.077125
 42
-0.061015
 10
228.080385
 20
180.483175
 42
-0.07438
 10
225.542828
 20
181.532911
 42
-0.106948
 10
223.66151
 20
183.298996
 42
-0.152131
 10
223.114505
 20
185.055191
 42
-0.010284
 10
223.117121
 20
185.182375
 42
-0.010284
  0
LWPOLYLINE
  5
1457
100
AcDbEntity
  8
OBJECT
100
AcDbPolyline
 90
       10
 70
     0
 43
0.0
 10
239.637595
 20
184.926276
 42
-0.099746
 10
239.158459
 20
183.808816
 42
-0.106948
 10
237.281771
 20
182.047078
 42
-0.07438
 10
234.748319
 20
180.999039
 42
-0.061015
 10
231.436868
 20
180.593433
 42
-0.061015
 10
228.125418
 20
180.999039
 42
-0.07438
 10
225.591966
 20
182.047078
 42
-0.106948
 10
223.715277
 20
183.808816
 42
-0.152131
 10
223.170928
 20
185.556486
 42
-0.031124
 10
223.194732
 20
185.938533
 42
-0.106948
  0
LWPOLYLINE
  5
1463
100
AcDbEntity
  8
OBJECT
100
AcDbPolyline
 90
       10
 70
     0
 43
0.0
 10
239.661399
 20
185.055191
 42
-0.152131
 10
239.11705
 20
183.307521
 42
-0.106948
 10
237.240361
 20
181.545783
 42
-0.07438
 10
234.706909
 20
180.497744
 42
-0.061015
 10
231.395459
 20
180.092138
 42
-0.061015
 10
228.084008
 20
180.497744
 42
-0.07438
 10
225.550556
 20
181.545783
 42
-0.106948
 10
223.673868
 20
183.307521
 42
-0.152131
 10
223.129518
 20
185.055191
 42
-0.010284
 10
223.132122
 20
185.181757
 42
-0.106948
  0
LWPOLYLINE
  5
146F
100
AcDbEntity
  8
OBJECT
100
AcDbPolyline
 90
       16
 70
     1
 43
0.0
 10
239.661399
 20
185.308323
 42
-0.152131
 10
239.11705
 20
183.560653
 42
-0.106948
 10
237.240361
 20
181.798914
 42
-0.07438
 10
234.706909
 20
180.750876
 42
-0.061015
 10
231.395459
 20
180.34527
 42
-0.061015
 10
228.084008
 20
180.750876
 42
-0.07438
 10
225.550556
 20
181.798914
 42
-0.106948
 10
223.673868
 20
183.560653
 42
-0.152131
 10
223.129518
 20
185.308323
 42
-0.152131
 10
223.673868
 20
187.055993
 42
-0.106948
 10
225.550556
 20
188.817732
 42
-0.07438
 10
228.084008
 20
189.86577
 42
-0.061015
 10
231.395459
 20
190.271376
 42
-0.061015
 10
234.706909
 20
189.86577
 42
-0.07438
 10
237.240361
 20
188.817732
 42
-0.106948
 10
239.11705
 20
187.055993
 42
-0.152131
  0
LINE
  5
1481
100
AcDbEntity
  8
OBJECT
100
AcDbLine
 10
222.081866
 20
178.678828
 30
0.0
 11
223.955329
 21
177.597184
 31
0.0
  0
LWPOLYLINE
  5
1482
100
AcDbEntity
  8
OBJECT
100
AcDbPolyline
 90
       16
 70
     1
 43
0.0
 10
226.656954
 20
182.053628
 42
-0.14023
 10
226.648422
 20
182.023805
 42
-0.107128
 10
226.620362
 20
181.994909
 42
-0.079659
 10
226.581741
 20
181.977307
 42
-0.067267
 10
226.532022
 20
181.970587
 42
-0.067267
 10
226.482302
 20
181.977307
 42
-0.079659
 10
226.443681
 20
181.994909
 42
-0.107128
 10
226.415621
 20
182.023805
 42
-0.14023
 10
226.407089
 20
182.053628
 42
-0.14023
 10
226.415621
 20
182.083451
 42
-0.107128
 10
226.443681
 20
182.112346
 42
-0.079659
 10
226.482302
 20
182.129949
 42
-0.067267
 10
226.532022
 20
182.136668
 42
-0.067267
 10
226.581741
 20
182.129949
 42
-0.079659
 10
226.620362
 20
182.112346
 42
-0.107128
 10
226.648422
 20
182.083451
 42
-0.14023
  0
LWPOLYLINE
  5
1494
100
AcDbEntity
  8
OBJECT
100
AcDbPolyline
 90
       16
 70
     1
 43
0.0
 10
224.56153
 20
187.194253
 42
-0.14023
 10
224.552998
 20
187.16443
 42
-0.107128
 10
224.524938
 20
187.135535
 42
-0.079659
 10
224.486317
 20
187.117932
 42
-0.067267
 10
224.436598
 20
187.111213
 42
-0.067267
 10
224.386879
 20
187.117932
 42
-0.079659
 10
224.348257
 20
187.135535
 42
-0.107128
 10
224.320197
 20
187.16443
 42
-0.14023
 10
224.311665
 20
187.194253
 42
-0.14023
 10
224.320197
 20
187.224076
 42
-0.107128
 10
224.348257
 20
187.252972
 42
-0.079659
 10
224.386879
 20
187.270574
 42
-0.067267
 10
224.436598
 20
187.277294
 42
-0.067267
 10
224.486317
 20
187.270574
 42
-0.079659
 10
224.524938
 20
187.252972
 42
-0.107128
 10
224.552998
 20
187.224076
 42
-0.14023
  0
LWPOLYLINE
  5
14A6
100
AcDbEntity
  8
OBJECT
100
AcDbPolyline
 90
       16
 70
     1
 43
0.0
 10
233.200558
 20
181.09894
 42
-0.14023
 10
233.192026
 20
181.069117
 42
-0.107128
 10
233.163966
 20
181.040222
 42
-0.079659
 10
233.125345
 20
181.022619
 42
-0.067267
 10
233.075626
 20
181.0159
 42
-0.067267
 10
233.025907
 20
181.022619
 42
-0.079659
 10
232.987285
 20
181.040222
 42
-0.107128
 10
232.959225
 20
181.069117
 42
-0.14023
 10
232.950693
 20
181.09894
 42
-0.14023
 10
232.959225
 20
181.128763
 42
-0.107128
 10
232.987285
 20
181.157659
 42
-0.079659
 10
233.025907
 20
181.175261
 42
-0.067267
 10
233.075626
 20
181.181981
 42
-0.067267
 10
233.125345
 20
181.175261
 42
-0.079659
 10
233.163966
 20
181.157659
 42
-0.107128
 10
233.192026
 20
181.128763
 42
-0.14023
  0
LWPOLYLINE
  5
14B8
100
AcDbEntity
  8
OBJECT
100
AcDbPolyline
 90
       16
 70
     1
 43
0.0
 10
230.369898
 20
189.544253
 42
-0.14023
 10
230.361366
 20
189.514431
 42
-0.107128
 10
230.333306
 20
189.485535
 42
-0.079659
 10
230.294685
 20
189.467932
 42
-0.067267
 10
230.244966
 20
189.461213
 42
-0.067267
 10
230.195246
 20
189.467932
 42
-0.079659
 10
230.156625
 20
189.485535
 42
-0.107128
 10
230.128565
 20
189.514431
 42
-0.14023
 10
230.120033
 20
189.544253
 42
-0.14023
 10
230.128565
 20
189.574076
 42
-0.107128
 10
230.156625
 20
189.602972
 42
-0.079659
 10
230.195246
 20
189.620575
 42
-0.067267
 10
230.244966
 20
189.627294
 42
-0.067267
 10
230.294685
 20
189.620575
 42
-0.079659
 10
230.333306
 20
189.602972
 42
-0.107128
 10
230.361366
 20
189.574076
 42
-0.14023
  0
LINE
  5
14CA
100
AcDbEntity
  8
OBJECT
100
AcDbLine
 10
238.841969
 20
182.920826
 30
0.0
 11
238.841969
 21
170.133531
 31
0.0
  0
LINE
  5
14CB
100
AcDbEntity
  8
OBJECT
100
AcDbLine
 10
238.826956
 20
182.920826
 30
0.0
 11
238.826956
 21
170.142199
 31
0.0
  0
LWPOLYLINE
  5
14CC
100
AcDbEntity
  8
OBJECT
100
AcDbPolyline
 90
       16
 70
     1
 43
0.0
 10
238.788355
 20
184.293471
 42
-0.14023
 10
238.779824
 20
184.263649
 42
-0.107128
 10
238.751764
 20
184.234753
 42
-0.079659
 10
238.713142
 20
184.21715
 42
-0.067267
 10
238.663423
 20
184.210431
 42
-0.067267
 10
238.613704
 20
184.21715
 42
-0.079659
 10
238.575082
 20
184.234753
 42
-0.107128
 10
238.547022
 20
184.263649
 42
-0.14023
 10
238.538491
 20
184.293471
 42
-0.14023
 10
238.547022
 20
184.323294
 42
-0.107128
 10
238.575082
 20
184.35219
 42
-0.079659
 10
238.613704
 20
184.369793
 42
-0.067267
 10
238.663423
 20
184.376512
 42
-0.067267
 10
238.713142
 20
184.369793
 42
-0.079659
 10
238.751764
 20
184.35219
 42
-0.107128
 10
238.779824
 20
184.323294
 42
-0.14023
  0
LWPOLYLINE
  5
14DE
100
AcDbEntity
  8
OBJECT
100
AcDbPolyline
 90
        2
 70
     0
 43
0.0
 10
239.658796
 20
185.181757
 42
-0.010284
 10
239.661399
 20
185.055191
 42
-0.152131
  0
LWPOLYLINE
  5
14E2
100
AcDbEntity
  8
OBJECT
100
AcDbPolyline
 90
       16
 70
     1
 43
0.0
 10
237.171043
 20
188.157165
 42
-0.14023
 10
237.162511
 20
188.127342
 42
-0.107128
 10
237.134451
 20
188.098446
 42
-0.079659
 10
237.09583
 20
188.080843
 42
-0.067267
 10
237.04611
 20
188.074124
 42
-0.067267
 10
236.996391
 20
188.080843
 42
-0.079659
 10
236.95777
 20
188.098446
 42
-0.107128
 10
236.92971
 20
188.127342
 42
-0.14023
 10
236.921178
 20
188.157165
 42
-0.14023
 10
236.92971
 20
188.186987
 42
-0.107128
 10
236.95777
 20
188.215883
 42
-0.079659
 10
236.996391
 20
188.233486
 42
-0.067267
 10
237.04611
 20
188.240205
 42
-0.067267
 10
237.09583
 20
188.233486
 42
-0.079659
 10
237.134451
 20
188.215883
 42
-0.107128
 10
237.162511
 20
188.186987
 42
-0.14023
  0
ARC
  5
14F7
100
AcDbEntity
  8
OBJECT
100
AcDbCircle
 10
221.004452
 20
177.808923
 30
0.0
 40
0.658492
100
AcDbArc
 50
289.152067
 51
10.847933
  0
ARC
  5
14F8
100
AcDbEntity
  8
OBJECT
100
AcDbCircle
 10
222.334867
 20
178.035441
 30
0.0
 40
0.691344
100
AcDbArc
 50
111.466415
 51
188.533585
  0
ARC
  5
14F9
100
AcDbEntity
  8
OBJECT
100
AcDbCircle
 10
221.910694
 20
177.285704
 30
0.0
 40
0.697245
100
AcDbArc
 50
111.851544
 51
188.148456
  0
ARC
  5
14FA
100
AcDbEntity
  8
OBJECT
100
AcDbCircle
 10
221.910694
 20
177.285704
 30
0.0
 40
0.654793
100
AcDbArc
 50
116.615573
 51
183.384427
  0
ARC
  5
14FB
100
AcDbEntity
  8
OBJECT
100
AcDbCircle
 10
221.004452
 20
177.808923
 30
0.0
 40
0.61604
100
AcDbArc
 50
289.152067
 51
5.793701
  0
ARC
  5
14FC
100
AcDbEntity
  8
OBJECT
100
AcDbCircle
 10
232.430392
 20
168.956509
 30
0.0
 40
9.199342
100
AcDbArc
 50
98.826038
 51
141.358562
  0
ARC
  5
14FD
100
AcDbEntity
  8
OBJECT
100
AcDbCircle
 10
232.430392
 20
168.956509
 30
0.0
 40
9.238518
100
AcDbArc
 50
98.882542
 51
141.358562
  0
ARC
  5
14FE
100
AcDbEntity
  8
OBJECT
100
AcDbCircle
 10
237.916763
 20
158.247055
 30
0.0
 40
20.100645
100
AcDbArc
 50
113.115203
 51
126.884797
  0
DIMENSION
  5
14FF
100
AcDbEntity
  8
DIM
100
AcDbDimension
  2
*D2
 10
263.864019
 20
183.633474
 30
0.0
 11
257.739019
 21
183.633474
 31
0.0
 12
68.229393
 22
0.975121
 32
0.0
  1
12 1/4"
100
AcDbAlignedDimension
 13
251.614019
 23
190.73609
 33
0.0
 14
263.864019
 24
190.73609
 34
0.0
100
AcDbRotatedDimension
  0
LINE
  5
1500
100
AcDbEntity
  8
HIDDEN
100
AcDbLine
 10
256.301719
 20
188.09509
 30
0.0
 11
259.176319
 21
188.09509
 31
0.0
  0
LINE
  5
1501
100
AcDbEntity
  8
HIDDEN
100
AcDbLine
 10
256.239219
 20
188.111836
 30
0.0
 11
254.202214
 21
189.287902
 31
0.0
  0
LINE
  5
1502
100
AcDbEntity
  8
HIDDEN
100
AcDbLine
 10
254.147253
 20
189.353402
 30
0.0
 11
253.346341
 21
191.553888
 31
0.0
  0
LINE
  5
1503
100
AcDbEntity
  8
HIDDEN
100
AcDbLine
 10
259.238819
 20
188.111836
 30
0.0
 11
261.275824
 21
189.287902
 31
0.0
  0
LINE
  5
1504
100
AcDbEntity
  8
HIDDEN
100
AcDbLine
 10
261.330786
 20
189.353402
 30
0.0
 11
262.131697
 21
191.553888
 31
0.0
  0
ARC
  5
1505
100
AcDbEntity
  8
HIDDEN
100
AcDbCircle
 10
254.264714
 20
189.396155
 30
0.0
 40
0.125
100
AcDbArc
 50
200.0
 51
240.0
  0
ARC
  5
1506
100
AcDbEntity
  8
HIDDEN
100
AcDbCircle
 10
256.301719
 20
188.22009
 30
0.0
 40
0.125
100
AcDbArc
 50
240.0
 51
270.0
  0
ARC
  5
1507
100
AcDbEntity
  8
HIDDEN
100
AcDbCircle
 10
259.176319
 20
188.22009
 30
0.0
 40
0.125
100
AcDbArc
 50
270.0
 51
300.0
  0
ARC
  5
1508
100
AcDbEntity
  8
HIDDEN
100
AcDbCircle
 10
261.213324
 20
189.396155
 30
0.0
 40
0.125
100
AcDbArc
 50
300.0
 51
340.0
  0
DIMENSION
  5
1509
100
AcDbEntity
  8
DIM
100
AcDbDimension
  2
*D3
 10
268.292727
 20
154.899271
 30
0.0
 11
268.292727
 21
167.899271
 31
0.0
 12
68.229393
 22
0.975121
 32
0.0
  1
VARIES
100
AcDbAlignedDimension
 13
263.864019
 23
180.899271
 33
0.0
 14
263.864019
 24
154.899271
 34
0.0
 50
90.0
100
AcDbRotatedDimension
  0
LINE
  5
150A
100
AcDbEntity
  8
OBJECT
100
AcDbLine
 10
232.704139
 20
180.139611
 30
0.0
 11
234.383974
 21
177.388023
 31
0.0
  0
LINE
  5
150B
100
AcDbEntity
  8
OBJECT
100
AcDbLine
 10
234.383974
 20
177.388023
 30
0.0
 11
233.475936
 21
175.64973
 31
0.0
  0
LINE
  5
150C
100
AcDbEntity
  8
OBJECT
100
AcDbLine
 10
233.475936
 20
175.64973
 30
0.0
 11
234.081294
 21
173.91144
 31
0.0
  0
LINE
  5
150D
100
AcDbEntity
  8
OBJECT
100
AcDbLine
 10
234.081294
 20
173.91144
 30
0.0
 11
233.475936
 21
172.248725
 31
0.0
  0
LINE
  5
150E
100
AcDbEntity
  8
OBJECT
100
AcDbLine
 10
233.475936
 20
172.248725
 30
0.0
 11
234.005624
 21
170.208122
 31
0.0
  0
LINE
  5
150F
100
AcDbEntity
  8
OBJECT
100
AcDbLine
 10
234.005624
 20
170.208122
 30
0.0
 11
233.248927
 21
168.243097
 31
0.0
  0
LINE
  5
1510
100
AcDbEntity
  8
OBJECT
100
AcDbLine
 10
233.248927
 20
168.243097
 30
0.0
 11
234.005624
 21
166.429227
 31
0.0
  0
LINE
  5
1511
100
AcDbEntity
  8
OBJECT
100
AcDbLine
 10
234.005624
 20
166.429227
 30
0.0
 11
233.248927
 21
163.935156
 31
0.0
  0
LINE
  5
1512
100
AcDbEntity
  8
OBJECT
100
AcDbLine
 10
233.248927
 20
163.935156
 30
0.0
 11
234.005624
 21
162.121286
 31
0.0
  0
LINE
  5
1516
100
AcDbEntity
  8
OBJECT
100
AcDbLine
 10
232.276475
 20
180.120453
 30
0.0
 11
234.063906
 21
177.192622
 31
0.0
  0
LINE
  5
1517
100
AcDbEntity
  8
OBJECT
100
AcDbLine
 10
233.145321
 20
175.45885
 30
0.0
 11
233.750679
 21
173.720559
 31
0.0
  0
LINE
  5
1518
100
AcDbEntity
  8
OBJECT
100
AcDbLine
 10
233.139003
 20
172.054197
 30
0.0
 11
233.668691
 21
170.013593
 31
0.0
  0
LINE
  5
1519
100
AcDbEntity
  8
OBJECT
100
AcDbLine
 10
232.921473
 20
168.054041
 30
0.0
 11
233.67817
 21
166.240171
 31
0.0
  0
LINE
  5
151A
100
AcDbEntity
  8
OBJECT
100
AcDbLine
 10
234.383974
 20
177.388023
 30
0.0
 11
234.059117
 21
177.200466
 31
0.0
  0
LINE
  5
151B
100
AcDbEntity
  8
OBJECT
100
AcDbLine
 10
233.475936
 20
175.64973
 30
0.0
 11
233.145321
 21
175.45885
 31
0.0
  0
LINE
  5
151C
100
AcDbEntity
  8
OBJECT
100
AcDbLine
 10
234.059117
 20
177.200466
 30
0.0
 11
233.145321
 21
175.45885
 31
0.0
  0
LINE
  5
151D
100
AcDbEntity
  8
OBJECT
100
AcDbLine
 10
234.081294
 20
173.91144
 30
0.0
 11
233.750679
 21
173.720559
 31
0.0
  0
LINE
  5
151E
100
AcDbEntity
  8
OBJECT
100
AcDbLine
 10
233.475936
 20
172.248725
 30
0.0
 11
233.139003
 21
172.054197
 31
0.0
  0
LINE
  5
151F
100
AcDbEntity
  8
OBJECT
100
AcDbLine
 10
234.032603
 20
170.223697
 30
0.0
 11
233.668691
 21
170.013593
 31
0.0
  0
LINE
  5
1520
100
AcDbEntity
  8
OBJECT
100
AcDbLine
 10
233.248927
 20
168.243097
 30
0.0
 11
232.921473
 21
168.054041
 31
0.0
  0
LINE
  5
1521
100
AcDbEntity
  8
OBJECT
100
AcDbLine
 10
234.005624
 20
166.429227
 30
0.0
 11
233.67817
 21
166.240171
 31
0.0
  0
LINE
  5
1522
100
AcDbEntity
  8
OBJECT
100
AcDbLine
 10
233.750679
 20
173.720559
 30
0.0
 11
233.139003
 21
172.054197
 31
0.0
  0
LINE
  5
1523
100
AcDbEntity
  8
OBJECT
100
AcDbLine
 10
233.668691
 20
170.013593
 30
0.0
 11
232.921473
 21
168.054041
 31
0.0
  0
LINE
  5
1524
100
AcDbEntity
  8
OBJECT
100
AcDbLine
 10
232.921473
 20
163.7461
 30
0.0
 11
233.67817
 21
161.93223
 31
0.0
  0
LINE
  5
1525
100
AcDbEntity
  8
OBJECT
100
AcDbLine
 10
233.248927
 20
163.935156
 30
0.0
 11
232.921473
 21
163.7461
 31
0.0
  0
LINE
  5
1526
100
AcDbEntity
  8
OBJECT
100
AcDbLine
 10
234.005624
 20
162.121286
 30
0.0
 11
233.67817
 21
161.93223
 31
0.0
  0
LINE
  5
1527
100
AcDbEntity
  8
OBJECT
100
AcDbLine
 10
232.921473
 20
163.7461
 30
0.0
 11
233.67817
 21
166.240171
 31
0.0
  0
LINE
  5
1528
100
AcDbEntity
  8
OBJECT
100
AcDbLine
 10
238.826956
 20
170.142199
 30
0.0
 11
238.826956
 21
163.469618
 31
0.0
  0
LINE
  5
1529
100
AcDbEntity
  8
OBJECT
100
AcDbLine
 10
238.841969
 20
163.46095
 30
0.0
 11
238.841969
 21
164.088599
 31
0.0
  0
LINE
  5
152A
100
AcDbEntity
  8
OBJECT
100
AcDbLine
 10
238.841969
 20
164.088599
 30
0.0
 11
238.841969
 21
170.209643
 31
0.0
  0
TEXT
  5
19C6
100
AcDbEntity
  8
DIM
 62
     6
100
AcDbText
 10
234.317968
 20
195.69514
 30
0.0
 40
0.808594
  1
STAINLESS STEEL HARDWARE AND
  7
ROMANS
 72
     1
 11
244.694921
 21
195.69514
 31
0.0
100
AcDbText
  0
TEXT
  5
19C8
100
AcDbEntity
  8
DIM
 62
     6
100
AcDbText
 10
226.212469
 20
197.557718
 30
0.0
 40
1.617188
  1
POLYETHYLENE INLET BAFFLE
  7
ROMAND
 72
     1
 11
244.348071
 21
197.557718
 31
0.0
100
AcDbText
  0
TEXT
  5
19C9
100
AcDbEntity
  8
DIM
 62
     6
100
AcDbText
 10
237.340568
 20
194.57903
 30
0.0
 40
0.808594
  1
GASKET TAPE PROVIDED
  7
ROMANS
 72
     1
 11
244.694921
 21
194.57903
 31
0.0
100
AcDbText
  0
LINE
  5
19CA
100
AcDbEntity
  8
OBJECT
100
AcDbLine
 10
232.92047
 20
160.042204
 30
0.0
 11
231.40041
 21
160.181773
 31
0.0
  0
LINE
  5
19CB
100
AcDbEntity
  8
OBJECT
100
AcDbLine
 10
231.40041
 20
160.181773
 30
0.0
 11
230.293708
 21
158.265816
 31
0.0
  0
LINE
  5
19CC
100
AcDbEntity
  8
OBJECT
100
AcDbLine
 10
230.293708
 20
158.265816
 30
0.0
 11
228.891883
 21
158.118434
 31
0.0
  0
LINE
  5
19CD
100
AcDbEntity
  8
OBJECT
100
AcDbLine
 10
228.891883
 20
158.118434
 30
0.0
 11
228.080303
 21
156.644621
 31
0.0
  0
LINE
  5
19CE
100
AcDbEntity
  8
OBJECT
100
AcDbLine
 10
228.080303
 20
156.644621
 30
0.0
 11
226.457139
 21
156.718312
 31
0.0
  0
LINE
  5
19CF
100
AcDbEntity
  8
OBJECT
100
AcDbLine
 10
226.457139
 20
156.718312
 30
0.0
 11
225.276656
 21
155.46557
 31
0.0
  0
LINE
  5
19D0
100
AcDbEntity
  8
OBJECT
100
AcDbLine
 10
225.276656
 20
155.46557
 30
0.0
 11
223.978655
 21
156.027355
 31
0.0
  0
LINE
  5
19D1
100
AcDbEntity
  8
OBJECT
100
AcDbLine
 10
231.075651
 20
160.369273
 30
0.0
 11
229.968948
 21
158.453316
 31
0.0
  0
LINE
  5
19D2
100
AcDbEntity
  8
OBJECT
100
AcDbLine
 10
228.567057
 20
158.305973
 30
0.0
 11
227.755477
 21
156.83216
 31
0.0
  0
LINE
  5
19D3
100
AcDbEntity
  8
OBJECT
100
AcDbLine
 10
226.12343
 20
156.910979
 30
0.0
 11
224.910662
 21
155.623976
 31
0.0
  0
LINE
  5
19D4
100
AcDbEntity
  8
OBJECT
100
AcDbLine
 10
232.92047
 20
160.042204
 30
0.0
 11
232.618948
 21
160.216288
 31
0.0
  0
LINE
  5
19D5
100
AcDbEntity
  8
OBJECT
100
AcDbLine
 10
230.293708
 20
158.265816
 30
0.0
 11
229.968948
 21
158.453316
 31
0.0
  0
LINE
  5
19D6
100
AcDbEntity
  8
OBJECT
100
AcDbLine
 10
228.080303
 20
156.644621
 30
0.0
 11
227.755477
 21
156.83216
 31
0.0
  0
LINE
  5
19D7
100
AcDbEntity
  8
OBJECT
100
AcDbLine
 10
226.457139
 20
156.718312
 30
0.0
 11
226.12343
 21
156.910979
 31
0.0
  0
LINE
  5
19D8
100
AcDbEntity
  8
OBJECT
100
AcDbLine
 10
232.92047
 20
160.042204
 30
0.0
 11
234.005624
 21
162.121286
 31
0.0
  0
LINE
  5
19D9
100
AcDbEntity
  8
OBJECT
100
AcDbLine
 10
231.40041
 20
160.181773
 30
0.0
 11
231.075651
 21
160.369273
 31
0.0
  0
LINE
  5
19DA
100
AcDbEntity
  8
OBJECT
100
AcDbLine
 10
231.075651
 20
160.369273
 30
0.0
 11
232.618948
 21
160.216288
 31
0.0
  0
LINE
  5
19DB
100
AcDbEntity
  8
OBJECT
100
AcDbLine
 10
232.618948
 20
160.216288
 30
0.0
 11
233.67817
 21
161.93223
 31
0.0
  0
LINE
  5
19DC
100
AcDbEntity
  8
OBJECT
100
AcDbLine
 10
228.891883
 20
158.118434
 30
0.0
 11
228.567057
 21
158.305973
 31
0.0
  0
LINE
  5
19DD
100
AcDbEntity
  8
OBJECT
100
AcDbLine
 10
226.12343
 20
156.910979
 30
0.0
 11
227.755477
 21
156.83216
 31
0.0
  0
LINE
  5
19DE
100
AcDbEntity
  8
OBJECT
100
AcDbLine
 10
228.567057
 20
158.305973
 30
0.0
 11
229.968948
 21
158.453316
 31
0.0
  0
LINE
  5
19DF
100
AcDbEntity
  8
OBJECT
100
AcDbLine
 10
231.003878
 20
178.084229
 30
0.0
 11
231.003878
 21
168.360446
 31
0.0
  0
LINE
  5
19E0
100
AcDbEntity
  8
OBJECT
100
AcDbLine
 10
231.018891
 20
178.116944
 30
0.0
 11
231.018891
 21
168.369114
 31
0.0
  0
ARC
  5
19E1
100
AcDbEntity
  8
OBJECT
100
AcDbCircle
 10
237.916763
 20
158.247055
 30
0.0
 40
20.115658
100
AcDbArc
 50
113.115203
 51
126.884797
  0
ARC
  5
19E2
100
AcDbEntity
  8
OBJECT
100
AcDbCircle
 10
237.916763
 20
158.247055
 30
0.0
 40
20.130671
100
AcDbArc
 50
113.115203
 51
126.884797
  0
LINE
  5
19E3
100
AcDbEntity
  8
OBJECT
100
AcDbLine
 10
225.837182
 20
174.324434
 30
0.0
 11
225.837182
 21
165.360117
 31
0.0
  0
LINE
  5
19E4
100
AcDbEntity
  8
OBJECT
100
AcDbLine
 10
225.822169
 20
174.324434
 30
0.0
 11
225.822169
 21
165.351449
 31
0.0
  0
LINE
  5
19E5
100
AcDbEntity
  8
OBJECT
100
AcDbLine
 10
230.247016
 20
176.185287
 30
0.0
 11
230.039689
 21
176.73923
 31
0.0
  0
LINE
  5
19E6
100
AcDbEntity
  8
OBJECT
100
AcDbLine
 10
230.261076
 20
176.190549
 30
0.0
 11
230.05375
 21
176.744492
 31
0.0
  0
LINE
  5
19E7
100
AcDbEntity
  8
OBJECT
100
AcDbLine
 10
230.247968
 20
176.180024
 30
0.0
 11
230.247968
 21
167.222267
 31
0.0
  0
LINE
  5
19E8
100
AcDbEntity
  8
OBJECT
100
AcDbLine
 10
230.262982
 20
176.180024
 30
0.0
 11
230.262982
 21
167.251866
 31
0.0
  0
LINE
  5
19E9
100
AcDbEntity
  8
OBJECT
100
AcDbLine
 10
225.859702
 20
165.390454
 30
0.0
 11
225.211143
 21
165.016009
 31
0.0
  0
LINE
  5
19EA
100
AcDbEntity
  8
OBJECT
100
AcDbLine
 10
225.867208
 20
165.377453
 30
0.0
 11
225.181117
 21
164.981338
 31
0.0
  0
LINE
  5
19EB
100
AcDbEntity
  8
OBJECT
100
AcDbLine
 10
225.850292
 20
165.388564
 30
0.0
 11
226.805619
 21
165.266479
 31
0.0
  0
LINE
  5
19EC
100
AcDbEntity
  8
OBJECT
100
AcDbLine
 10
225.848389
 20
165.373672
 30
0.0
 11
226.803716
 21
165.251587
 31
0.0
  0
LINE
  5
19ED
100
AcDbEntity
  8
OBJECT
100
AcDbLine
 10
226.805784
 20
165.266459
 30
0.0
 11
228.155121
 21
165.109164
 31
0.0
  0
LINE
  5
19EE
100
AcDbEntity
  8
OBJECT
100
AcDbLine
 10
226.804046
 20
165.251547
 30
0.0
 11
228.16326
 21
165.0931
 31
0.0
  0
LINE
  5
19EF
100
AcDbEntity
  8
OBJECT
100
AcDbLine
 10
228.164366
 20
165.111074
 30
0.0
 11
229.568869
 21
165.921964
 31
0.0
  0
LINE
  5
19F0
100
AcDbEntity
  8
OBJECT
100
AcDbLine
 10
228.16326
 20
165.0931
 30
0.0
 11
229.576375
 21
165.908963
 31
0.0
  0
LINE
  5
19F1
100
AcDbEntity
  8
OBJECT
100
AcDbLine
 10
229.574751
 20
165.928175
 30
0.0
 11
230.246345
 21
167.252255
 31
0.0
  0
LINE
  5
19F2
100
AcDbEntity
  8
OBJECT
100
AcDbLine
 10
229.588141
 20
165.921384
 30
0.0
 11
230.262982
 21
167.251866
 31
0.0
  0
LINE
  5
19F3
100
AcDbEntity
  8
OBJECT
100
AcDbLine
 10
230.240462
 20
167.919688
 30
0.0
 11
231.018891
 21
168.369114
 31
0.0
  0
LINE
  5
19F4
100
AcDbEntity
  8
OBJECT
100
AcDbLine
 10
230.247968
 20
167.906686
 30
0.0
 11
231.003878
 21
168.34311
 31
0.0
  0
ARC
  5
19F5
100
AcDbEntity
  8
OBJECT
100
AcDbCircle
 10
232.430392
 20
168.956509
 30
0.0
 40
9.253531
100
AcDbArc
 50
98.773944
 51
141.424202
  0
ARC
  5
19F6
100
AcDbEntity
  8
OBJECT
100
AcDbCircle
 10
232.430392
 20
168.956509
 30
0.0
 40
9.268544
100
AcDbArc
 50
98.75962
 51
141.456692
  0
LINE
  5
19F7
100
AcDbEntity
  8
OBJECT
100
AcDbLine
 10
225.19613
 20
174.750589
 30
0.0
 11
225.19613
 21
164.990005
 31
0.0
  0
LINE
  5
19F8
100
AcDbEntity
  8
OBJECT
100
AcDbLine
 10
225.181117
 20
174.731795
 30
0.0
 11
225.181117
 21
164.981338
 31
0.0
  0
LINE
  5
19F9
100
AcDbEntity
  8
OBJECT
100
AcDbLine
 10
226.468065
 20
156.708016
 30
0.0
 11
225.287583
 21
155.455274
 31
0.0
  0
LINE
  5
19FA
100
AcDbEntity
  8
OBJECT
100
AcDbLine
 10
226.478991
 20
156.69772
 30
0.0
 11
225.298509
 21
155.444978
 31
0.0
  0
LINE
  5
19FB
100
AcDbEntity
  8
OBJECT
100
AcDbLine
 10
225.270693
 20
155.451792
 30
0.0
 11
223.972692
 21
156.013577
 31
0.0
  0
LINE
  5
19FC
100
AcDbEntity
  8
OBJECT
100
AcDbLine
 10
225.26473
 20
155.438014
 30
0.0
 11
223.966729
 21
155.999799
 31
0.0
  0
LINE
  5
19FD
100
AcDbEntity
  8
OBJECT
100
AcDbLine
 10
226.112504
 20
156.921275
 30
0.0
 11
224.899736
 21
155.634272
 31
0.0
  0
LINE
  5
19FE
100
AcDbEntity
  8
OBJECT
100
AcDbLine
 10
226.101577
 20
156.931571
 30
0.0
 11
224.88881
 21
155.644568
 31
0.0
  0
LINE
  5
19FF
100
AcDbEntity
  8
OBJECT
100
AcDbLine
 10
226.124154
 20
156.925975
 30
0.0
 11
227.756201
 21
156.847155
 31
0.0
  0
LINE
  5
1A00
100
AcDbEntity
  8
OBJECT
100
AcDbLine
 10
226.124878
 20
156.94097
 30
0.0
 11
227.756925
 21
156.862151
 31
0.0
  0
LINE
  5
1A01
100
AcDbEntity
  8
OBJECT
100
AcDbLine
 10
228.079622
 20
156.629624
 30
0.0
 11
226.456458
 21
156.703314
 31
0.0
  0
LINE
  5
1A02
100
AcDbEntity
  8
OBJECT
100
AcDbLine
 10
228.078941
 20
156.614626
 30
0.0
 11
226.455777
 21
156.688317
 31
0.0
  0
LINE
  5
1A03
100
AcDbEntity
  8
OBJECT
100
AcDbLine
 10
228.553906
 20
158.313215
 30
0.0
 11
227.742326
 21
156.839402
 31
0.0
  0
LINE
  5
1A04
100
AcDbEntity
  8
OBJECT
100
AcDbLine
 10
228.540755
 20
158.320456
 30
0.0
 11
227.729175
 21
156.846643
 31
0.0
  0
LINE
  5
1A05
100
AcDbEntity
  8
OBJECT
100
AcDbLine
 10
228.905035
 20
158.111192
 30
0.0
 11
228.093454
 21
156.63738
 31
0.0
  0
LINE
  5
1A06
100
AcDbEntity
  8
OBJECT
100
AcDbLine
 10
228.918186
 20
158.103951
 30
0.0
 11
228.106605
 21
156.630138
 31
0.0
  0
LINE
  5
1A07
100
AcDbEntity
  8
OBJECT
100
AcDbLine
 10
230.295278
 20
158.250885
 30
0.0
 11
228.893453
 21
158.103503
 31
0.0
  0
LINE
  5
1A08
100
AcDbEntity
  8
OBJECT
100
AcDbLine
 10
230.296847
 20
158.235954
 30
0.0
 11
228.895023
 21
158.088573
 31
0.0
  0
LINE
  5
1A09
100
AcDbEntity
  8
OBJECT
100
AcDbLine
 10
228.565488
 20
158.320904
 30
0.0
 11
229.967379
 21
158.468247
 31
0.0
  0
LINE
  5
1A0A
100
AcDbEntity
  8
OBJECT
100
AcDbLine
 10
228.563919
 20
158.335834
 30
0.0
 11
229.96581
 21
158.483178
 31
0.0
  0
LINE
  5
1A0B
100
AcDbEntity
  8
OBJECT
100
AcDbLine
 10
231.062651
 20
160.376782
 30
0.0
 11
229.955948
 21
158.460825
 31
0.0
  0
LINE
  5
1A0C
100
AcDbEntity
  8
OBJECT
100
AcDbLine
 10
231.04965
 20
160.384292
 30
0.0
 11
229.942948
 21
158.468334
 31
0.0
  0
LINE
  5
1A0D
100
AcDbEntity
  8
OBJECT
100
AcDbLine
 10
231.41341
 20
160.174264
 30
0.0
 11
230.306708
 21
158.258307
 31
0.0
  0
LINE
  5
1A0E
100
AcDbEntity
  8
OBJECT
100
AcDbLine
 10
231.426411
 20
160.166755
 30
0.0
 11
230.319708
 21
158.250797
 31
0.0
  0
LINE
  5
1A0F
100
AcDbEntity
  8
OBJECT
100
AcDbLine
 10
232.919097
 20
160.027254
 30
0.0
 11
231.399038
 21
160.166823
 31
0.0
  0
LINE
  5
1A10
100
AcDbEntity
  8
OBJECT
100
AcDbLine
 10
232.917724
 20
160.012304
 30
0.0
 11
231.397665
 21
160.151873
 31
0.0
  0
LINE
  5
1A11
100
AcDbEntity
  8
OBJECT
100
AcDbLine
 10
231.077132
 20
160.384213
 30
0.0
 11
232.620429
 21
160.231227
 31
0.0
  0
LINE
  5
1A12
100
AcDbEntity
  8
OBJECT
100
AcDbLine
 10
231.078613
 20
160.399153
 30
0.0
 11
232.62191
 21
160.246167
 31
0.0
  0
LINE
  5
1A13
100
AcDbEntity
  8
OBJECT
100
AcDbLine
 10
232.606173
 20
160.224173
 30
0.0
 11
233.665395
 21
161.940116
 31
0.0
  0
LINE
  5
1A14
100
AcDbEntity
  8
OBJECT
100
AcDbLine
 10
232.593398
 20
160.232059
 30
0.0
 11
233.65262
 21
161.948002
 31
0.0
  0
LINE
  5
1A15
100
AcDbEntity
  8
OBJECT
100
AcDbLine
 10
232.933779
 20
160.035257
 30
0.0
 11
234.018934
 21
162.114339
 31
0.0
  0
LINE
  5
1A16
100
AcDbEntity
  8
OBJECT
100
AcDbLine
 10
232.947088
 20
160.028311
 30
0.0
 11
234.032243
 21
162.107393
 31
0.0
  0
LINE
  5
1A17
100
AcDbEntity
  8
OBJECT
100
AcDbLine
 10
232.907617
 20
163.74032
 30
0.0
 11
233.664315
 21
161.92645
 31
0.0
  0
LINE
  5
1A18
100
AcDbEntity
  8
OBJECT
100
AcDbLine
 10
232.893761
 20
163.73454
 30
0.0
 11
233.650459
 21
161.92067
 31
0.0
  0
LINE
  5
1A19
100
AcDbEntity
  8
OBJECT
100
AcDbLine
 10
233.262783
 20
163.940936
 30
0.0
 11
234.01948
 21
162.127066
 31
0.0
  0
LINE
  5
1A1A
100
AcDbEntity
  8
OBJECT
100
AcDbLine
 10
233.276639
 20
163.946717
 30
0.0
 11
234.033336
 21
162.132847
 31
0.0
  0
LINE
  5
1A1B
100
AcDbEntity
  8
OBJECT
100
AcDbLine
 10
232.907106
 20
163.750459
 30
0.0
 11
233.663804
 21
166.24453
 31
0.0
  0
LINE
  5
1A1C
100
AcDbEntity
  8
OBJECT
100
AcDbLine
 10
232.89274
 20
163.754818
 30
0.0
 11
233.649437
 21
166.248888
 31
0.0
  0
LINE
  5
1A1D
100
AcDbEntity
  8
OBJECT
100
AcDbLine
 10
232.907617
 20
168.048261
 30
0.0
 11
233.664315
 21
166.234391
 31
0.0
  0
LINE
  5
1A1E
100
AcDbEntity
  8
OBJECT
100
AcDbLine
 10
232.893761
 20
168.04248
 30
0.0
 11
233.650459
 21
166.22861
 31
0.0
  0
LINE
  5
1A1F
100
AcDbEntity
  8
OBJECT
100
AcDbLine
 10
233.262783
 20
168.248877
 30
0.0
 11
234.01948
 21
166.435007
 31
0.0
  0
LINE
  5
1A20
100
AcDbEntity
  8
OBJECT
100
AcDbLine
 10
233.276639
 20
168.254657
 30
0.0
 11
234.033336
 21
166.440787
 31
0.0
  0
LINE
  5
1A21
100
AcDbEntity
  8
OBJECT
100
AcDbLine
 10
234.019991
 20
166.424868
 30
0.0
 11
233.263293
 21
163.930797
 31
0.0
  0
LINE
  5
1A22
100
AcDbEntity
  8
OBJECT
100
AcDbLine
 10
234.034357
 20
166.420509
 30
0.0
 11
233.27766
 21
163.926439
 31
0.0
  0
LINE
  5
1A23
100
AcDbEntity
  8
OBJECT
100
AcDbLine
 10
233.654664
 20
170.018942
 30
0.0
 11
232.907445
 21
168.05939
 31
0.0
  0
LINE
  5
1A24
100
AcDbEntity
  8
OBJECT
100
AcDbLine
 10
233.640636
 20
170.024291
 30
0.0
 11
232.893417
 21
168.064739
 31
0.0
  0
LINE
  5
1A25
100
AcDbEntity
  8
OBJECT
100
AcDbLine
 10
234.026312
 20
170.220065
 30
0.0
 11
233.262937
 21
168.237702
 31
0.0
  0
LINE
  5
1A26
100
AcDbEntity
  8
OBJECT
100
AcDbLine
 10
234.046999
 20
170.232009
 30
0.0
 11
233.276948
 21
168.232306
 31
0.0
  0
LINE
  5
1A27
100
AcDbEntity
  8
OBJECT
100
AcDbLine
 10
233.490468
 20
172.252497
 30
0.0
 11
234.019114
 21
170.215909
 31
0.0
  0
LINE
  5
1A28
100
AcDbEntity
  8
OBJECT
100
AcDbLine
 10
233.505
 20
172.256269
 30
0.0
 11
234.032603
 21
170.223697
 31
0.0
  0
LINE
  5
1A29
100
AcDbEntity
  8
OBJECT
100
AcDbLine
 10
233.124472
 20
172.050425
 30
0.0
 11
233.65416
 21
170.009821
 31
0.0
  0
LINE
  5
1A2A
100
AcDbEntity
  8
OBJECT
100
AcDbLine
 10
233.10994
 20
172.046653
 30
0.0
 11
233.639628
 21
170.006049
 31
0.0
  0
LINE
  5
1A2B
100
AcDbEntity
  8
OBJECT
100
AcDbLine
 10
234.095401
 20
173.906303
 30
0.0
 11
233.490044
 21
172.243589
 31
0.0
  0
LINE
  5
1A2C
100
AcDbEntity
  8
OBJECT
100
AcDbLine
 10
234.109508
 20
173.901167
 30
0.0
 11
233.504151
 21
172.238453
 31
0.0
  0
LINE
  5
1A2D
100
AcDbEntity
  8
OBJECT
100
AcDbLine
 10
233.736585
 20
173.725732
 30
0.0
 11
233.12491
 21
172.05937
 31
0.0
  0
LINE
  5
1A2E
100
AcDbEntity
  8
OBJECT
100
AcDbLine
 10
233.722491
 20
173.730906
 30
0.0
 11
233.110816
 21
172.064544
 31
0.0
  0
LINE
  5
1A2F
100
AcDbEntity
  8
OBJECT
100
AcDbLine
 10
233.131143
 20
175.453912
 30
0.0
 11
233.736501
 21
173.715621
 31
0.0
  0
LINE
  5
1A30
100
AcDbEntity
  8
OBJECT
100
AcDbLine
 10
233.116965
 20
175.448975
 30
0.0
 11
233.722323
 21
173.710684
 31
0.0
  0
LINE
  5
1A31
100
AcDbEntity
  8
OBJECT
100
AcDbLine
 10
233.490114
 20
175.654668
 30
0.0
 11
234.095472
 21
173.916377
 31
0.0
  0
LINE
  5
1A32
100
AcDbEntity
  8
OBJECT
100
AcDbLine
 10
233.504292
 20
175.659605
 30
0.0
 11
234.10965
 21
173.921314
 31
0.0
  0
LINE
  5
1A33
100
AcDbEntity
  8
OBJECT
100
AcDbLine
 10
234.397281
 20
177.381071
 30
0.0
 11
233.489243
 21
175.642779
 31
0.0
  0
LINE
  5
1A34
100
AcDbEntity
  8
OBJECT
100
AcDbLine
 10
234.410588
 20
177.37412
 30
0.0
 11
233.50255
 21
175.635828
 31
0.0
  0
LINE
  5
1A35
100
AcDbEntity
  8
OBJECT
100
AcDbLine
 10
234.045823
 20
177.207442
 30
0.0
 11
233.132027
 21
175.465825
 31
0.0
  0
LINE
  5
1A36
100
AcDbEntity
  8
OBJECT
100
AcDbLine
 10
234.032528
 20
177.214417
 30
0.0
 11
233.118733
 21
175.4728
 31
0.0
  0
LINE
  5
1A37
100
AcDbEntity
  8
OBJECT
100
AcDbLine
 10
232.263661
 20
180.11263
 30
0.0
 11
234.051092
 21
177.184799
 31
0.0
  0
LINE
  5
1A38
100
AcDbEntity
  8
OBJECT
100
AcDbLine
 10
232.250847
 20
180.104807
 30
0.0
 11
234.038278
 21
177.176976
 31
0.0
  0
LINE
  5
1A39
100
AcDbEntity
  8
OBJECT
100
AcDbLine
 10
232.716953
 20
180.147434
 30
0.0
 11
234.396788
 21
177.395845
 31
0.0
  0
LINE
  5
1A3A
100
AcDbEntity
  8
OBJECT
100
AcDbLine
 10
232.729767
 20
180.155256
 30
0.0
 11
234.409985
 21
177.40304
 31
0.0
  0
LINE
  5
1A3B
100
AcDbEntity
  8
OBJECT
100
AcDbLine
 10
251.614019
 20
154.879254
 30
0.0
 11
263.864019
 21
154.879254
 31
0.0
  0
LINE
  5
1A3C
100
AcDbEntity
  8
OBJECT
100
AcDbLine
 10
251.614019
 20
154.859236
 30
0.0
 11
263.864019
 21
154.859236
 31
0.0
  0
LINE
  5
1A3D
100
AcDbEntity
  8
OBJECT
100
AcDbLine
 10
251.594002
 20
180.899271
 30
0.0
 11
251.594002
 21
154.899271
 31
0.0
  0
LINE
  5
1A3E
100
AcDbEntity
  8
OBJECT
100
AcDbLine
 10
251.573984
 20
180.899271
 30
0.0
 11
251.573984
 21
154.899271
 31
0.0
  0
LINE
  5
1A3F
100
AcDbEntity
  8
OBJECT
100
AcDbLine
 10
253.594002
 20
178.899271
 30
0.0
 11
253.594002
 21
154.899271
 31
0.0
  0
LINE
  5
1A40
100
AcDbEntity
  8
OBJECT
100
AcDbLine
 10
253.573984
 20
178.899271
 30
0.0
 11
253.573984
 21
154.899271
 31
0.0
  0
LINE
  5
1A41
100
AcDbEntity
  8
OBJECT
100
AcDbLine
 10
256.221284
 20
178.899271
 30
0.0
 11
256.221284
 21
154.899271
 31
0.0
  0
LINE
  5
1A42
100
AcDbEntity
  8
OBJECT
100
AcDbLine
 10
256.201267
 20
178.899271
 30
0.0
 11
256.201267
 21
154.899271
 31
0.0
  0
LINE
  5
1A43
100
AcDbEntity
  8
OBJECT
100
AcDbLine
 10
259.256754
 20
178.899271
 30
0.0
 11
259.256754
 21
154.899271
 31
0.0
  0
LINE
  5
1A44
100
AcDbEntity
  8
OBJECT
100
AcDbLine
 10
259.276772
 20
178.899271
 30
0.0
 11
259.276772
 21
154.899271
 31
0.0
  0
LINE
  5
1A45
100
AcDbEntity
  8
OBJECT
100
AcDbLine
 10
261.884037
 20
178.899271
 30
0.0
 11
261.884037
 21
154.899271
 31
0.0
  0
LINE
  5
1A46
100
AcDbEntity
  8
OBJECT
100
AcDbLine
 10
261.904054
 20
178.899271
 30
0.0
 11
261.904054
 21
154.899271
 31
0.0
  0
LINE
  5
1A47
100
AcDbEntity
  8
OBJECT
100
AcDbLine
 10
263.884037
 20
180.899271
 30
0.0
 11
263.884037
 21
154.899271
 31
0.0
  0
LINE
  5
1A48
100
AcDbEntity
  8
OBJECT
100
AcDbLine
 10
263.904054
 20
180.899271
 30
0.0
 11
263.904054
 21
154.899271
 31
0.0
  0
LINE
  5
1A49
100
AcDbEntity
  8
OBJECT
100
AcDbLine
 10
261.864019
 20
178.919289
 30
0.0
 11
253.614019
 21
178.919289
 31
0.0
  0
LINE
  5
1A4A
100
AcDbEntity
  8
OBJECT
100
AcDbLine
 10
261.864019
 20
178.939306
 30
0.0
 11
253.614019
 21
178.939306
 31
0.0
  0
LINE
  5
1A4B
100
AcDbEntity
  8
OBJECT
100
AcDbLine
 10
263.864019
 20
180.919289
 30
0.0
 11
251.614019
 21
180.919289
 31
0.0
  0
LINE
  5
1A4C
100
AcDbEntity
  8
OBJECT
100
AcDbLine
 10
263.864019
 20
180.939306
 30
0.0
 11
251.614019
 21
180.939306
 31
0.0
  0
ARC
  5
1A4D
100
AcDbEntity
  8
OBJECT
100
AcDbCircle
 10
257.739019
 20
180.00532
 30
0.0
 40
12.484787
100
AcDbArc
 50
60.568349
 51
119.431651
  0
ARC
  5
1A4E
100
AcDbEntity
  8
OBJECT
100
AcDbCircle
 10
257.739019
 20
180.00532
 30
0.0
 40
12.504804
100
AcDbArc
 50
60.568349
 51
119.431651
  0
ARC
  5
1A4F
100
AcDbEntity
  8
OBJECT
100
AcDbCircle
 10
257.739019
 20
180.00532
 30
0.0
 40
12.335752
100
AcDbArc
 50
60.282771
 51
119.717229
  0
ARC
  5
1A50
100
AcDbEntity
  8
OBJECT
100
AcDbCircle
 10
257.739019
 20
180.00532
 30
0.0
 40
12.315734
100
AcDbArc
 50
60.282771
 51
119.717229
  0
LINE
  5
1A51
100
AcDbEntity
  8
OBJECT
100
AcDbLine
 10
251.594002
 20
190.73609
 30
0.0
 11
251.594002
 21
190.861418
 31
0.0
  0
LINE
  5
1A52
100
AcDbEntity
  8
OBJECT
100
AcDbLine
 10
251.573984
 20
190.73609
 30
0.0
 11
251.573984
 21
190.861418
 31
0.0
  0
LINE
  5
1A53
100
AcDbEntity
  8
OBJECT
100
AcDbLine
 10
254.024024
 20
189.314748
 30
0.0
 11
253.269792
 21
191.386984
 31
0.0
  0
LINE
  5
1A54
100
AcDbEntity
  8
OBJECT
100
AcDbLine
 10
254.005214
 20
189.307902
 30
0.0
 11
253.250982
 21
191.380137
 31
0.0
  0
ARC
  5
1A55
100
AcDbEntity
  8
OBJECT
100
AcDbCircle
 10
253.171141
 20
191.351077
 30
0.0
 40
0.104983
100
AcDbArc
 50
20.0
 51
111.930048
  0
ARC
  5
1A56
100
AcDbEntity
  8
OBJECT
100
AcDbCircle
 10
253.171141
 20
191.351077
 30
0.0
 40
0.084965
100
AcDbArc
 50
20.0
 51
111.930048
  0
LINE
  5
1A57
100
AcDbEntity
  8
OBJECT
100
AcDbLine
 10
263.884037
 20
190.73609
 30
0.0
 11
263.884037
 21
190.861418
 31
0.0
  0
LINE
  5
1A58
100
AcDbEntity
  8
OBJECT
100
AcDbLine
 10
263.904054
 20
190.73609
 30
0.0
 11
263.904054
 21
190.861418
 31
0.0
  0
ARC
  5
1A59
100
AcDbEntity
  8
OBJECT
100
AcDbCircle
 10
262.306897
 20
191.351077
 30
0.0
 40
0.104983
100
AcDbArc
 50
68.069952
 51
160.0
  0
ARC
  5
1A5A
100
AcDbEntity
  8
OBJECT
100
AcDbCircle
 10
262.306897
 20
191.351077
 30
0.0
 40
0.084965
100
AcDbArc
 50
68.069952
 51
160.0
  0
LINE
  5
1A5B
100
AcDbEntity
  8
OBJECT
100
AcDbLine
 10
261.454014
 20
189.314748
 30
0.0
 11
262.208246
 21
191.386984
 31
0.0
  0
LINE
  5
1A5C
100
AcDbEntity
  8
OBJECT
100
AcDbLine
 10
261.472824
 20
189.307902
 30
0.0
 11
262.227056
 21
191.380137
 31
0.0
  0
LINE
  5
1A5D
100
AcDbEntity
  8
OBJECT
100
AcDbLine
 10
256.170998
 20
188.002248
 30
0.0
 11
254.142749
 21
189.173258
 31
0.0
  0
LINE
  5
1A5E
100
AcDbEntity
  8
OBJECT
100
AcDbLine
 10
256.160989
 20
187.984912
 30
0.0
 11
254.13274
 21
189.155922
 31
0.0
  0
ARC
  5
1A5F
100
AcDbEntity
  8
OBJECT
100
AcDbCircle
 10
254.277757
 20
189.4071
 30
0.0
 40
0.270017
100
AcDbArc
 50
200.0
 51
240.0
  0
ARC
  5
1A60
100
AcDbEntity
  8
OBJECT
100
AcDbCircle
 10
254.277757
 20
189.4071
 30
0.0
 40
0.290035
100
AcDbArc
 50
200.0
 51
240.0
  0
ARC
  5
1A61
100
AcDbEntity
  8
OBJECT
100
AcDbCircle
 10
256.306006
 20
188.23609
 30
0.0
 40
0.270017
100
AcDbArc
 50
240.0
 51
270.0
  0
ARC
  5
1A62
100
AcDbEntity
  8
OBJECT
100
AcDbCircle
 10
256.306006
 20
188.23609
 30
0.0
 40
0.290035
100
AcDbArc
 50
240.0
 51
270.0
  0
LINE
  5
1A63
100
AcDbEntity
  8
OBJECT
100
AcDbLine
 10
256.306006
 20
187.966072
 30
0.0
 11
259.172032
 21
187.966072
 31
0.0
  0
LINE
  5
1A64
100
AcDbEntity
  8
OBJECT
100
AcDbLine
 10
256.306006
 20
187.946055
 30
0.0
 11
259.172032
 21
187.946055
 31
0.0
  0
ARC
  5
1A65
100
AcDbEntity
  8
OBJECT
100
AcDbCircle
 10
259.172032
 20
188.23609
 30
0.0
 40
0.270017
100
AcDbArc
 50
270.0
 51
300.0
  0
ARC
  5
1A66
100
AcDbEntity
  8
OBJECT
100
AcDbCircle
 10
259.172032
 20
188.23609
 30
0.0
 40
0.290035
100
AcDbArc
 50
270.0
 51
300.0
  0
LINE
  5
1A67
100
AcDbEntity
  8
OBJECT
100
AcDbLine
 10
259.307041
 20
188.002248
 30
0.0
 11
261.335289
 21
189.173258
 31
0.0
  0
LINE
  5
1A68
100
AcDbEntity
  8
OBJECT
100
AcDbLine
 10
259.317049
 20
187.984912
 30
0.0
 11
261.345298
 21
189.155922
 31
0.0
  0
ARC
  5
1A69
100
AcDbEntity
  8
OBJECT
100
AcDbCircle
 10
261.200281
 20
189.4071
 30
0.0
 40
0.270017
100
AcDbArc
 50
300.0
 51
340.0
  0
ARC
  5
1A6A
100
AcDbEntity
  8
OBJECT
100
AcDbCircle
 10
261.200281
 20
189.4071
 30
0.0
 40
0.290035
100
AcDbArc
 50
300.0
 51
340.0
  0
LINE
  5
1A6B
100
AcDbEntity
  8
HIDDEN
100
AcDbLine
 10
256.301719
 20
188.115107
 30
0.0
 11
259.176319
 21
188.115107
 31
0.0
  0
LINE
  5
1A6C
100
AcDbEntity
  8
HIDDEN
100
AcDbLine
 10
256.249228
 20
188.129172
 30
0.0
 11
254.212223
 21
189.305237
 31
0.0
  0
LINE
  5
1A6D
100
AcDbEntity
  8
HIDDEN
100
AcDbLine
 10
254.166063
 20
189.360249
 30
0.0
 11
253.365152
 21
191.560734
 31
0.0
  0
LINE
  5
1A6E
100
AcDbEntity
  8
HIDDEN
100
AcDbLine
 10
259.22881
 20
188.129172
 30
0.0
 11
261.265815
 21
189.305237
 31
0.0
  0
LINE
  5
1A6F
100
AcDbEntity
  8
HIDDEN
100
AcDbLine
 10
261.311975
 20
189.360249
 30
0.0
 11
262.112887
 21
191.560734
 31
0.0
  0
ARC
  5
1A70
100
AcDbEntity
  8
HIDDEN
100
AcDbCircle
 10
261.213324
 20
189.396155
 30
0.0
 40
0.104983
100
AcDbArc
 50
300.0
 51
340.0
  0
ARC
  5
1A71
100
AcDbEntity
  8
HIDDEN
100
AcDbCircle
 10
259.176319
 20
188.22009
 30
0.0
 40
0.104983
100
AcDbArc
 50
270.0
 51
300.0
  0
ARC
  5
1A72
100
AcDbEntity
  8
HIDDEN
100
AcDbCircle
 10
256.301719
 20
188.22009
 30
0.0
 40
0.104983
100
AcDbArc
 50
240.0
 51
270.0
  0
ARC
  5
1A73
100
AcDbEntity
  8
HIDDEN
100
AcDbCircle
 10
254.264714
 20
189.396155
 30
0.0
 40
0.104983
100
AcDbArc
 50
200.0
 51
240.0
  0
LINE
  5
1A74
100
AcDbEntity
  8
OBJECT
100
AcDbLine
 10
221.212981
 20
177.173876
 30
0.0
 11
223.947823
 21
175.594915
 31
0.0
  0
LINE
  5
1A75
100
AcDbEntity
  8
OBJECT
100
AcDbLine
 10
221.205475
 20
177.160874
 30
0.0
 11
223.940316
 21
175.581913
 31
0.0
  0
LINE
  5
1A76
100
AcDbEntity
  8
OBJECT
100
AcDbLine
 10
222.089373
 20
178.69183
 30
0.0
 11
223.962836
 21
177.610186
 31
0.0
  0
LINE
  5
1A77
100
AcDbEntity
  8
OBJECT
100
AcDbLine
 10
222.096879
 20
178.704832
 30
0.0
 11
223.970342
 21
177.623187
 31
0.0
  0
ARC
  5
1A78
100
AcDbEntity
  8
OBJECT
100
AcDbCircle
 10
222.334867
 20
178.035441
 30
0.0
 40
0.676331
100
AcDbArc
 50
111.466415
 51
188.533585
  0
ARC
  5
1A79
100
AcDbEntity
  8
OBJECT
100
AcDbCircle
 10
222.334867
 20
178.035441
 30
0.0
 40
0.661318
100
AcDbArc
 50
111.466415
 51
188.533585
  0
ARC
  5
1A7A
100
AcDbEntity
  8
OBJECT
100
AcDbCircle
 10
221.004452
 20
177.808923
 30
0.0
 40
0.673505
100
AcDbArc
 50
289.152067
 51
10.847933
  0
ARC
  5
1A7B
100
AcDbEntity
  8
OBJECT
100
AcDbCircle
 10
221.004452
 20
177.808923
 30
0.0
 40
0.688518
100
AcDbArc
 50
289.152067
 51
10.847933
  0
ARC
  5
1A7C
100
AcDbEntity
  8
OBJECT
100
AcDbCircle
 10
221.910694
 20
177.285704
 30
0.0
 40
0.712258
100
AcDbArc
 50
111.851544
 51
188.148456
  0
ARC
  5
1A7D
100
AcDbEntity
  8
OBJECT
100
AcDbCircle
 10
221.910694
 20
177.285704
 30
0.0
 40
0.727271
100
AcDbArc
 50
111.851544
 51
188.148456
  0
LINE
  5
1A7E
100
AcDbEntity
  8
OBJECT
100
AcDbLine
 10
225.850292
 20
174.309542
 30
0.0
 11
226.805619
 21
174.187458
 31
0.0
  0
LINE
  5
1A7F
100
AcDbEntity
  8
OBJECT
100
AcDbLine
 10
225.848389
 20
174.29465
 30
0.0
 11
226.803716
 21
174.172566
 31
0.0
  0
LINE
  5
1A80
100
AcDbEntity
  8
OBJECT
100
AcDbLine
 10
226.805784
 20
174.187438
 30
0.0
 11
228.155121
 21
174.030142
 31
0.0
  0
LINE
  5
1A81
100
AcDbEntity
  8
OBJECT
100
AcDbLine
 10
226.804046
 20
174.172525
 30
0.0
 11
228.153382
 21
174.01523
 31
0.0
  0
LINE
  5
1A82
100
AcDbEntity
  8
OBJECT
100
AcDbLine
 10
228.164366
 20
174.032052
 30
0.0
 11
229.568869
 21
174.842943
 31
0.0
  0
LINE
  5
1A83
100
AcDbEntity
  8
OBJECT
100
AcDbLine
 10
228.171872
 20
174.019051
 30
0.0
 11
229.576375
 21
174.829941
 31
0.0
  0
LINE
  5
1A84
100
AcDbEntity
  8
OBJECT
100
AcDbLine
 10
229.574751
 20
174.849153
 30
0.0
 11
230.246345
 21
176.173233
 31
0.0
  0
LINE
  5
1A85
100
AcDbEntity
  8
OBJECT
100
AcDbLine
 10
229.588141
 20
174.842362
 30
0.0
 11
230.259734
 21
176.166442
 31
0.0
  0
LINE
  5
1A86
100
AcDbEntity
  8
OBJECT
100
AcDbLine
 10
229.576375
 20
174.855944
 30
0.0
 11
229.576375
 21
165.908963
 31
0.0
  0
LINE
  5
1A87
100
AcDbEntity
  8
OBJECT
100
AcDbLine
 10
229.591388
 20
174.855944
 30
0.0
 11
229.591388
 21
165.927787
 31
0.0
  0
LINE
  5
1A88
100
AcDbEntity
  8
OBJECT
100
AcDbLine
 10
228.141846
 20
174.045054
 30
0.0
 11
228.141846
 21
165.095596
 31
0.0
  0
LINE
  5
1A89
100
AcDbEntity
  8
OBJECT
100
AcDbLine
 10
228.126833
 20
174.045054
 30
0.0
 11
228.126833
 21
165.097346
 31
0.0
  0
LINE
  5
1A8A
100
AcDbEntity
  8
OBJECT
100
AcDbLine
 10
226.792509
 20
174.20235
 30
0.0
 11
226.792509
 21
165.25302
 31
0.0
  0
LINE
  5
1A8B
100
AcDbEntity
  8
OBJECT
100
AcDbLine
 10
226.777496
 20
174.20235
 30
0.0
 11
226.777496
 21
165.254938
 31
0.0
  0
LWPOLYLINE
  5
1A8C
100
AcDbEntity
  8
OBJECT
100
AcDbPolyline
 90
       16
 70
     1
 43
0.0
 10
225.45887
 20
174.57101
 42
0.058752
 10
225.43033
 20
174.504661
 42
0.072341
 10
225.421872
 20
174.446509
 42
0.106617
 10
225.43346
 20
174.392781
 42
0.156851
 10
225.45887
 20
174.36473
 42
0.156851
 10
225.495869
 20
174.35675
 42
0.106617
 10
225.548192
 20
174.373578
 42
0.072341
 10
225.594324
 20
174.409978
 42
0.058752
 10
225.637514
 20
174.46787
 42
0.058752
 10
225.666054
 20
174.534219
 42
0.072341
 10
225.674512
 20
174.592371
 42
0.106617
 10
225.662924
 20
174.646098
 42
0.156851
 10
225.637514
 20
174.67415
 42
0.156851
 10
225.600516
 20
174.68213
 42
0.106617
 10
225.548192
 20
174.665302
 42
0.072341
 10
225.50206
 20
174.628901
 42
0.058752
  0
LWPOLYLINE
  5
1A9E
100
AcDbEntity
  8
OBJECT
100
AcDbPolyline
 90
       16
 70
     1
 43
0.0
 10
230.621756
 20
177.538849
 42
0.058752
 10
230.598074
 20
177.483796
 42
0.072341
 10
230.591056
 20
177.435545
 42
0.106617
 10
230.600672
 20
177.390965
 42
0.156851
 10
230.621756
 20
177.367689
 42
0.156851
 10
230.652455
 20
177.361068
 42
0.106617
 10
230.69587
 20
177.375031
 42
0.072341
 10
230.734148
 20
177.405234
 42
0.058752
 10
230.769985
 20
177.453269
 42
0.058752
 10
230.793666
 20
177.508322
 42
0.072341
 10
230.800684
 20
177.556573
 42
0.106617
 10
230.791069
 20
177.601154
 42
0.156851
 10
230.769985
 20
177.624429
 42
0.156851
 10
230.739285
 20
177.631051
 42
0.106617
 10
230.69587
 20
177.617088
 42
0.072341
 10
230.657592
 20
177.586884
 42
0.058752
  0
LWPOLYLINE
  5
1AB0
100
AcDbEntity
  8
OBJECT
100
AcDbPolyline
 90
       16
 70
     1
 43
0.0
 10
225.45887
 20
165.728573
 42
0.058752
 10
225.43033
 20
165.662224
 42
0.072341
 10
225.421872
 20
165.604072
 42
0.106617
 10
225.43346
 20
165.550344
 42
0.156851
 10
225.45887
 20
165.522293
 42
0.156851
 10
225.495869
 20
165.514313
 42
0.106617
 10
225.548192
 20
165.531141
 42
0.072341
 10
225.594324
 20
165.567542
 42
0.058752
 10
225.637514
 20
165.625433
 42
0.058752
 10
225.666054
 20
165.691782
 42
0.072341
 10
225.674512
 20
165.749934
 42
0.106617
 10
225.662924
 20
165.803661
 42
0.156851
 10
225.637514
 20
165.831713
 42
0.156851
 10
225.600516
 20
165.839693
 42
0.106617
 10
225.548192
 20
165.822865
 42
0.072341
 10
225.50206
 20
165.786464
 42
0.058752
  0
LWPOLYLINE
  5
1AC2
100
AcDbEntity
  8
OBJECT
100
AcDbPolyline
 90
       16
 70
     1
 43
0.0
 10
230.621756
 20
168.696412
 42
0.058752
 10
230.598074
 20
168.641359
 42
0.072341
 10
230.591056
 20
168.593108
 42
0.106617
 10
230.600672
 20
168.548528
 42
0.156851
 10
230.621756
 20
168.525252
 42
0.156851
 10
230.652455
 20
168.518631
 42
0.106617
 10
230.69587
 20
168.532594
 42
0.072341
 10
230.734148
 20
168.562797
 42
0.058752
 10
230.769985
 20
168.610832
 42
0.058752
 10
230.793666
 20
168.665886
 42
0.072341
 10
230.800684
 20
168.714137
 42
0.106617
 10
230.791069
 20
168.758717
 42
0.156851
 10
230.769985
 20
168.781993
 42
0.156851
 10
230.739285
 20
168.788614
 42
0.106617
 10
230.69587
 20
168.774651
 42
0.072341
 10
230.657592
 20
168.744448
 42
0.058752
  0
LINE
  5
1AD4
100
AcDbEntity
  8
OBJECT
100
AcDbLine
 10
223.582281
 20
176.880594
 30
0.0
 11
219.606428
 21
179.176054
 31
0.0
  0
LINE
  5
1AD5
100
AcDbEntity
  8
OBJECT
100
AcDbLine
 10
220.093567
 20
178.894804
 30
0.0
 11
223.582281
 21
176.880594
 31
0.0
  0
LWPOLYLINE
  5
1AD6
100
AcDbEntity
  8
DIM
 62
     6
100
AcDbPolyline
 90
        2
 70
     0
 43
0.134766
 39
10.78125
 10
226.08315
 20
196.951904
 10
262.532292
 20
196.951904
  0
SOLID
  5
1ADB
100
AcDbEntity
  8
OBJECT
100
AcDbTrace
 10
222.995262
 20
177.363847
 30
0.0
 11
222.870262
 21
177.147341
 31
0.0
 12
223.582281
 22
176.880594
 32
0.0
 13
223.582281
 23
176.880594
 33
0.0
  0
LINE
  5
1ADC
100
AcDbEntity
  8
OBJECT
100
AcDbLine
 10
222.932762
 20
177.255594
 30
0.0
 11
219.606428
 21
179.176054
 31
0.0
  0
TEXT
  5
1ADD
100
AcDbEntity
  8
DIM
100
AcDbText
 10
247.137316
 20
149.421284
 30
0.0
 40
0.75
  1
NO.
  7
ROMANT
100
AcDbText
  0
TEXT
  5
1ADE
100
AcDbEntity
  8
DIM
100
AcDbText
 10
246.23616
 20
147.629864
 30
0.0
 40
0.75
  1
PIB12  4" DEEP x 8" WIDE x 12" LONG
  7
ROMANT
100
AcDbText
  0
TEXT
  5
1ADF
100
AcDbEntity
  8
DIM
100
AcDbText
 10
246.23616
 20
146.415578
 30
0.0
 40
0.75
  1
PIB18  4" DEEP x 8" WIDE x 18" LONG
  7
ROMANT
100
AcDbText
  0
TEXT
  5
1AE0
100
AcDbEntity
  8
DIM
100
AcDbText
 10
246.23616
 20
145.201293
 30
0.0
 40
0.75
  1
PIB24  4" DEEP x 8" WIDE x 24" LONG
  7
ROMANT
100
AcDbText
  0
TEXT
  5
1AE1
100
AcDbEntity
  8
DIM
100
AcDbText
 10
246.23616
 20
143.987007
 30
0.0
 40
0.75
  1
PIB30  4" DEEP x 8" WIDE x 30" LONG
  7
ROMANT
100
AcDbText
  0
TEXT
  5
1AE2
100
AcDbEntity
  8
DIM
100
AcDbText
 10
246.23616
 20
142.772721
 30
0.0
 40
0.75
  1
PIB36  4" DEEP x 8" WIDE x 36" LONG
  7
ROMANT
100
AcDbText
  0
TEXT
  5
1AE3
100
AcDbEntity
  8
DIM
100
AcDbText
 10
246.23616
 20
141.558436
 30
0.0
 40
0.75
  1
PIB42  4" DEEP x 8" WIDE x 42" LONG
  7
ROMANT
100
AcDbText
  0
TEXT
  5
1AE4
100
AcDbEntity
  8
DIM
100
AcDbText
 10
246.23616
 20
140.34415
 30
0.0
 40
0.75
  1
PIB48  4" DEEP x 8" WIDE x 48" LONG
  7
ROMANT
100
AcDbText
  0
DIMENSION
  5
1AE5
100
AcDbEntity
  8
DIM
100
AcDbDimension
  2
*D0
 10
268.68585
 20
192.321055
 30
0.0
 11
268.68585
 21
190.208072
 31
0.0
 12
68.229393
 22
0.975121
 32
0.0
  1
4"
100
AcDbAlignedDimension
 13
259.176319
 23
188.09509
 33
0.0
 14
257.739019
 24
192.321055
 34
0.0
 50
90.0
100
AcDbRotatedDimension
  0
DIMENSION
  5
1AE6
100
AcDbEntity
  8
DIM
100
AcDbDimension
  2
*D1
 10
262.131697
 20
186.24497
 30
0.0
 11
257.739019
 21
186.24497
 31
0.0
 12
68.229393
 22
0.975121
 32
0.0
  1
8"
100
AcDbAlignedDimension
 13
253.346341
 23
191.553888
 33
0.0
 14
262.131697
 24
191.553888
 34
0.0
100
AcDbRotatedDimension
  0
TEXT
  5
1AE7
100
AcDbEntity
  8
DIM
100
AcDbText
 10
258.117978
 20
149.421284
 30
0.0
 40
0.75
  1
DESCRIPTION
  7
ROMANT
100
AcDbText
  0
TEXT
  5
1AE8
100
AcDbEntity
  8
DIM
100
AcDbText
 10
246.691213
 20
150.474736
 30
0.0
 40
0.75
  1
PART 
  7
ROMANT
100
AcDbText
  0
LWPOLYLINE
  5
1AE9
100
AcDbEntity
  8
DIM
100
AcDbPolyline
 90
        6
 70
     0
 43
0.05
 10
245.574874
 20
139.666394
 10
272.006631
 20
139.666394
 10
272.006631
 20
151.792492
 10
245.574874
 20
151.792492
 10
245.574874
 20
139.666394
 10
249.49206
 20
139.666394
  0
LWPOLYLINE
  5
1AF1
100
AcDbEntity
  8
DIM
100
AcDbPolyline
 90
        2
 70
     0
 43
0.05
 10
245.574874
 20
149.040412
 10
272.006631
 20
149.040412
  0
TEXT
  5
1AF5
100
AcDbEntity
  8
DIM
100
AcDbText
 10
216.334335
 20
180.664023
 30
0.0
 40
0.5
  1
INFLUENT
 50
330.0
  7
ROMANS
100
AcDbText
  0
TEXT
  5
1AF6
100
AcDbEntity
  8
DIM
100
AcDbText
 10
224.331977
 20
148.912417
 30
0.0
 40
0.75
  1
TYPICAL INSTALLATION
  7
ROMANT
100
AcDbText
  0
LINE
  5
1AF7
100
AcDbEntity
  8
DIM
100
AcDbLine
 10
224.383116
 20
148.759187
 30
0.0
 11
238.182011
 21
148.759187
 31
0.0
  0
LINE
  5
1AF8
100
AcDbEntity
  8
OBJECT
100
AcDbLine
 10
224.313962
 20
182.527077
 30
0.0
 11
224.313962
 21
155.882232
 31
0.0
  0
LINE
  5
1AF9
100
AcDbEntity
  8
OBJECT
100
AcDbLine
 10
224.333962
 20
182.506546
 30
0.0
 11
224.333962
 21
155.882232
 31
0.0
  0
LINE
  5
1AFA
100
AcDbEntity
  8
OBJECT
100
AcDbLine
 10
224.353962
 20
182.486207
 30
0.0
 11
224.353962
 21
155.882232
 31
0.0
  0
LWPOLYLINE
  5
1AFB
100
AcDbEntity
  8
OBJECT
100
AcDbPolyline
 90
        6
 70
     0
 43
0.0
 10
232.868013
 20
160.607687
 42
0.029111
 10
231.410472
 20
160.69262
 42
0.060063
 10
228.427982
 20
160.333046
 42
0.073531
 10
226.15263
 20
159.406352
 42
0.106828
 10
224.463605
 20
157.844159
 42
0.02641
 10
224.313962
 20
157.6048
 42
0.154088
  0
LWPOLYLINE
  5
1B03
100
AcDbEntity
  8
OBJECT
100
AcDbPolyline
 90
        6
 70
     0
 43
0.0
 10
232.869757
 20
160.622598
 42
0.029111
 10
231.410472
 20
160.707633
 42
0.060063
 10
228.424413
 20
160.347629
 42
0.073531
 10
226.144994
 20
159.419278
 42
0.106828
 10
224.451313
 20
157.852778
 42
0.023911
 10
224.313962
 20
157.635503
 42
0.154088
  0
LINE
  5
1B0B
100
AcDbEntity
  8
DIM
100
AcDbLine
 10
227.586226
 20
165.160366
 30
0.0
 11
227.586226
 21
161.471022
 31
0.0
  0
SOLID
  5
1B0C
100
AcDbEntity
  8
DIM
100
AcDbTrace
 10
227.78456
 20
162.661022
 30
0.0
 11
227.387893
 21
162.661022
 31
0.0
 12
227.586226
 22
161.471022
 32
0.0
 13
227.586226
 23
161.471022
 33
0.0
  0
LINE
  5
1B0D
100
AcDbEntity
  8
DIM
100
AcDbLine
 10
227.586226
 20
162.871022
 30
0.0
 11
227.586226
 21
164.410884
 31
0.0
  0
LINE
  5
1B0E
100
AcDbEntity
  8
DIM
100
AcDbLine
 10
227.586226
 20
161.471022
 30
0.0
 11
231.201584
 21
161.471022
 31
0.0
  0
SOLID
  5
1B0F
100
AcDbEntity
  8
DIM
100
AcDbTrace
 10
230.011584
 20
161.669356
 30
0.0
 11
230.011584
 21
161.272689
 31
0.0
 12
231.201584
 22
161.471022
 32
0.0
 13
231.201584
 23
161.471022
 33
0.0
  0
LWPOLYLINE
  5
2031
100
AcDbEntity
  8
BORDER
 62
     5
100
AcDbPolyline
 90
        6
 70
     0
 43
0.30571
 10
213.585906
 20
132.133401
 10
213.585906
 20
204.380426
 42
-0.414214
 10
214.272222
 20
205.066742
 10
275.11762
 20
205.066742
 42
-0.414214
 10
275.803936
 20
204.380426
 10
275.803936
 20
132.133401
  0
LWPOLYLINE
  5
2032
100
AcDbEntity
  8
BORDER
 62
     5
100
AcDbPolyline
 90
        2
 70
     0
 43
0.171579
 10
213.585906
 20
132.133401
 10
213.585906
 20
204.380426
  0
LINE
  5
2033
100
AcDbEntity
  8
LIMITS
 62
     7
100
AcDbLine
 10
212.213275
 20
206.439374
 30
0.0
 11
212.213275
 21
122.36923
 31
0.0
  0
LWPOLYLINE
  5
2034
100
AcDbEntity
  8
BORDER
 62
     5
100
AcDbPolyline
 90
        2
 70
     0
 43
0.171579
 10
275.803936
 20
132.133401
 10
275.803936
 20
204.380426
  0
LINE
  5
2035
100
AcDbEntity
  8
LIMITS
 62
     7
100
AcDbLine
 10
277.176568
 20
122.36923
 30
0.0
 11
277.176568
 21
206.439374
 31
0.0
  0
LINE
  5
2036
100
AcDbEntity
  8
LIMITS
100
AcDbLine
 10
277.176568
 20
204.727139
 30
0.0
 11
277.176568
 21
122.36923
 31
0.0
  0
LINE
  5
2037
100
AcDbEntity
  8
LIMITS
100
AcDbLine
 10
277.176568
 20
122.36923
 30
0.0
 11
277.176568
 21
204.727139
 31
0.0
  0
LWPOLYLINE
  5
2038
100
AcDbEntity
  8
BORDER
 62
     5
100
AcDbPolyline
 90
        2
 70
     0
 43
0.428947
 10
264.651302
 20
131.806074
 42
0.414214
 10
262.935513
 20
130.090284
 42
-0.560527
  0
LWPOLYLINE
  5
2039
100
AcDbEntity
  8
BORDER
 62
     5
100
AcDbPolyline
 90
        2
 70
     0
 43
0.428947
 10
274.088146
 20
124.08502
 10
215.301696
 20
124.08502
  0
LINE
  5
203A
100
AcDbEntity
  8
LIMITS
 62
     7
100
AcDbLine
 10
212.213275
 20
122.36923
 30
0.0
 11
277.176568
 21
122.36923
 31
0.0
  0
LWPOLYLINE
  5
203B
100
AcDbEntity
  8
BORDER
 62
     5
100
AcDbPolyline
 90
        2
 70
     0
 43
0.428947
 10
229.028014
 20
131.806074
 10
260.361828
 20
131.806074
  0
TEXT
  5
203C
100
AcDbEntity
  8
BORDER
 62
     6
100
AcDbText
 10
231.727231
 20
125.743452
 30
0.0
 40
0.327179
  1
Rochester, IN  46975
  7
ROMANC
100
AcDbText
  0
TEXT
  5
203D
100
AcDbEntity
  8
BORDER
 62
     6
100
AcDbText
 10
228.773237
 20
125.085428
 30
0.0
 40
0.327179
  1
Phone: 800/354-4534  Fax: 574/223-6106
  7
ROMANC
100
AcDbText
  0
LINE
  5
203E
100
AcDbEntity
  8
BORDER
100
AcDbLine
 10
228.170119
 20
128.966967
 30
0.0
 11
241.246517
 21
128.966967
 31
0.0
  0
LINE
  5
203F
100
AcDbEntity
  8
BORDER
100
AcDbLine
 10
228.170119
 20
126.900328
 30
0.0
 11
248.407499
 21
126.900328
 31
0.0
  0
LINE
  5
2040
100
AcDbEntity
  8
BORDER
100
AcDbLine
 10
228.170119
 20
127.516599
 30
0.0
 11
248.407499
 21
127.516599
 31
0.0
  0
LINE
  5
2041
100
AcDbEntity
  8
BORDER
100
AcDbLine
 10
229.028014
 20
130.948179
 30
0.0
 11
248.407499
 21
130.948179
 31
0.0
  0
LINE
  5
2042
100
AcDbEntity
  8
BORDER
100
AcDbLine
 10
228.170119
 20
124.942914
 30
0.0
 11
248.407499
 21
124.942914
 31
0.0
  0
TEXT
  5
2043
100
AcDbEntity
  8
BORDER
 62
     6
100
AcDbText
 10
230.318305
 20
126.324493
 30
0.0
 40
0.327179
  1
Highway 25 North P.O. Box 420
  7
ROMANC
100
AcDbText
  0
ARC
  5
2044
100
AcDbEntity
  8
BORDER
100
AcDbCircle
 10
220.792994
 20
129.450656
 30
0.0
 40
0.257531
100
AcDbArc
 50
270.0
 51
90.0
  0
LINE
  5
2045
100
AcDbEntity
  8
BORDER
100
AcDbLine
 10
220.839831
 20
126.174161
 30
0.0
 11
221.083761
 21
126.174161
 31
0.0
  0
LINE
  5
2046
100
AcDbEntity
  8
BORDER
100
AcDbLine
 10
221.083761
 20
126.535956
 30
0.0
 11
220.839831
 21
126.535956
 31
0.0
  0
ELLIPSE
  5
2047
102
{ACAD_REACTORS
330
2048
102
}
100
AcDbEntity
  8
BORDER
100
AcDbEllipse
 10
220.244664
 20
127.81804
 30
0.0
 11
0.0000000000000065
 21
0.9582629293108389
 31
0.0
210
0.0
220
0.0
230
1.0
 40
0.93822
 41
0.0
 42
6.283185307179586
  0
HATCH
  5
2048
100
AcDbEntity
  8
BORDER
100
AcDbHatch
 10
0.0
 20
0.0
 30
0.0
210
0.0
220
0.0
230
1.0
  2
ANSI37
 70
     0
 71
     1
 91
        2
 92
        5
 93
        1
 72
     3
 10
220.244664
 20
127.81804
 11
0.0
 21
0.958263
 40
0.93822
 50
0.0
 51
360.0
 73
     1
 97
        1
330
2047
 92
       20
 93
        1
 72
     3
 10
220.244664
 20
127.8235
 11
0.0
 21
0.85998
 40
0.683214
 50
0.0
 51
360.0
 73
     1
 97
        1
330
2068
 75
     0
 76
     1
 52
0.0
 41
0.013292
 77
     0
 78
     2
 53
45.0
 43
213.067912
 44
78.895748
 45
-0.0011748402902676
 46
0.0011748402902676
 79
     0
 53
135.0
 43
213.067912
 44
78.895748
 45
-0.0011748402902676
 46
-0.0011748402902676
 79
     0
 47
0.027301
 98
        2
 10
219.598037
 20
128.20807
 10
219.598037
 20
128.20807
  0
LINE
  5
2049
100
AcDbEntity
  8
BORDER
100
AcDbLine
 10
219.75655
 20
128.95585
 30
0.0
 11
224.152982
 21
128.95585
 31
0.0
  0
LINE
  5
204A
100
AcDbEntity
  8
BORDER
100
AcDbLine
 10
215.732452
 20
126.76295
 30
0.0
 11
224.355882
 21
126.76295
 31
0.0
  0
LINE
  5
204B
100
AcDbEntity
  8
BORDER
100
AcDbLine
 10
215.732452
 20
126.76295
 30
0.0
 11
224.355882
 21
126.76295
 31
0.0
  0
LWPOLYLINE
  5
204C
100
AcDbEntity
  8
BORDER
 62
     5
100
AcDbPolyline
 90
        2
 70
     0
 43
0.428947
 10
215.301696
 20
131.806074
 10
224.73854
 20
131.806074
  0
LINE
  5
204D
100
AcDbEntity
  8
BORDER
100
AcDbLine
 10
215.301696
 20
130.948179
 30
0.0
 11
224.73854
 21
130.948179
 31
0.0
  0
LINE
  5
204E
100
AcDbEntity
  8
BORDER
100
AcDbLine
 10
215.301696
 20
124.942914
 30
0.0
 11
225.596435
 21
124.942914
 31
0.0
  0
LWPOLYLINE
  5
204F
100
AcDbEntity
  8
BORDER
 62
     5
100
AcDbPolyline
 90
        2
 70
     0
 43
0.428947
 10
215.301696
 20
124.08502
 42
-0.414214
 10
213.585906
 20
125.800809
 42
0.560527
  0
LWPOLYLINE
  5
2050
100
AcDbEntity
  8
BORDER
 62
     5
100
AcDbPolyline
 90
        2
 70
     0
 43
0.428947
 10
215.301696
 20
131.806074
 42
0.414214
 10
213.585906
 20
130.090284
 42
-0.560527
  0
LWPOLYLINE
  5
2051
100
AcDbEntity
  8
BORDER
 62
     5
100
AcDbPolyline
 90
        2
 70
     0
 43
0.428947
 10
213.585906
 20
130.090284
 10
213.585906
 20
125.800809
  0
ARC
  5
2052
100
AcDbEntity
  8
BORDER
100
AcDbCircle
 10
215.301696
 20
130.090284
 30
0.0
 40
0.857895
100
AcDbArc
 50
90.0
 51
180.0
  0
LINE
  5
2053
102
{ACAD_REACTORS
330
2059
102
}
100
AcDbEntity
  8
BORDER
100
AcDbLine
 10
217.146241
 20
129.820937
 30
0.0
 11
217.53163
 21
129.820937
 31
0.0
  0
ARC
  5
2054
100
AcDbEntity
  8
BORDER
100
AcDbCircle
 10
217.473179
 20
126.188703
 30
0.0
 40
0.347343
100
AcDbArc
 50
44.321228
 51
180.91508
  0
ARC
  5
2055
102
{ACAD_REACTORS
330
2059
102
}
100
AcDbEntity
  8
BORDER
100
AcDbCircle
 10
217.093779
 20
127.411171
 30
0.0
 40
0.437851
100
AcDbArc
 50
270.0
 51
0.0
  0
LINE
  5
2056
102
{ACAD_REACTORS
330
2059
102
}
100
AcDbEntity
  8
BORDER
100
AcDbLine
 10
216.952771
 20
126.88199
 30
0.0
 11
218.867212
 21
126.88199
 31
0.0
  0
ARC
  5
2057
100
AcDbEntity
  8
BORDER
100
AcDbCircle
 10
217.448097
 20
126.153479
 30
0.0
 40
0.323581
100
AcDbArc
 50
174.737783
 51
327.723969
  0
LINE
  5
2058
102
{ACAD_REACTORS
330
2059
102
}
100
AcDbEntity
  8
BORDER
100
AcDbLine
 10
216.180958
 20
130.044188
 30
0.0
 11
219.639025
 21
130.044188
 31
0.0
  0
HATCH
  5
2059
100
AcDbEntity
  8
BORDER
100
AcDbHatch
 10
0.0
 20
0.0
 30
0.0
210
0.0
220
0.0
230
1.0
  2
ANSI37
 70
     0
 71
     1
 91
        1
 92
        7
 72
     1
 73
     1
 93
       18
 10
217.5316300886449
 20
127.4111709500923
 42
-0.4142135623730739
 10
217.0937790374473
 20
126.9733198988947
 42
0.0
 10
216.9527707400596
 20
126.9733198988947
 42
0.0
 10
216.9527707400596
 20
126.8819898373382
 42
0.0
 10
218.8672124602973
 20
126.8819898373382
 42
0.0
 10
218.8672124602973
 20
126.9733198988947
 42
0.0
 10
218.7262041629093
 20
126.9733198988947
 42
-0.4142135623730533
 10
218.2883531117117
 20
127.4111709500923
 42
0.0
 10
218.2883531117117
 20
129.8209368648437
 42
0.0
 10
218.6737424030853
 20
129.8209368648437
 42
-0.4138200196737635
 10
219.5476253981024
 20
128.9482274279443
 42
0.0
 10
219.639024925078
 20
128.9482274279443
 42
0.0
 10
219.6390249250782
 20
130.0441881666217
 42
0.0
 10
216.1809582752786
 20
130.0441881666217
 42
0.0
 10
216.1809582752786
 20
128.9482274279443
 42
0.0
 10
216.2723578022543
 20
128.9482274279443
 42
-0.4138200196737638
 10
217.1462407972715
 20
129.8209368648437
 42
0.0
 10
217.5316300886449
 20
129.8209368648437
 42
0.0
 97
       18
330
207A
330
2077
330
207E
330
2082
330
2058
330
2066
330
2065
330
2064
330
2053
330
2078
330
2055
330
2062
330
2061
330
2056
330
206E
330
206A
330
2067
330
2079
 75
     0
 76
     1
 52
0.0
 41
0.013292
 77
     0
 78
     2
 53
45.0
 43
213.067912
 44
78.895748
 45
-0.0011748402902676
 46
0.0011748402902676
 79
     0
 53
135.0
 43
213.067912
 44
78.895748
 45
-0.0011748402902676
 46
-0.0011748402902676
 79
     0
 47
0.049862
 98
        1
 10
217.817126
 20
128.569306
  0
LINE
  5
205A
100
AcDbEntity
  8
BORDER
100
AcDbLine
 10
214.443801
 20
125.800809
 30
0.0
 11
214.443801
 21
130.090284
 31
0.0
  0
ARC
  5
205B
100
AcDbEntity
  8
BORDER
100
AcDbCircle
 10
215.301696
 20
125.800809
 30
0.0
 40
0.857895
100
AcDbArc
 50
180.0
 51
270.0
  0
LINE
  5
205C
100
AcDbEntity
  8
BORDER
100
AcDbLine
 10
216.960381
 20
125.830355
 30
0.0
 11
216.419748
 21
126.535956
 31
0.0
  0
LINE
  5
205D
100
AcDbEntity
  8
BORDER
100
AcDbLine
 10
215.966333
 20
126.535956
 30
0.0
 11
216.255298
 21
126.535956
 31
0.0
  0
LINE
  5
205E
100
AcDbEntity
  8
BORDER
100
AcDbLine
 10
215.966333
 20
125.830355
 30
0.0
 11
216.255298
 21
125.830355
 31
0.0
  0
LINE
  5
205F
100
AcDbEntity
  8
BORDER
100
AcDbLine
 10
216.110815
 20
126.535956
 30
0.0
 11
216.110815
 21
125.830355
 31
0.0
  0
LINE
  5
2060
100
AcDbEntity
  8
BORDER
100
AcDbLine
 10
216.419748
 20
126.535956
 30
0.0
 11
216.419748
 21
125.830355
 31
0.0
  0
LINE
  5
2061
102
{ACAD_REACTORS
330
2059
102
}
100
AcDbEntity
  8
BORDER
100
AcDbLine
 10
216.952771
 20
126.97332
 30
0.0
 11
216.952771
 21
126.88199
 31
0.0
  0
LINE
  5
2062
102
{ACAD_REACTORS
330
2059
102
}
100
AcDbEntity
  8
BORDER
100
AcDbLine
 10
216.952771
 20
126.97332
 30
0.0
 11
217.093779
 21
126.97332
 31
0.0
  0
LINE
  5
2063
100
AcDbEntity
  8
BORDER
100
AcDbLine
 10
216.960381
 20
126.535956
 30
0.0
 11
216.960381
 21
125.830355
 31
0.0
  0
ARC
  5
2064
102
{ACAD_REACTORS
330
2059
102
}
100
AcDbEntity
  8
BORDER
100
AcDbCircle
 10
217.146241
 20
128.947053
 30
0.0
 40
0.873884
100
AcDbArc
 50
90.0
 51
179.923004
  0
LINE
  5
2065
102
{ACAD_REACTORS
330
2059
102
}
100
AcDbEntity
  8
BORDER
100
AcDbLine
 10
216.180958
 20
128.948227
 30
0.0
 11
216.272357
 21
128.948227
 31
0.0
  0
LINE
  5
2066
102
{ACAD_REACTORS
330
2059
102
}
100
AcDbEntity
  8
BORDER
100
AcDbLine
 10
216.180958
 20
128.948227
 30
0.0
 11
216.180958
 21
130.044188
 31
0.0
  0
ARC
  5
2067
102
{ACAD_REACTORS
330
2059
102
}
100
AcDbEntity
  8
BORDER
100
AcDbCircle
 10
218.726204
 20
127.411171
 30
0.0
 40
0.437851
100
AcDbArc
 50
180.0
 51
270.0
  0
ELLIPSE
  5
2068
102
{ACAD_REACTORS
330
2048
102
}
100
AcDbEntity
  8
BORDER
100
AcDbEllipse
 10
220.244664
 20
127.8235
 30
0.0
 11
0.0000000000000065
 21
0.8599795867301606
 31
0.0
210
0.0
220
0.0
230
1.0
 40
0.683214
 41
0.0
 42
6.283185307179586
  0
SPLINE
  5
2069
100
AcDbEntity
  8
BORDER
100
AcDbSpline
210
0.0
220
0.0
230
1.0
 70
    11
 71
     3
 72
    24
 73
    20
 74
     0
 42
0.0000001
 43
0.0000001
 40
0.0
 40
0.0
 40
0.0
 40
0.0
 40
0.474866629778075
 40
0.474866629778075
 40
1.277791044886493
 40
1.277791044886493
 40
2.080715459994911
 40
2.080715459994911
 40
2.883639875103329
 40
2.883639875103329
 40
3.686564290211747
 40
3.686564290211747
 40
4.489488705320165
 40
4.489488705320165
 40
5.292413120428583
 40
5.292413120428583
 40
6.095337535537001
 40
6.095337535537001
 40
6.283185307179586
 40
6.283185307179586
 40
6.283185307179586
 40
6.283185307179586
 10
218.1843817685746
 20
126.5455263655437
 30
0.0
 10
218.127194168175
 20
126.5455263655437
 30
0.0
 10
218.0700547396697
 20
126.5316545526788
 30
0.0
 10
217.9332057343016
 20
126.4610770202268
 30
0.0
 10
217.8664421759584
 20
126.3806576082518
 30
0.0
 10
217.8105979533015
 20
126.1949654442926
 30
0.0
 10
217.821888548225
 20
126.0909367997271
 30
0.0
 10
217.9162655985961
 20
125.9216462536721
 30
0.0
 10
217.9987231427751
 20
125.8575212668436
 30
0.0
 10
218.1857119863665
 20
125.8080315240528
 30
0.0
 10
218.2889836030843
 20
125.8230027861983
 30
0.0
 10
218.4543486215539
 20
125.9235660867097
 30
0.0
 10
218.5153315984246
 20
126.0084775460468
 30
0.0
 10
218.5580720851584
 20
126.1976361063617
 30
0.0
 10
218.5395455996846
 20
126.3006165431954
 30
0.0
 10
218.4335777952977
 20
126.4628619352965
 30
0.0
 10
218.3468432987155
 20
126.5210362450387
 30
0.0
 10
218.2296258467447
 20
126.5433886044156
 30
0.0
 10
218.2070040431819
 20
126.5455263655437
 30
0.0
 10
218.1843817685746
 20
126.5455263655437
 30
0.0
  0
LINE
  5
206A
102
{ACAD_REACTORS
330
2059
102
}
100
AcDbEntity
  8
BORDER
100
AcDbLine
 10
218.867212
 20
126.97332
 30
0.0
 11
218.726204
 21
126.97332
 31
0.0
  0
LINE
  5
206B
100
AcDbEntity
  8
BORDER
100
AcDbLine
 10
218.956228
 20
126.535956
 30
0.0
 11
218.712299
 21
126.535956
 31
0.0
  0
LINE
  5
206C
100
AcDbEntity
  8
BORDER
100
AcDbLine
 10
218.712299
 20
126.174161
 30
0.0
 11
218.956228
 21
126.174161
 31
0.0
  0
ARC
  5
206D
100
AcDbEntity
  8
BORDER
100
AcDbCircle
 10
218.956228
 20
126.355059
 30
0.0
 40
0.180898
100
AcDbArc
 50
270.0
 51
90.0
  0
LINE
  5
206E
102
{ACAD_REACTORS
330
2059
102
}
100
AcDbEntity
  8
BORDER
100
AcDbLine
 10
218.867212
 20
126.97332
 30
0.0
 11
218.867212
 21
126.88199
 31
0.0
  0
LINE
  5
206F
100
AcDbEntity
  8
BORDER
100
AcDbLine
 10
218.712299
 20
126.535956
 30
0.0
 11
218.712299
 21
125.830355
 31
0.0
  0
LINE
  5
2070
100
AcDbEntity
  8
BORDER
100
AcDbLine
 10
218.905429
 20
126.174161
 30
0.0
 11
219.185552
 21
125.830355
 31
0.0
  0
SPLINE
  5
2071
100
AcDbEntity
  8
BORDER
100
AcDbSpline
210
0.0
220
0.0
230
1.0
 70
    11
 71
     3
 72
    24
 73
    20
 74
     0
 42
0.0000001
 43
0.0000001
 40
0.0
 40
0.0
 40
0.0
 40
0.0
 40
0.474866629778075
 40
0.474866629778075
 40
1.277791044886493
 40
1.277791044886493
 40
2.080715459994911
 40
2.080715459994911
 40
2.883639875103329
 40
2.883639875103329
 40
3.686564290211747
 40
3.686564290211747
 40
4.489488705320165
 40
4.489488705320165
 40
5.292413120428583
 40
5.292413120428583
 40
6.095337535537001
 40
6.095337535537001
 40
6.283185307179586
 40
6.283185307179586
 40
6.283185307179586
 40
6.283185307179586
 10
220.2838636251757
 20
126.5455263655437
 30
0.0
 10
220.2266760247759
 20
126.5455263655437
 30
0.0
 10
220.1695365962706
 20
126.5316545526788
 30
0.0
 10
220.0326875909026
 20
126.4610770202268
 30
0.0
 10
219.9659240325595
 20
126.3806576082518
 30
0.0
 10
219.9100798099027
 20
126.1949654442926
 30
0.0
 10
219.9213704048261
 20
126.0909367997271
 30
0.0
 10
220.015747455197
 20
125.9216462536721
 30
0.0
 10
220.098204999376
 20
125.8575212668436
 30
0.0
 10
220.2851938429675
 20
125.8080315240528
 30
0.0
 10
220.3884654596852
 20
125.8230027861983
 30
0.0
 10
220.5538304781548
 20
125.9235660867097
 30
0.0
 10
220.6148134550255
 20
126.0084775460468
 30
0.0
 10
220.6575539417595
 20
126.1976361063617
 30
0.0
 10
220.6390274562858
 20
126.3006165431954
 30
0.0
 10
220.5330596518989
 20
126.4628619352965
 30
0.0
 10
220.4463251553165
 20
126.5210362450387
 30
0.0
 10
220.3291077033456
 20
126.5433886044156
 30
0.0
 10
220.306485899783
 20
126.5455263655437
 30
0.0
 10
220.2838636251757
 20
126.5455263655437
 30
0.0
  0
ARC
  5
2072
100
AcDbEntity
  8
BORDER
100
AcDbCircle
 10
219.640813
 20
126.355059
 30
0.0
 40
0.180898
100
AcDbArc
 50
270.0
 51
90.0
  0
LINE
  5
2073
100
AcDbEntity
  8
BORDER
100
AcDbLine
 10
219.457678
 20
126.535956
 30
0.0
 11
219.457678
 21
125.830355
 31
0.0
  0
LINE
  5
2074
100
AcDbEntity
  8
BORDER
100
AcDbLine
 10
219.640813
 20
126.535956
 30
0.0
 11
219.457678
 21
126.535956
 31
0.0
  0
LINE
  5
2075
100
AcDbEntity
  8
BORDER
100
AcDbLine
 10
219.457678
 20
126.174161
 30
0.0
 11
219.640813
 21
126.174161
 31
0.0
  0
LINE
  5
2076
100
AcDbEntity
  8
BORDER
100
AcDbLine
 10
220.839831
 20
126.535956
 30
0.0
 11
220.839831
 21
125.830355
 31
0.0
  0
ARC
  5
2077
102
{ACAD_REACTORS
330
2059
102
}
100
AcDbEntity
  8
BORDER
100
AcDbCircle
 10
218.673742
 20
128.947053
 30
0.0
 40
0.873884
100
AcDbArc
 50
0.076996
 51
90.0
  0
LINE
  5
2078
102
{ACAD_REACTORS
330
2059
102
}
100
AcDbEntity
  8
BORDER
100
AcDbLine
 10
217.53163
 20
127.411171
 30
0.0
 11
217.53163
 21
129.820937
 31
0.0
  0
LINE
  5
2079
102
{ACAD_REACTORS
330
2059
102
}
100
AcDbEntity
  8
BORDER
100
AcDbLine
 10
218.288353
 20
127.411171
 30
0.0
 11
218.288353
 21
129.820937
 31
0.0
  0
LINE
  5
207A
102
{ACAD_REACTORS
330
2059
102
}
100
AcDbEntity
  8
BORDER
100
AcDbLine
 10
218.673742
 20
129.820937
 30
0.0
 11
218.288353
 21
129.820937
 31
0.0
  0
LINE
  5
207B
100
AcDbEntity
  8
BORDER
100
AcDbLine
 10
220.464466
 20
129.193125
 30
0.0
 11
220.111418
 21
129.718955
 31
0.0
  0
LINE
  5
207C
100
AcDbEntity
  8
BORDER
100
AcDbLine
 10
219.799116
 20
129.708186
 30
0.0
 11
219.878407
 21
129.708186
 31
0.0
  0
LINE
  5
207D
100
AcDbEntity
  8
BORDER
100
AcDbLine
 10
219.878407
 20
129.708186
 30
0.0
 11
219.957698
 21
129.708186
 31
0.0
  0
LINE
  5
207E
102
{ACAD_REACTORS
330
2059
102
}
100
AcDbEntity
  8
BORDER
100
AcDbLine
 10
219.639025
 20
128.948227
 30
0.0
 11
219.547626
 21
128.948227
 31
0.0
  0
LINE
  5
207F
100
AcDbEntity
  8
BORDER
100
AcDbLine
 10
219.799116
 20
129.193125
 30
0.0
 11
219.957698
 21
129.193125
 31
0.0
  0
LINE
  5
2080
100
AcDbEntity
  8
BORDER
100
AcDbLine
 10
219.878407
 20
129.708186
 30
0.0
 11
219.878407
 21
129.193125
 31
0.0
  0
LINE
  5
2081
100
AcDbEntity
  8
BORDER
100
AcDbLine
 10
220.111418
 20
129.718955
 30
0.0
 11
220.111418
 21
129.193125
 31
0.0
  0
LINE
  5
2082
102
{ACAD_REACTORS
330
2059
102
}
100
AcDbEntity
  8
BORDER
100
AcDbLine
 10
219.639025
 20
128.948227
 30
0.0
 11
219.639025
 21
130.044188
 31
0.0
  0
LINE
  5
2083
100
AcDbEntity
  8
BORDER
100
AcDbLine
 10
220.792994
 20
129.708186
 30
0.0
 11
220.683355
 21
129.708186
 31
0.0
  0
LINE
  5
2084
100
AcDbEntity
  8
BORDER
100
AcDbLine
 10
220.683355
 20
129.193125
 30
0.0
 11
220.792994
 21
129.193125
 31
0.0
  0
LINE
  5
2085
100
AcDbEntity
  8
BORDER
100
AcDbLine
 10
220.464466
 20
129.708186
 30
0.0
 11
220.464466
 21
129.193125
 31
0.0
  0
LINE
  5
2086
100
AcDbEntity
  8
BORDER
100
AcDbLine
 10
220.683355
 20
129.708186
 30
0.0
 11
220.683355
 21
129.193125
 31
0.0
  0
ARC
  5
2087
100
AcDbEntity
  8
BORDER
100
AcDbCircle
 10
229.028014
 20
130.090284
 30
0.0
 40
0.857895
100
AcDbArc
 50
90.0
 51
180.0
  0
LWPOLYLINE
  5
2088
100
AcDbEntity
  8
BORDER
 62
     5
100
AcDbPolyline
 90
        2
 70
     0
 43
0.428947
 10
229.028014
 20
131.806074
 42
0.414214
 10
227.312225
 20
130.090284
 42
-0.560527
  0
ARC
  5
2089
100
AcDbEntity
  8
BORDER
100
AcDbCircle
 10
224.73854
 20
130.090284
 30
0.0
 40
0.857895
100
AcDbArc
 50
0.0
 51
90.0
  0
LWPOLYLINE
  5
208A
100
AcDbEntity
  8
BORDER
 62
     5
100
AcDbPolyline
 90
        2
 70
     0
 43
0.428947
 10
224.73854
 20
131.806074
 42
-0.414214
 10
226.45433
 20
130.090284
 42
0.560527
  0
ARC
  5
208B
102
{ACAD_REACTORS
330
208D
102
}
100
AcDbEntity
  8
BORDER
100
AcDbCircle
 10
223.53767
 20
127.124913
 30
0.0
 40
0.180741
100
AcDbArc
 50
180.0
 51
270.0
  0
ARC
  5
208C
102
{ACAD_REACTORS
330
208D
102
}
100
AcDbEntity
  8
BORDER
100
AcDbCircle
 10
222.920475
 20
127.124913
 30
0.0
 40
0.180741
100
AcDbArc
 50
270.0
 51
360.0
  0
HATCH
  5
208D
100
AcDbEntity
  8
BORDER
100
AcDbHatch
 10
0.0
 20
0.0
 30
0.0
210
0.0
220
0.0
230
1.0
  2
ANSI37
 70
     0
 71
     1
 91
        2
 92
        7
 72
     1
 73
     1
 93
       16
 10
223.1012158183456
 20
127.1249129055374
 42
-0.4142135623729068
 10
222.9204749774443
 20
126.9441720646362
 42
0.0
 10
222.836833540933
 20
126.9441720646362
 42
0.0
 10
222.836833540933
 20
126.8965323718666
 42
0.0
 10
223.6213119120525
 20
126.8965323718666
 42
0.0
 10
223.6213119120525
 20
126.9441720646362
 42
0.0
 10
223.5376704755415
 20
126.9441720646362
 42
-0.4142135623735383
 10
223.3569296346399
 20
127.1249129055375
 42
0.0
 10
223.3569296346399
 20
127.7583758318669
 42
0.0609117558028048
 10
223.6733215214255
 20
127.7193980987421
 42
0.4291497434353368
 10
224.2324248221582
 20
128.2217792774562
 42
0.3916311771492586
 10
223.6850696480226
 20
128.7343106927119
 42
0.0
 10
222.8381925450009
 20
128.7343106927119
 42
0.0
 10
222.8381925450009
 20
128.6838650155625
 42
0.0
 10
222.9204749774444
 20
128.6838650155625
 42
-0.4142135623730042
 10
223.1012158183456
 20
128.5031241746611
 42
0.0
 97
       16
330
20B2
330
20B6
330
20B9
330
20BA
330
20B8
330
20BC
330
208C
330
209B
330
209A
330
209F
330
2099
330
209E
330
208B
330
20BB
330
20B5
330
20BD
 92
       22
 72
     1
 73
     1
 93
        3
 10
223.3569296346399
 20
128.5985650199601
 42
-0.5287425889418758
 10
223.9247011071586
 20
128.20012492099
 42
-0.5439228899273142
 10
223.3569296346399
 20
127.82766988111
 42
0.0
 97
        3
330
20B3
330
20B4
330
20B7
 75
     0
 76
     1
 52
0.0
 41
0.013292
 77
     0
 78
     2
 53
45.0
 43
213.067912
 44
78.895748
 45
-0.0011748402902676
 46
0.0011748402902676
 79
     0
 53
135.0
 43
213.067912
 44
78.895748
 45
-0.0011748402902676
 46
-0.0011748402902676
 79
     0
 47
0.027301
 98
        2
 10
223.207758
 20
128.113721
 10
223.207758
 20
128.113721
  0
LWPOLYLINE
  5
208E
102
{ACAD_REACTORS
330
208F
102
}
100
AcDbEntity
  8
BORDER
100
AcDbPolyline
 90
       17
 70
     0
 43
0.0
 10
222.130209
 20
127.72636
 42
-0.060912
 10
221.813817
 20
127.765338
 10
221.813817
 20
127.131875
 42
0.414214
 10
221.994558
 20
126.951134
 10
222.0782
 20
126.951134
 10
222.0782
 20
126.903495
 10
221.293721
 20
126.903495
 10
221.293721
 20
126.951134
 10
221.377363
 20
126.951134
 42
0.414214
 10
221.558104
 20
127.131875
 10
221.558104
 20
128.510086
 42
0.414214
 10
221.377363
 20
128.690827
 10
221.29508
 20
128.690827
 10
221.29508
 20
128.741273
 10
222.13532
 20
128.741273
 42
-0.395102
 10
222.689313
 20
128.228742
 42
-0.42915
 10
222.130209
 20
127.72636
  0
HATCH
  5
208F
100
AcDbEntity
  8
BORDER
100
AcDbHatch
 10
0.0
 20
0.0
 30
0.0
210
0.0
220
0.0
230
1.0
  2
ANSI37
 70
     0
 71
     1
 91
        2
 92
        7
 72
     1
 73
     1
 93
       16
 10
221.5581035894883
 20
127.1318751400993
 42
-0.4142135623730978
 10
221.377362748587
 20
126.951134299198
 42
0.0
 10
221.2937213120757
 20
126.951134299198
 42
0.0
 10
221.2937213120757
 20
126.9034946064281
 42
0.0
 10
222.0781996831953
 20
126.9034946064281
 42
0.0
 10
222.0781996831953
 20
126.951134299198
 42
0.0
 10
221.9945582466841
 20
126.951134299198
 42
-0.4142135623730983
 10
221.8138174057828
 20
127.1318751400993
 42
0.0
 10
221.8138174057828
 20
127.7653380664284
 42
0.0609117558023448
 10
222.1302092925661
 20
127.7263603333037
 42
0.4291497434371003
 10
222.6893125933008
 20
128.2287415120187
 42
0.391631177139306
 10
222.1419574191837
 20
128.7412729272734
 42
0.0
 10
221.2950803161436
 20
128.7412729272734
 42
0.0
 10
221.2950803161436
 20
128.6908272501243
 42
0.0
 10
221.377362748587
 20
128.6908272501243
 42
-0.4142135623730951
 10
221.5581035894883
 20
128.510086409223
 42
0.0
 97
        1
330
208E
 92
       22
 72
     1
 73
     1
 93
        3
 10
221.8138174057828
 20
128.6055272545215
 42
-0.5287425889467225
 10
222.3815888783013
 20
128.207087155545
 42
-0.5439228899217321
 10
221.8138174057828
 20
127.8346321156717
 42
0.0
 97
        1
330
20A6
 75
     0
 76
     1
 52
0.0
 41
0.013292
 77
     0
 78
     2
 53
45.0
 43
213.067912
 44
78.895748
 45
-0.0011748402902676
 46
0.0011748402902676
 79
     0
 53
135.0
 43
213.067912
 44
78.895748
 45
-0.0011748402902676
 46
-0.0011748402902676
 79
     0
 47
0.027301
 98
        2
 10
221.660735
 20
128.273388
 10
221.660735
 20
128.273388
  0
LINE
  5
2090
100
AcDbEntity
  8
BORDER
100
AcDbLine
 10
222.20034
 20
126.535956
 30
0.0
 11
222.798233
 21
126.535956
 31
0.0
  0
LINE
  5
2091
100
AcDbEntity
  8
BORDER
100
AcDbLine
 10
221.605288
 20
126.087635
 30
0.0
 11
221.954805
 21
126.087635
 31
0.0
  0
LINE
  5
2092
100
AcDbEntity
  8
BORDER
100
AcDbLine
 10
222.056842
 20
125.830355
 30
0.0
 11
221.777002
 21
126.535956
 31
0.0
  0
ARC
  5
2093
100
AcDbEntity
  8
BORDER
100
AcDbCircle
 10
221.083761
 20
126.355059
 30
0.0
 40
0.180898
100
AcDbArc
 50
270.0
 51
90.0
  0
LINE
  5
2094
100
AcDbEntity
  8
BORDER
100
AcDbLine
 10
221.777002
 20
126.535956
 30
0.0
 11
221.506746
 21
125.830355
 31
0.0
  0
LINE
  5
2095
100
AcDbEntity
  8
BORDER
100
AcDbLine
 10
221.032961
 20
126.174161
 30
0.0
 11
221.313085
 21
125.830355
 31
0.0
  0
LINE
  5
2096
100
AcDbEntity
  8
BORDER
100
AcDbLine
 10
222.499287
 20
126.535956
 30
0.0
 11
222.499287
 21
125.830355
 31
0.0
  0
LINE
  5
2097
100
AcDbEntity
  8
BORDER
100
AcDbLine
 10
223.872385
 20
126.535956
 30
0.0
 11
223.606081
 21
126.535956
 31
0.0
  0
LINE
  5
2098
100
AcDbEntity
  8
BORDER
100
AcDbLine
 10
223.606081
 20
125.830355
 30
0.0
 11
223.872385
 21
125.830355
 31
0.0
  0
LINE
  5
2099
102
{ACAD_REACTORS
330
208D
102
}
100
AcDbEntity
  8
BORDER
100
AcDbLine
 10
223.621312
 20
126.944172
 30
0.0
 11
223.621312
 21
126.896532
 31
0.0
  0
LINE
  5
209A
102
{ACAD_REACTORS
330
208D
102
}
100
AcDbEntity
  8
BORDER
100
AcDbLine
 10
222.836834
 20
126.944172
 30
0.0
 11
222.836834
 21
126.896532
 31
0.0
  0
LINE
  5
209B
102
{ACAD_REACTORS
330
208D
102
}
100
AcDbEntity
  8
BORDER
100
AcDbLine
 10
222.836834
 20
126.944172
 30
0.0
 11
222.920475
 21
126.944172
 31
0.0
  0
LINE
  5
209C
100
AcDbEntity
  8
BORDER
100
AcDbLine
 10
222.954205
 20
126.535956
 30
0.0
 11
223.409439
 21
126.535956
 31
0.0
  0
LINE
  5
209D
100
AcDbEntity
  8
BORDER
100
AcDbLine
 10
222.954205
 20
126.183156
 30
0.0
 11
223.25694
 21
126.183156
 31
0.0
  0
LINE
  5
209E
102
{ACAD_REACTORS
330
208D
102
}
100
AcDbEntity
  8
BORDER
100
AcDbLine
 10
223.53767
 20
126.944172
 30
0.0
 11
223.621312
 21
126.944172
 31
0.0
  0
LINE
  5
209F
102
{ACAD_REACTORS
330
208D
102
}
100
AcDbEntity
  8
BORDER
100
AcDbLine
 10
222.836834
 20
126.896532
 30
0.0
 11
223.621312
 21
126.896532
 31
0.0
  0
LINE
  5
20A0
100
AcDbEntity
  8
BORDER
100
AcDbLine
 10
223.409439
 20
125.830355
 30
0.0
 11
222.954205
 21
125.830355
 31
0.0
  0
LINE
  5
20A1
100
AcDbEntity
  8
BORDER
100
AcDbLine
 10
223.606081
 20
126.535956
 30
0.0
 11
223.606081
 21
125.830355
 31
0.0
  0
LINE
  5
20A2
100
AcDbEntity
  8
BORDER
100
AcDbLine
 10
222.954205
 20
125.830355
 30
0.0
 11
222.954205
 21
126.535956
 31
0.0
  0
ARC
  5
20A3
100
AcDbEntity
  8
BORDER
100
AcDbCircle
 10
223.872385
 20
126.183156
 30
0.0
 40
0.3528
100
AcDbArc
 50
270.0
 51
90.0
  0
LINE
  5
20A4
100
AcDbEntity
  8
BORDER
100
AcDbLine
 10
222.859352
 20
129.708186
 30
0.0
 11
222.672004
 21
129.708186
 31
0.0
  0
LINE
  5
20A5
100
AcDbEntity
  8
BORDER
100
AcDbLine
 10
222.672004
 20
129.448174
 30
0.0
 11
222.859352
 21
129.448174
 31
0.0
  0
LWPOLYLINE
  5
20A6
102
{ACAD_REACTORS
330
208F
102
}
100
AcDbEntity
  8
BORDER
100
AcDbPolyline
 90
        3
 70
     1
 43
0.0
 10
221.813817
 20
127.834632
 42
0.543923
 10
222.381589
 20
128.207087
 42
0.528743
 10
221.813817
 20
128.605527
  0
ARC
  5
20A7
100
AcDbEntity
  8
BORDER
100
AcDbCircle
 10
224.152286
 20
133.123475
 30
0.0
 40
4.305766
100
AcDbArc
 50
236.383068
 51
240.315223
  0
ARC
  5
20A8
100
AcDbEntity
  8
BORDER
100
AcDbCircle
 10
221.880592
 20
129.548996
 30
0.0
 40
0.159762
100
AcDbArc
 50
25.379638
 51
143.047804
  0
ARC
  5
20A9
100
AcDbEntity
  8
BORDER
100
AcDbCircle
 10
221.901326
 20
129.356457
 30
0.0
 40
0.163074
100
AcDbArc
 50
200.502447
 51
334.026213
  0
LINE
  5
20AA
100
AcDbEntity
  8
BORDER
100
AcDbLine
 10
221.580095
 20
129.708186
 30
0.0
 11
221.580095
 21
129.366119
 31
0.0
  0
LINE
  5
20AB
100
AcDbEntity
  8
BORDER
100
AcDbLine
 10
221.234109
 20
129.366119
 30
0.0
 11
221.234109
 21
129.708186
 31
0.0
  0
ARC
  5
20AC
100
AcDbEntity
  8
BORDER
100
AcDbCircle
 10
221.808719
 20
129.598383
 30
0.0
 40
0.072733
100
AcDbArc
 50
140.101426
 51
236.383068
  0
ARC
  5
20AD
100
AcDbEntity
  8
BORDER
100
AcDbCircle
 10
221.407102
 20
129.366119
 30
0.0
 40
0.172993
100
AcDbArc
 50
180.0
 51
0.0
  0
LINE
  5
20AE
100
AcDbEntity
  8
BORDER
100
AcDbLine
 10
222.672004
 20
129.708186
 30
0.0
 11
222.672004
 21
129.193125
 31
0.0
  0
LINE
  5
20AF
100
AcDbEntity
  8
BORDER
100
AcDbLine
 10
222.351073
 20
129.708186
 30
0.0
 11
222.351073
 21
129.193125
 31
0.0
  0
ARC
  5
20B0
100
AcDbEntity
  8
BORDER
100
AcDbCircle
 10
221.983931
 20
129.319596
 30
0.0
 40
0.072733
100
AcDbArc
 50
331.630608
 51
60.315223
  0
LINE
  5
20B1
100
AcDbEntity
  8
BORDER
100
AcDbLine
 10
222.13947
 20
129.708186
 30
0.0
 11
222.562676
 21
129.708186
 31
0.0
  0
ARC
  5
20B2
102
{ACAD_REACTORS
330
208D
102
}
100
AcDbEntity
  8
BORDER
100
AcDbCircle
 10
223.681751
 20
128.182228
 30
0.0
 40
0.552093
100
AcDbArc
 50
4.10812
 51
90.34444
  0
ARC
  5
20B3
102
{ACAD_REACTORS
330
208D
102
}
100
AcDbEntity
  8
BORDER
100
AcDbCircle
 10
223.505093
 20
128.205943
 30
0.0
 40
0.419648
100
AcDbArc
 50
359.205673
 51
110.674935
  0
ARC
  5
20B4
102
{ACAD_REACTORS
330
208D
102
}
100
AcDbEntity
  8
BORDER
100
AcDbCircle
 10
223.520273
 20
128.197653
 30
0.0
 40
0.404436
100
AcDbArc
 50
246.179097
 51
0.350223
  0
ARC
  5
20B5
102
{ACAD_REACTORS
330
208D
102
}
100
AcDbEntity
  8
BORDER
100
AcDbCircle
 10
223.674508
 20
129.032636
 30
0.0
 40
1.313238
100
AcDbArc
 50
256.005504
 51
269.948223
  0
LINE
  5
20B6
102
{ACAD_REACTORS
330
208D
102
}
100
AcDbEntity
  8
BORDER
100
AcDbLine
 10
222.838193
 20
128.734311
 30
0.0
 11
223.68507
 21
128.734311
 31
0.0
  0
LINE
  5
20B7
102
{ACAD_REACTORS
330
208D
102
}
100
AcDbEntity
  8
BORDER
100
AcDbLine
 10
223.35693
 20
128.598565
 30
0.0
 11
223.35693
 21
127.82767
 31
0.0
  0
ARC
  5
20B8
102
{ACAD_REACTORS
330
208D
102
}
100
AcDbEntity
  8
BORDER
100
AcDbCircle
 10
222.920475
 20
128.503124
 30
0.0
 40
0.180741
100
AcDbArc
 50
0.0
 51
90.0
  0
LINE
  5
20B9
102
{ACAD_REACTORS
330
208D
102
}
100
AcDbEntity
  8
BORDER
100
AcDbLine
 10
222.838193
 20
128.734311
 30
0.0
 11
222.838193
 21
128.683865
 31
0.0
  0
LINE
  5
20BA
102
{ACAD_REACTORS
330
208D
102
}
100
AcDbEntity
  8
BORDER
100
AcDbLine
 10
222.838193
 20
128.683865
 30
0.0
 11
222.920475
 21
128.683865
 31
0.0
  0
LINE
  5
20BB
102
{ACAD_REACTORS
330
208D
102
}
100
AcDbEntity
  8
BORDER
100
AcDbLine
 10
223.35693
 20
127.758376
 30
0.0
 11
223.35693
 21
127.124913
 31
0.0
  0
LINE
  5
20BC
102
{ACAD_REACTORS
330
208D
102
}
100
AcDbEntity
  8
BORDER
100
AcDbLine
 10
223.101216
 20
127.124913
 30
0.0
 11
223.101216
 21
128.503124
 31
0.0
  0
ARC
  5
20BD
102
{ACAD_REACTORS
330
208D
102
}
100
AcDbEntity
  8
BORDER
100
AcDbCircle
 10
223.714112
 20
128.236308
 30
0.0
 40
0.518517
100
AcDbArc
 50
265.488062
 51
358.394374
  0
LINE
  5
20BE
100
AcDbEntity
  8
BORDER
100
AcDbLine
 10
223.465744
 20
129.708186
 30
0.0
 11
223.775781
 21
129.708186
 31
0.0
  0
LINE
  5
20BF
100
AcDbEntity
  8
BORDER
100
AcDbLine
 10
223.465744
 20
129.450656
 30
0.0
 11
223.708179
 21
129.450656
 31
0.0
  0
LINE
  5
20C0
100
AcDbEntity
  8
BORDER
100
AcDbLine
 10
223.775781
 20
129.193125
 30
0.0
 11
223.465744
 21
129.193125
 31
0.0
  0
ARC
  5
20C1
100
AcDbEntity
  8
BORDER
100
AcDbCircle
 10
222.859352
 20
129.57818
 30
0.0
 40
0.130006
100
AcDbArc
 50
270.0
 51
90.0
  0
LINE
  5
20C2
100
AcDbEntity
  8
BORDER
100
AcDbLine
 10
223.14774
 20
129.708186
 30
0.0
 11
223.306322
 21
129.708186
 31
0.0
  0
LINE
  5
20C3
100
AcDbEntity
  8
BORDER
100
AcDbLine
 10
223.14774
 20
129.193125
 30
0.0
 11
223.306322
 21
129.193125
 31
0.0
  0
LINE
  5
20C4
100
AcDbEntity
  8
BORDER
100
AcDbLine
 10
223.227031
 20
129.708186
 30
0.0
 11
223.227031
 21
129.193125
 31
0.0
  0
LINE
  5
20C5
100
AcDbEntity
  8
BORDER
100
AcDbLine
 10
223.465744
 20
129.193125
 30
0.0
 11
223.465744
 21
129.708186
 31
0.0
  0
LINE
  5
20C6
100
AcDbEntity
  8
BORDER
100
AcDbLine
 10
222.823439
 20
129.448174
 30
0.0
 11
222.986793
 21
129.193125
 31
0.0
  0
ARC
  5
20C7
100
AcDbEntity
  8
BORDER
100
AcDbCircle
 10
224.126392
 20
129.319596
 30
0.0
 40
0.072733
100
AcDbArc
 50
331.630608
 51
60.315223
  0
ARC
  5
20C8
100
AcDbEntity
  8
BORDER
100
AcDbCircle
 10
223.95118
 20
129.598383
 30
0.0
 40
0.072733
100
AcDbArc
 50
140.101426
 51
236.383068
  0
ARC
  5
20C9
100
AcDbEntity
  8
BORDER
100
AcDbCircle
 10
226.294747
 20
133.123475
 30
0.0
 40
4.305766
100
AcDbArc
 50
236.383068
 51
240.315223
  0
ARC
  5
20CA
100
AcDbEntity
  8
BORDER
100
AcDbCircle
 10
224.023052
 20
129.548996
 30
0.0
 40
0.159762
100
AcDbArc
 50
25.379638
 51
143.047804
  0
ARC
  5
20CB
100
AcDbEntity
  8
BORDER
100
AcDbCircle
 10
224.043787
 20
129.356457
 30
0.0
 40
0.163074
100
AcDbArc
 50
200.502447
 51
334.026213
  0
LINE
  5
20CC
100
AcDbEntity
  8
BORDER
100
AcDbLine
 10
225.596435
 20
124.942914
 30
0.0
 11
225.596435
 21
130.090284
 31
0.0
  0
LWPOLYLINE
  5
20CD
100
AcDbEntity
  8
BORDER
 62
     5
100
AcDbPolyline
 90
        2
 70
     0
 43
0.428947
 10
226.45433
 20
124.942914
 10
226.45433
 20
130.090284
  0
LWPOLYLINE
  5
20CE
100
AcDbEntity
  8
BORDER
 62
     5
100
AcDbPolyline
 90
        2
 70
     0
 43
0.428947
 10
227.312225
 20
130.090284
 10
227.312225
 20
124.942914
  0
TEXT
  5
20CF
100
AcDbEntity
  8
BORDER
 62
     6
100
AcDbText
 10
230.819233
 20
129.722274
 30
0.0
 40
0.442654
  1
POLY INLET BAFFLE
  7
ROMANC
100
AcDbText
  0
LINE
  5
20D0
100
AcDbEntity
  8
BORDER
100
AcDbLine
 10
228.170119
 20
124.942914
 30
0.0
 11
228.170119
 21
126.900328
 31
0.0
  0
TEXT
  5
20D1
100
AcDbEntity
  8
BORDER
 62
     6
100
AcDbText
 10
228.294426
 20
128.395438
 30
0.0
 40
0.384917
  1
Reference:
  7
ROMANC
100
AcDbText
  0
LINE
  5
20D2
100
AcDbEntity
  8
BORDER
100
AcDbLine
 10
228.170119
 20
127.516599
 30
0.0
 11
228.170119
 21
130.090284
 31
0.0
  0
TEXT
  5
20D3
100
AcDbEntity
  8
BORDER
 62
     6
100
AcDbText
 10
234.372551
 20
128.122538
 30
0.0
 40
0.384917
  1
-
  7
ROMANC
100
AcDbText
  0
TEXT
  5
20D4
100
AcDbEntity
  8
BORDER
 62
     6
100
AcDbText
 10
245.583829
 20
125.287596
 30
0.0
 40
0.49329
  1
07/08/03
  7
ROMAND
100
AcDbText
  0
LINE
  5
20D5
100
AcDbEntity
  8
BORDER
100
AcDbLine
 10
241.246517
 20
130.948179
 30
0.0
 11
260.361828
 21
130.948179
 31
0.0
  0
LINE
  5
20D6
100
AcDbEntity
  8
BORDER
100
AcDbLine
 10
241.246517
 20
126.900328
 30
0.0
 11
250.924984
 21
126.900328
 31
0.0
  0
LINE
  5
20D7
100
AcDbEntity
  8
BORDER
100
AcDbLine
 10
241.246517
 20
124.942914
 30
0.0
 11
250.924984
 21
124.942914
 31
0.0
  0
TEXT
  5
20D8
100
AcDbEntity
  8
BORDER
 62
     6
100
AcDbText
 10
247.720535
 20
127.751941
 30
0.0
 40
0.321995
  1
in this print by any other source than TOPP INDUSTRIES, INC.
 41
0.839168
  7
ROMANS
 72
     5
 11
260.986432
 21
127.751941
 31
0.0
100
AcDbText
  0
TEXT
  5
20D9
100
AcDbEntity
  8
BORDER
 62
     6
100
AcDbText
 10
247.720535
 20
128.273265
 30
0.0
 40
0.321995
  1
and will not be used to manufacture or procure the manufacture of the items shown
 41
0.600404
  7
ROMANS
 72
     5
 11
260.986432
 21
128.273265
 31
0.0
100
AcDbText
  0
TEXT
  5
20DA
100
AcDbEntity
  8
BORDER
 62
     6
100
AcDbText
 10
247.720535
 20
128.79459
 30
0.0
 40
0.321995
  1
be used as a record or to identify or inspect parts or for other information purposes
 41
0.596266
  7
ROMANS
 72
     5
 11
260.986432
 21
128.79459
 31
0.0
100
AcDbText
  0
TEXT
  5
20DB
100
AcDbEntity
  8
BORDER
 62
     6
100
AcDbText
 10
247.720535
 20
129.315914
 30
0.0
 40
0.321995
  1
restriction includes, but is not limited to the condition that this print will not only
 41
0.626489
  7
ROMANS
 72
     5
 11
260.986432
 21
129.315914
 31
0.0
100
AcDbText
  0
TEXT
  5
20DC
100
AcDbEntity
  8
BORDER
 62
     6
100
AcDbText
 10
247.720535
 20
129.837239
 30
0.0
 40
0.321995
  1
by TOPP INDUSTRIES, INC. It is furnished on a strictly confidential basis.  This
 41
0.659437
  7
ROMANS
 72
     5
 11
260.986432
 21
129.837239
 31
0.0
100
AcDbText
  0
TEXT
  5
20DD
100
AcDbEntity
  8
BORDER
 62
     6
100
AcDbText
 10
247.720535
 20
130.358563
 30
0.0
 40
0.321995
  1
This print is and contains confidential proprietary information owned exclusively
 41
0.656934
  7
ROMANS
 72
     5
 11
260.986432
 21
130.358563
 31
0.0
100
AcDbText
  0
LINE
  5
20DE
100
AcDbEntity
  8
BORDER
100
AcDbLine
 10
241.246517
 20
127.516599
 30
0.0
 11
261.219723
 21
127.516599
 31
0.0
  0
TEXT
  5
20DF
100
AcDbEntity
  8
BORDER
 62
     6
100
AcDbText
 10
241.422354
 20
127.628936
 30
0.0
 40
0.384917
  1
Date: 07/08/03
  7
ROMANC
100
AcDbText
  0
TEXT
  5
20E0
100
AcDbEntity
  8
BORDER
 62
     6
100
AcDbText
 10
241.444296
 20
126.230553
 30
0.0
 40
0.384917
  1
Supersedes Prints
  7
ROMANC
100
AcDbText
  0
TEXT
  5
20E1
100
AcDbEntity
  8
BORDER
 62
     6
100
AcDbText
 10
241.444296
 20
125.607354
 30
0.0
 40
0.384917
  1
Prior To:
  7
ROMANC
100
AcDbText
  0
TEXT
  5
20E2
100
AcDbEntity
  8
BORDER
 62
     6
100
AcDbText
 10
241.422354
 20
130.380323
 30
0.0
 40
0.384917
  1
Scale: None
  7
ROMANC
100
AcDbText
  0
TEXT
  5
20E3
100
AcDbEntity
  8
BORDER
 62
     6
100
AcDbText
 10
241.422354
 20
128.546065
 30
0.0
 40
0.384917
  1
Appv'd By: .
  7
ROMANC
100
AcDbText
  0
TEXT
  5
20E4
100
AcDbEntity
  8
BORDER
 62
     6
100
AcDbText
 10
241.422354
 20
129.463194
 30
0.0
 40
0.384917
  1
Drawn By:
  7
ROMANC
100
AcDbText
  0
LINE
  5
20E5
100
AcDbEntity
  8
BORDER
100
AcDbLine
 10
241.246517
 20
127.516599
 30
0.0
 11
241.246517
 21
130.948179
 31
0.0
  0
LINE
  5
20E6
100
AcDbEntity
  8
BORDER
100
AcDbLine
 10
241.246517
 20
124.942914
 30
0.0
 11
241.246517
 21
126.900328
 31
0.0
  0
TEXT
  5
20E7
100
AcDbEntity
  8
BORDER
 62
     6
100
AcDbText
 10
244.954828
 20
129.4222
 30
0.0
 40
0.524992
  1
RM
  7
COUNTRYBLUEPRINT
100
AcDbText
  0
TEXT
  5
20E8
100
AcDbEntity
  8
BORDER
 62
     6
100
AcDbText
 10
255.036057
 20
125.380498
 30
0.0
 40
1.154751
  1
10157
  7
ROMANC
100
AcDbText
  0
LINE
  5
20E9
100
AcDbEntity
  8
BORDER
100
AcDbLine
 10
251.541256
 20
124.942914
 30
0.0
 11
261.219723
 21
124.942914
 31
0.0
  0
LINE
  5
20EA
100
AcDbEntity
  8
BORDER
100
AcDbLine
 10
251.541256
 20
126.900328
 30
0.0
 11
261.219723
 21
126.900328
 31
0.0
  0
TEXT
  5
20EB
100
AcDbEntity
  8
BORDER
 62
     6
100
AcDbText
 10
251.743829
 20
126.273207
 30
0.0
 40
0.384917
  1
Reference
  7
ROMANC
100
AcDbText
  0
TEXT
  5
20EC
100
AcDbEntity
  8
BORDER
 62
     6
100
AcDbText
 10
251.743829
 20
125.650008
 30
0.0
 40
0.384917
  1
No:
  7
ROMANC
100
AcDbText
  0
LINE
  5
20ED
100
AcDbEntity
  8
BORDER
100
AcDbLine
 10
250.924984
 20
126.900328
 30
0.0
 11
250.924984
 21
124.942914
 31
0.0
  0
LINE
  5
20EE
100
AcDbEntity
  8
BORDER
100
AcDbLine
 10
251.541256
 20
126.900328
 30
0.0
 11
251.541256
 21
124.942914
 31
0.0
  0
LWPOLYLINE
  5
20EF
100
AcDbEntity
  8
BORDER
 62
     5
100
AcDbPolyline
 90
        2
 70
     0
 43
0.428947
 10
260.361828
 20
131.806074
 42
-0.414214
 10
262.077618
 20
130.090284
 42
0.560527
  0
ARC
  5
20F0
100
AcDbEntity
  8
BORDER
100
AcDbCircle
 10
260.361828
 20
130.090284
 30
0.0
 40
0.857895
100
AcDbArc
 50
0.0
 51
90.0
  0
LWPOLYLINE
  5
20F1
100
AcDbEntity
  8
BORDER
 62
     5
100
AcDbPolyline
 90
        2
 70
     0
 43
0.428947
 10
262.077618
 20
124.942914
 10
262.077618
 20
130.090284
  0
LWPOLYLINE
  5
20F2
100
AcDbEntity
  8
BORDER
 62
     5
100
AcDbPolyline
 90
        2
 70
     0
 43
0.428947
 10
262.935513
 20
124.942914
 10
262.935513
 20
130.090284
  0
LINE
  5
20F3
100
AcDbEntity
  8
BORDER
100
AcDbLine
 10
261.219723
 20
126.900328
 30
0.0
 11
261.219723
 21
124.942914
 31
0.0
  0
LINE
  5
20F4
100
AcDbEntity
  8
BORDER
100
AcDbLine
 10
261.219723
 20
130.090284
 30
0.0
 11
261.219723
 21
127.516599
 31
0.0
  0
LWPOLYLINE
  5
20F5
100
AcDbEntity
  8
BORDER
 62
     5
100
AcDbPolyline
 90
        2
 70
     0
 43
0.428947
 10
274.088146
 20
124.08502
 42
0.414214
 10
275.803936
 20
125.800809
 42
-0.560527
  0
LINE
  5
20F6
100
AcDbEntity
  8
BORDER
100
AcDbLine
 10
274.088146
 20
124.942914
 30
0.0
 11
263.793408
 21
124.942914
 31
0.0
  0
TEXT
  5
20F7
100
AcDbEntity
  8
BORDER
 62
     6
100
AcDbText
 10
265.582916
 20
128.774476
 30
0.0
 40
0.428947
  1
First Released 06/27/03
  7
ROMAND
100
AcDbText
  0
LINE
  5
20F8
100
AcDbEntity
  8
BORDER
100
AcDbLine
 10
274.088146
 20
125.985586
 30
0.0
 11
264.651302
 21
125.985586
 31
0.0
  0
LINE
  5
20F9
100
AcDbEntity
  8
BORDER
100
AcDbLine
 10
274.088146
 20
126.843481
 30
0.0
 11
264.651302
 21
126.843481
 31
0.0
  0
LINE
  5
20FA
100
AcDbEntity
  8
BORDER
100
AcDbLine
 10
274.088146
 20
127.701376
 30
0.0
 11
264.651302
 21
127.701376
 31
0.0
  0
LINE
  5
20FB
100
AcDbEntity
  8
BORDER
100
AcDbLine
 10
274.088146
 20
128.559271
 30
0.0
 11
264.651302
 21
128.559271
 31
0.0
  0
LINE
  5
20FC
100
AcDbEntity
  8
BORDER
100
AcDbLine
 10
274.088146
 20
129.417166
 30
0.0
 11
264.651302
 21
129.417166
 31
0.0
  0
LINE
  5
20FD
100
AcDbEntity
  8
BORDER
100
AcDbLine
 10
274.088146
 20
130.948179
 30
0.0
 11
264.651302
 21
130.948179
 31
0.0
  0
LWPOLYLINE
  5
20FE
100
AcDbEntity
  8
BORDER
 62
     5
100
AcDbPolyline
 90
        2
 70
     0
 43
0.428947
 10
274.088146
 20
131.806074
 10
264.651302
 20
131.806074
  0
TEXT
  5
20FF
100
AcDbEntity
  8
BORDER
 62
     6
100
AcDbText
 10
267.081651
 20
129.801385
 30
0.0
 40
0.577375
  1
Revisions
  7
ROMANC
100
AcDbText
  0
ARC
  5
2100
100
AcDbEntity
  8
BORDER
100
AcDbCircle
 10
264.651302
 20
130.090284
 30
0.0
 40
0.857895
100
AcDbArc
 50
90.0
 51
180.0
  0
LINE
  5
2101
100
AcDbEntity
  8
BORDER
100
AcDbLine
 10
264.651302
 20
129.417166
 30
0.0
 11
264.651302
 21
125.985586
 31
0.0
  0
LINE
  5
2102
100
AcDbEntity
  8
BORDER
100
AcDbLine
 10
265.509197
 20
129.417166
 30
0.0
 11
265.509197
 21
125.985586
 31
0.0
  0
LINE
  5
2103
100
AcDbEntity
  8
BORDER
100
AcDbLine
 10
263.793408
 20
124.942914
 30
0.0
 11
263.793408
 21
130.090284
 31
0.0
  0
LWPOLYLINE
  5
2104
100
AcDbEntity
  8
BORDER
100
AcDbPolyline
 90
        6
 70
     1
 43
0.0
 10
265.262894
 20
128.670111
 10
265.445669
 20
128.986686
 10
265.262894
 20
129.303262
 10
264.897344
 20
129.303262
 10
264.714569
 20
128.986686
 10
264.897344
 20
128.670111
  0
TEXT
  5
2105
100
AcDbEntity
  8
BORDER
 62
     6
100
AcDbText
 10
264.876402
 20
128.774476
 30
0.0
 40
0.428947
  1
1
  7
ROMAND
100
AcDbText
  0
ARC
  5
2106
100
AcDbEntity
  8
BORDER
100
AcDbCircle
 10
274.088146
 20
130.090284
 30
0.0
 40
0.857895
100
AcDbArc
 50
0.0
 51
90.0
  0
LWPOLYLINE
  5
2107
100
AcDbEntity
  8
BORDER
 62
     5
100
AcDbPolyline
 90
        2
 70
     0
 43
0.428947
 10
274.088146
 20
131.806074
 42
-0.414214
 10
275.803936
 20
130.090284
 42
0.560527
  0
LINE
  5
2108
100
AcDbEntity
  8
BORDER
100
AcDbLine
 10
274.088146
 20
129.417166
 30
0.0
 11
274.088146
 21
125.985586
 31
0.0
  0
LINE
  5
2109
100
AcDbEntity
  8
BORDER
100
AcDbLine
 10
274.946041
 20
125.800809
 30
0.0
 11
274.946041
 21
130.090284
 31
0.0
  0
LWPOLYLINE
  5
210A
100
AcDbEntity
  8
BORDER
 62
     5
100
AcDbPolyline
 90
        2
 70
     0
 43
0.428947
 10
275.803936
 20
130.090284
 10
275.803936
 20
125.800809
  0
ARC
  5
210B
100
AcDbEntity
  8
BORDER
100
AcDbCircle
 10
274.088146
 20
125.800809
 30
0.0
 40
0.857895
100
AcDbArc
 50
270.0
 51
0.0
  0
LWPOLYLINE
  5
210C
100
AcDbEntity
  8
BORDER
 62
     5
100
AcDbPolyline
 90
        2
 70
     0
 43
0.171579
 10
275.11762
 20
205.066742
 10
214.272222
 20
205.066742
  0
LINE
  5
210D
100
AcDbEntity
  8
BORDER
 62
     5
100
AcDbLine
 10
275.11762
 20
205.066742
 30
0.0
 11
214.272222
 21
205.066742
 31
0.0
  0
LINE
  5
210E
100
AcDbEntity
  8
LIMITS
 62
     7
100
AcDbLine
 10
277.176568
 20
206.439374
 30
0.0
 11
212.213275
 21
206.439374
 31
0.0
  0
ENDSEC
  0
SECTION
  2
OBJECTS
  0
DICTIONARY
  5
C
100
AcDbDictionary
  3
ACAD_GROUP
350
D
  3
ACAD_MLINESTYLE
350
1A
  3
ACDBVARIABLEDICTIONARY
350
50
  0
DICTIONARY
  5
D
102
{ACAD_REACTORS
330
C
102
}
100
AcDbDictionary
  0
DICTIONARY
  5
1A
102
{ACAD_REACTORS
330
C
102
}
100
AcDbDictionary
  3
STANDARD
350
1B
  0
DICTIONARY
  5
50
102
{ACAD_REACTORS
330
C
102
}
100
AcDbDictionary
  3
DIMADEC
350
51
  0
MLINESTYLE
  5
1B
102
{ACAD_REACTORS
330
1A
102
}
100
AcDbMlineStyle
  2
STANDARD
 70
     0
  3

 62
   256
 51
90.0
 52
90.0
 71
     2
 49
0.5
 62
   256
  6
BYLAYER
 49
-0.5
 62
   256
  6
BYLAYER
  0
DICTIONARYVAR
  5
51
102
{ACAD_REACTORS
330
50
102
}
100
DictionaryVariables
280
     0
  1
0
  0
ENDSEC
  0
EOF
