  0
SECTION
  2
HEADER
  9
$ACADVER
  1
AC1014
  9
$ACADMAINTVER
 70
     0
  9
$DWGCODEPAGE
  3
ANSI_1252
  9
$INSBASE
 10
0.0
 20
0.0
 30
0.0
  9
$EXTMIN
 10
-13.035498
 20
15.494026
 30
0.0
  9
$EXTMAX
 10
114.464502
 20
180.494026
 30
50.0
  9
$LIMMIN
 10
-13.035498
 20
15.494026
  9
$LIMMAX
 10
114.464502
 20
180.494026
  9
$ORTHOMODE
 70
     0
  9
$REGENMODE
 70
     1
  9
$FILLMODE
 70
     1
  9
$QTEXTMODE
 70
     0
  9
$MIRRTEXT
 70
     1
  9
$DRAGMODE
 70
     2
  9
$LTSCALE
 40
3.0
  9
$OSMODE
 70
   675
  9
$ATTMODE
 70
     1
  9
$TEXTSIZE
 40
1.22
  9
$TRACEWID
 40
0.05
  9
$TEXTSTYLE
  7
ROMAND
  9
$CLAYER
  8
DIM
  9
$CELTYPE
  6
BYLAYER
  9
$CECOLOR
 62
   256
  9
$CELTSCALE
 40
1.0
  9
$DELOBJ
 70
     1
  9
$DISPSILH
 70
     0
  9
$DIMSCALE
 40
1.0
  9
$DIMASZ
 40
1.2
  9
$DIMEXO
 40
0.3
  9
$DIMDLI
 40
0.38
  9
$DIMRND
 40
0.0
  9
$DIMDLE
 40
0.0
  9
$DIMEXE
 40
1.22
  9
$DIMTP
 40
0.0
  9
$DIMTM
 40
0.0
  9
$DIMTXT
 40
0.18
  9
$DIMCEN
 40
0.09
  9
$DIMTSZ
 40
0.0
  9
$DIMTOL
 70
     0
  9
$DIMLIM
 70
     0
  9
$DIMTIH
 70
     1
  9
$DIMTOH
 70
     1
  9
$DIMSE1
 70
     0
  9
$DIMSE2
 70
     0
  9
$DIMTAD
 70
     0
  9
$DIMZIN
 70
     0
  9
$DIMBLK
  1

  9
$DIMASO
 70
     1
  9
$DIMSHO
 70
     1
  9
$DIMPOST
  1

  9
$DIMAPOST
  1

  9
$DIMALT
 70
     0
  9
$DIMALTD
 70
     2
  9
$DIMALTF
 40
25.4
  9
$DIMLFAC
 40
1.0
  9
$DIMTOFL
 70
     0
  9
$DIMTVP
 40
0.0
  9
$DIMTIX
 70
     0
  9
$DIMSOXD
 70
     0
  9
$DIMSAH
 70
     0
  9
$DIMBLK1
  1

  9
$DIMBLK2
  1

  9
$DIMSTYLE
  2
STANDARD
  9
$DIMCLRD
 70
     0
  9
$DIMCLRE
 70
     0
  9
$DIMCLRT
 70
     0
  9
$DIMTFAC
 40
1.0
  9
$DIMGAP
 40
1.2
  9
$DIMJUST
 70
     0
  9
$DIMSD1
 70
     0
  9
$DIMSD2
 70
     0
  9
$DIMTOLJ
 70
     1
  9
$DIMTZIN
 70
     0
  9
$DIMALTZ
 70
     0
  9
$DIMALTTZ
 70
     0
  9
$DIMFIT
 70
     5
  9
$DIMUPT
 70
     0
  9
$DIMUNIT
 70
     2
  9
$DIMDEC
 70
     4
  9
$DIMTDEC
 70
     4
  9
$DIMALTU
 70
     2
  9
$DIMALTTD
 70
     2
  9
$DIMTXSTY
  7
ROMAND
  9
$DIMAUNIT
 70
     0
  9
$LUNITS
 70
     2
  9
$LUPREC
 70
     4
  9
$SKETCHINC
 40
0.1
  9
$FILLETRAD
 40
0.0
  9
$AUNITS
 70
     0
  9
$AUPREC
 70
     0
  9
$MENU
  1
acad
  9
$ELEVATION
 40
0.0
  9
$PELEVATION
 40
0.0
  9
$THICKNESS
 40
0.0
  9
$LIMCHECK
 70
     0
  9
$BLIPMODE
 70
     0
  9
$CHAMFERA
 40
0.0
  9
$CHAMFERB
 40
0.0
  9
$CHAMFERC
 40
0.0
  9
$CHAMFERD
 40
0.0
  9
$SKPOLY
 70
     0
  9
$TDCREATE
 40
2450078.649954745
  9
$TDUPDATE
 40
2452821.629517314
  9
$TDINDWG
 40
0.3027994907
  9
$TDUSRTIMER
 40
0.3027994907
  9
$USRTIMER
 70
     1
  9
$ANGBASE
 50
0.0
  9
$ANGDIR
 70
     0
  9
$PDMODE
 70
     0
  9
$PDSIZE
 40
0.0
  9
$PLINEWID
 40
0.0
  9
$COORDS
 70
     1
  9
$SPLFRAME
 70
     0
  9
$SPLINETYPE
 70
     6
  9
$SPLINESEGS
 70
     8
  9
$ATTDIA
 70
     0
  9
$ATTREQ
 70
     1
  9
$HANDLING
 70
     1
  9
$HANDSEED
  5
9986
  9
$SURFTAB1
 70
     6
  9
$SURFTAB2
 70
     6
  9
$SURFTYPE
 70
     6
  9
$SURFU
 70
     6
  9
$SURFV
 70
     6
  9
$UCSNAME
  2

  9
$UCSORG
 10
0.0
 20
0.0
 30
0.0
  9
$UCSXDIR
 10
1.0
 20
0.0
 30
0.0
  9
$UCSYDIR
 10
0.0
 20
1.0
 30
0.0
  9
$PUCSNAME
  2

  9
$PUCSORG
 10
0.0
 20
0.0
 30
0.0
  9
$PUCSXDIR
 10
1.0
 20
0.0
 30
0.0
  9
$PUCSYDIR
 10
0.0
 20
1.0
 30
0.0
  9
$USERI1
 70
     0
  9
$USERI2
 70
     0
  9
$USERI3
 70
     0
  9
$USERI4
 70
     0
  9
$USERI5
 70
     0
  9
$USERR1
 40
0.0
  9
$USERR2
 40
0.0
  9
$USERR3
 40
0.0
  9
$USERR4
 40
0.0
  9
$USERR5
 40
0.0
  9
$WORLDVIEW
 70
     1
  9
$SHADEDGE
 70
     3
  9
$SHADEDIF
 70
    70
  9
$TILEMODE
 70
     1
  9
$MAXACTVP
 70
    16
  9
$PINSBASE
 10
0.0
 20
0.0
 30
0.0
  9
$PLIMCHECK
 70
     0
  9
$PEXTMIN
 10
1.000000E+20
 20
1.000000E+20
 30
1.000000E+20
  9
$PEXTMAX
 10
-1.000000E+20
 20
-1.000000E+20
 30
-1.000000E+20
  9
$PLIMMIN
 10
0.0
 20
0.0
  9
$PLIMMAX
 10
12.0
 20
9.0
  9
$UNITMODE
 70
     0
  9
$VISRETAIN
 70
     0
  9
$PLINEGEN
 70
     0
  9
$PSLTSCALE
 70
     1
  9
$TREEDEPTH
 70
  3020
  9
$PICKSTYLE
 70
     1
  9
$CMLSTYLE
  2
STANDARD
  9
$CMLJUST
 70
     0
  9
$CMLSCALE
 40
1.0
  9
$PROXYGRAPHICS
 70
     1
  9
$MEASUREMENT
 70
     0
  0
ENDSEC
  0
SECTION
  2
CLASSES
  0
CLASS
  1
DICTIONARYVAR
  2
AcDbDictionaryVar
  3
"AutoCAD"
 90
        0
280
     0
281
     0
  0
CLASS
  1
LWPOLYLINE
  2
AcDbPolyline
  3
"AutoCAD"
 90
        0
280
     0
281
     1
  0
CLASS
  1
HATCH
  2
AcDbHatch
  3
"ACAD_SEDONA"
 90
        0
280
     0
281
     1
  0
ENDSEC
  0
SECTION
  2
TABLES
  0
TABLE
  2
VPORT
  5
8
100
AcDbSymbolTable
 70
     1
  0
VPORT
  5
997B
100
AcDbSymbolTableRecord
100
AcDbViewportTableRecord
  2
*ACTIVE
 70
     0
 10
0.0
 20
0.0
 11
1.0
 21
1.0
 12
50.711383
 22
99.96864
 13
0.0
 23
0.0
 14
1.0
 24
1.0
 15
0.0
 25
0.0
 16
0.0
 26
0.0
 36
1.0
 17
0.0
 27
0.0
 37
0.0
 40
170.748102
 41
1.71048
 42
50.0
 43
0.0
 44
0.0
 50
0.0
 51
0.0
 71
     0
 72
   100
 73
     1
 74
     0
 75
     0
 76
     0
 77
     0
 78
     2
  0
ENDTAB
  0
TABLE
  2
LTYPE
  5
5
100
AcDbSymbolTable
 70
     2
  0
LTYPE
  5
11
100
AcDbSymbolTableRecord
100
AcDbLinetypeTableRecord
  2
BYBLOCK
 70
     0
  3

 72
    65
 73
     0
 40
0.0
  0
LTYPE
  5
12
100
AcDbSymbolTableRecord
100
AcDbLinetypeTableRecord
  2
BYLAYER
 70
     0
  3

 72
    65
 73
     0
 40
0.0
  0
LTYPE
  5
13
100
AcDbSymbolTableRecord
100
AcDbLinetypeTableRecord
  2
CONTINUOUS
 70
     0
  3
Solid line
 72
    65
 73
     0
 40
0.0
  0
LTYPE
  5
2E
100
AcDbSymbolTableRecord
100
AcDbLinetypeTableRecord
  2
CENTER
 70
     0
  3
____ _ ____ _ ____ _ ____ _ ____ _ ____ _ ____ 
 72
    65
 73
     4
 40
2.0
 49
1.25
 74
     0
 49
-0.25
 74
     0
 49
0.25
 74
     0
 49
-0.25
 74
     0
  0
ENDTAB
  0
TABLE
  2
LAYER
  5
2
100
AcDbSymbolTable
 70
    11
  0
LAYER
  5
E
100
AcDbSymbolTableRecord
100
AcDbLayerTableRecord
  2
0
 70
     0
 62
     7
  6
CONTINUOUS
  0
LAYER
  5
31
100
AcDbSymbolTableRecord
100
AcDbLayerTableRecord
  2
OBJECT
 70
     0
 62
     2
  6
CONTINUOUS
  0
LAYER
  5
32
100
AcDbSymbolTableRecord
100
AcDbLayerTableRecord
  2
CENTER
 70
     0
 62
     3
  6
CENTER
  0
LAYER
  5
33
100
AcDbSymbolTableRecord
100
AcDbLayerTableRecord
  2
DIM
 70
     0
 62
     6
  6
CONTINUOUS
  0
LAYER
  5
34
100
AcDbSymbolTableRecord
100
AcDbLayerTableRecord
  2
BORDER
 70
     0
 62
     5
  6
CONTINUOUS
  0
LAYER
  5
35
100
AcDbSymbolTableRecord
100
AcDbLayerTableRecord
  2
LIMITS
 70
     0
 62
     7
  6
CONTINUOUS
  0
LAYER
  5
36
100
AcDbSymbolTableRecord
100
AcDbLayerTableRecord
  2
ELEV
 70
     0
 62
     3
  6
CONTINUOUS
  0
LAYER
  5
37
100
AcDbSymbolTableRecord
100
AcDbLayerTableRecord
  2
HATCH
 70
     0
 62
     4
  6
CONTINUOUS
  0
LAYER
  5
38
100
AcDbSymbolTableRecord
100
AcDbLayerTableRecord
  2
DEFPOINTS
 70
     0
 62
     7
  6
CONTINUOUS
  0
LAYER
  5
39
100
AcDbSymbolTableRecord
100
AcDbLayerTableRecord
  2
15
 70
     0
 62
     4
  6
CONTINUOUS
  0
LAYER
  5
15E3
100
AcDbSymbolTableRecord
100
AcDbLayerTableRecord
  2
PUMP
 70
     0
 62
     4
  6
CONTINUOUS
  0
ENDTAB
  0
TABLE
  2
STYLE
  5
3
100
AcDbSymbolTable
 70
     8
  0
STYLE
  5
F
100
AcDbSymbolTableRecord
100
AcDbTextStyleTableRecord
  2
STANDARD
 70
     0
 40
0.0
 41
1.0
 50
0.0
 71
     0
 42
0.2
  3
txt
  4

  0
STYLE
  5
27
100
AcDbSymbolTableRecord
100
AcDbTextStyleTableRecord
  2
ROMANS
 70
     0
 40
1.5
 41
1.0
 50
0.0
 71
     0
 42
1.5
  3
romans
  4

  0
STYLE
  5
28
100
AcDbSymbolTableRecord
100
AcDbTextStyleTableRecord
  2
ROMAND
 70
     0
 40
1.22
 41
1.0
 50
0.0
 71
     0
 42
1.22
  3
romand
  4

  0
STYLE
  5
2A
100
AcDbSymbolTableRecord
100
AcDbTextStyleTableRecord
  2
ROMANT
 70
     0
 40
0.179898
 41
1.0
 50
0.0
 71
     0
 42
0.179898
  3
romant
  4

  0
STYLE
  5
2B
100
AcDbSymbolTableRecord
100
AcDbTextStyleTableRecord
  2
ITALICT
 70
     0
 40
0.146873
 41
1.0
 50
0.0
 71
     0
 42
0.146873
  3
italict
  4

  0
STYLE
  5
2C
100
AcDbSymbolTableRecord
100
AcDbTextStyleTableRecord
  2
COUNTRYBLUEPRINT
 70
     0
 40
0.061059
 41
1.0
 50
0.0
 71
     0
 42
0.061059
  3
cobt____.pfb
  4

  0
STYLE
  5
2D
100
AcDbSymbolTableRecord
100
AcDbTextStyleTableRecord
  2
ROMANC
 70
     0
 40
0.050364
 41
1.0
 50
0.0
 71
     0
 42
0.050364
  3
romanc
  4

  0
STYLE
  5
1378
100
AcDbSymbolTableRecord
100
AcDbTextStyleTableRecord
  2
SCRIPTC
 70
     0
 40
2.0
 41
1.0
 50
0.0
 71
     0
 42
2.0
  3
scriptc
  4

  0
ENDTAB
  0
TABLE
  2
VIEW
  5
6
100
AcDbSymbolTable
 70
     0
  0
ENDTAB
  0
TABLE
  2
UCS
  5
7
100
AcDbSymbolTable
 70
     0
  0
ENDTAB
  0
TABLE
  2
APPID
  5
9
100
AcDbSymbolTable
 70
     3
  0
APPID
  5
10
100
AcDbSymbolTableRecord
100
AcDbRegAppTableRecord
  2
ACAD
 70
     0
  0
APPID
  5
14BD
100
AcDbSymbolTableRecord
100
AcDbRegAppTableRecord
  2
DRAWINGVARIABLESXDATA
 70
     0
  0
APPID
  5
15E5
100
AcDbSymbolTableRecord
100
AcDbRegAppTableRecord
  2
CONTENTBLOCKICON
 70
     0
  0
ENDTAB
  0
TABLE
  2
DIMSTYLE
  5
A
100
AcDbSymbolTable
 70
     1
  0
DIMSTYLE
105
12E4
100
AcDbSymbolTableRecord
100
AcDbDimStyleTableRecord
  2
STANDARD
 70
     0
  3

  4

  5

  6

  7

 40
1.0
 41
0.18
 42
0.0625
 43
0.38
 44
0.18
 45
0.0
 46
0.0
 47
0.0
 48
0.0
140
0.18
141
0.09
142
0.0
143
25.4
144
1.0
145
0.0
146
1.0
147
0.09
 71
     0
 72
     0
 73
     1
 74
     1
 75
     0
 76
     0
 77
     0
 78
     0
170
     0
171
     2
172
     0
173
     0
174
     0
175
     0
176
     0
177
     0
178
     0
270
     2
271
     4
272
     4
273
     2
274
     2
340
F
275
     0
280
     0
281
     0
282
     0
283
     1
284
     0
285
     0
286
     0
287
     3
288
     0
  0
ENDTAB
  0
TABLE
  2
BLOCK_RECORD
  5
1
100
AcDbSymbolTable
 70
     9
  0
BLOCK_RECORD
  5
17
100
AcDbSymbolTableRecord
100
AcDbBlockTableRecord
  2
*MODEL_SPACE
  0
BLOCK_RECORD
  5
14
100
AcDbSymbolTableRecord
100
AcDbBlockTableRecord
  2
*PAPER_SPACE
  0
BLOCK_RECORD
  5
1C
100
AcDbSymbolTableRecord
100
AcDbBlockTableRecord
  2
*X0
  0
BLOCK_RECORD
  5
1D
100
AcDbSymbolTableRecord
100
AcDbBlockTableRecord
  2
*X1
  0
BLOCK_RECORD
  5
1F
100
AcDbSymbolTableRecord
100
AcDbBlockTableRecord
  2
*X2
  0
BLOCK_RECORD
  5
20
100
AcDbSymbolTableRecord
100
AcDbBlockTableRecord
  2
*X3
  0
BLOCK_RECORD
  5
24
100
AcDbSymbolTableRecord
100
AcDbBlockTableRecord
  2
*D4
  0
BLOCK_RECORD
  5
132A
100
AcDbSymbolTableRecord
100
AcDbBlockTableRecord
  2
*D5
  0
BLOCK_RECORD
  5
1344
100
AcDbSymbolTableRecord
100
AcDbBlockTableRecord
  2
*D6
  0
BLOCK_RECORD
  5
2507
100
AcDbSymbolTableRecord
100
AcDbBlockTableRecord
  2
*D7
  0
BLOCK_RECORD
  5
273F
100
AcDbSymbolTableRecord
100
AcDbBlockTableRecord
  2
*X8
  0
ENDTAB
  0
ENDSEC
  0
SECTION
  2
BLOCKS
  0
BLOCK
  5
3C
100
AcDbEntity
  8
0
100
AcDbBlockBegin
  2
*MODEL_SPACE
 70
     0
 10
0.0
 20
0.0
 30
0.0
  3
*MODEL_SPACE
  1

  0
ENDBLK
  5
3D
100
AcDbEntity
  8
0
100
AcDbBlockEnd
  0
BLOCK
  5
3A
100
AcDbEntity
 67
     1
  8
0
100
AcDbBlockBegin
  2
*PAPER_SPACE
 70
     0
 10
0.0
 20
0.0
 30
0.0
  3
*PAPER_SPACE
  1

  0
ENDBLK
  5
3B
100
AcDbEntity
 67
     1
  8
0
100
AcDbBlockEnd
  0
BLOCK
  5
40
100
AcDbEntity
  8
0
100
AcDbBlockBegin
  2
*X0
 70
     1
 10
0.0
 20
0.0
 30
0.0
  3
*X0
  1

  0
LINE
  5
41
100
AcDbEntity
  8
0
 62
     0
100
AcDbLine
 10
112.198979
 20
89.394785
 30
0.0
 11
114.86671
 21
92.062516
 31
0.0
  0
LINE
  5
42
100
AcDbEntity
  8
0
 62
     0
100
AcDbLine
 10
112.198979
 20
89.527368
 30
0.0
 11
114.734127
 21
92.062516
 31
0.0
  0
LINE
  5
43
100
AcDbEntity
  8
0
 62
     0
100
AcDbLine
 10
112.198979
 20
89.65995
 30
0.0
 11
114.601545
 21
92.062516
 31
0.0
  0
LINE
  5
44
100
AcDbEntity
  8
0
 62
     0
100
AcDbLine
 10
112.198979
 20
89.792533
 30
0.0
 11
114.468962
 21
92.062516
 31
0.0
  0
LINE
  5
45
100
AcDbEntity
  8
0
 62
     0
100
AcDbLine
 10
112.198979
 20
89.925115
 30
0.0
 11
114.33638
 21
92.062516
 31
0.0
  0
LINE
  5
46
100
AcDbEntity
  8
0
 62
     0
100
AcDbLine
 10
112.198979
 20
90.057698
 30
0.0
 11
114.203797
 21
92.062516
 31
0.0
  0
LINE
  5
47
100
AcDbEntity
  8
0
 62
     0
100
AcDbLine
 10
112.198979
 20
90.19028
 30
0.0
 11
114.071215
 21
92.062516
 31
0.0
  0
LINE
  5
48
100
AcDbEntity
  8
0
 62
     0
100
AcDbLine
 10
112.198979
 20
90.322863
 30
0.0
 11
113.938632
 21
92.062516
 31
0.0
  0
LINE
  5
49
100
AcDbEntity
  8
0
 62
     0
100
AcDbLine
 10
112.198979
 20
90.455445
 30
0.0
 11
113.80605
 21
92.062516
 31
0.0
  0
LINE
  5
4A
100
AcDbEntity
  8
0
 62
     0
100
AcDbLine
 10
112.198979
 20
90.588028
 30
0.0
 11
113.673467
 21
92.062516
 31
0.0
  0
LINE
  5
4B
100
AcDbEntity
  8
0
 62
     0
100
AcDbLine
 10
112.198979
 20
90.72061
 30
0.0
 11
113.540885
 21
92.062516
 31
0.0
  0
LINE
  5
4C
100
AcDbEntity
  8
0
 62
     0
100
AcDbLine
 10
112.198979
 20
90.853193
 30
0.0
 11
113.408302
 21
92.062516
 31
0.0
  0
LINE
  5
4D
100
AcDbEntity
  8
0
 62
     0
100
AcDbLine
 10
112.198979
 20
90.985775
 30
0.0
 11
113.27572
 21
92.062516
 31
0.0
  0
LINE
  5
4E
100
AcDbEntity
  8
0
 62
     0
100
AcDbLine
 10
112.198979
 20
91.118358
 30
0.0
 11
113.143137
 21
92.062516
 31
0.0
  0
LINE
  5
4F
100
AcDbEntity
  8
0
 62
     0
100
AcDbLine
 10
112.198979
 20
91.25094
 30
0.0
 11
113.010555
 21
92.062516
 31
0.0
  0
LINE
  5
50
100
AcDbEntity
  8
0
 62
     0
100
AcDbLine
 10
112.198979
 20
91.383523
 30
0.0
 11
112.877972
 21
92.062516
 31
0.0
  0
LINE
  5
51
100
AcDbEntity
  8
0
 62
     0
100
AcDbLine
 10
112.198979
 20
91.516105
 30
0.0
 11
112.74539
 21
92.062516
 31
0.0
  0
LINE
  5
52
100
AcDbEntity
  8
0
 62
     0
100
AcDbLine
 10
112.198979
 20
91.648688
 30
0.0
 11
112.612807
 21
92.062516
 31
0.0
  0
LINE
  5
53
100
AcDbEntity
  8
0
 62
     0
100
AcDbLine
 10
112.198979
 20
91.78127
 30
0.0
 11
112.480225
 21
92.062516
 31
0.0
  0
LINE
  5
54
100
AcDbEntity
  8
0
 62
     0
100
AcDbLine
 10
112.198979
 20
91.913853
 30
0.0
 11
112.347642
 21
92.062516
 31
0.0
  0
LINE
  5
55
100
AcDbEntity
  8
0
 62
     0
100
AcDbLine
 10
112.198979
 20
92.046436
 30
0.0
 11
112.21506
 21
92.062516
 31
0.0
  0
LINE
  5
56
100
AcDbEntity
  8
0
 62
     0
100
AcDbLine
 10
112.252751
 20
89.315975
 30
0.0
 11
114.94552
 21
92.008744
 31
0.0
  0
LINE
  5
57
100
AcDbEntity
  8
0
 62
     0
100
AcDbLine
 10
112.391567
 20
89.322208
 30
0.0
 11
114.939287
 21
91.869928
 31
0.0
  0
LINE
  5
58
100
AcDbEntity
  8
0
 62
     0
100
AcDbLine
 10
112.538445
 20
89.336504
 30
0.0
 11
114.924991
 21
91.72305
 31
0.0
  0
LINE
  5
59
100
AcDbEntity
  8
0
 62
     0
100
AcDbLine
 10
112.695154
 20
89.36063
 30
0.0
 11
114.900865
 21
91.566341
 31
0.0
  0
LINE
  5
5A
100
AcDbEntity
  8
0
 62
     0
100
AcDbLine
 10
112.864354
 20
89.397248
 30
0.0
 11
114.864247
 21
91.397141
 31
0.0
  0
LINE
  5
5B
100
AcDbEntity
  8
0
 62
     0
100
AcDbLine
 10
113.050418
 20
89.45073
 30
0.0
 11
114.810765
 21
91.211077
 31
0.0
  0
LINE
  5
5C
100
AcDbEntity
  8
0
 62
     0
100
AcDbLine
 10
113.26154
 20
89.529269
 30
0.0
 11
114.732226
 21
90.999955
 31
0.0
  0
LINE
  5
5D
100
AcDbEntity
  8
0
 62
     0
100
AcDbLine
 10
113.517314
 20
89.65246
 30
0.0
 11
114.609035
 21
90.744181
 31
0.0
  0
LINE
  5
5E
100
AcDbEntity
  8
0
 62
     0
100
AcDbLine
 10
113.914036
 20
89.9166
 30
0.0
 11
114.344895
 21
90.347459
 31
0.0
  0
LINE
  5
5F
100
AcDbEntity
  8
0
 62
     0
100
AcDbLine
 10
114.098784
 20
90.078299
 30
0.0
 11
112.198979
 21
91.978104
 31
0.0
  0
LINE
  5
60
100
AcDbEntity
  8
0
 62
     0
100
AcDbLine
 10
114.029919
 20
90.014581
 30
0.0
 11
112.198979
 21
91.845522
 31
0.0
  0
LINE
  5
61
100
AcDbEntity
  8
0
 62
     0
100
AcDbLine
 10
113.95878
 20
89.953138
 30
0.0
 11
112.198979
 21
91.712939
 31
0.0
  0
LINE
  5
62
100
AcDbEntity
  8
0
 62
     0
100
AcDbLine
 10
113.885351
 20
89.893985
 30
0.0
 11
112.198979
 21
91.580357
 31
0.0
  0
LINE
  5
63
100
AcDbEntity
  8
0
 62
     0
100
AcDbLine
 10
113.809605
 20
89.837148
 30
0.0
 11
112.198979
 21
91.447774
 31
0.0
  0
LINE
  5
64
100
AcDbEntity
  8
0
 62
     0
100
AcDbLine
 10
113.731508
 20
89.782662
 30
0.0
 11
112.198979
 21
91.315192
 31
0.0
  0
LINE
  5
65
100
AcDbEntity
  8
0
 62
     0
100
AcDbLine
 10
113.651016
 20
89.730572
 30
0.0
 11
112.198979
 21
91.182609
 31
0.0
  0
LINE
  5
66
100
AcDbEntity
  8
0
 62
     0
100
AcDbLine
 10
113.568075
 20
89.68093
 30
0.0
 11
112.198979
 21
91.050027
 31
0.0
  0
LINE
  5
67
100
AcDbEntity
  8
0
 62
     0
100
AcDbLine
 10
113.482619
 20
89.633803
 30
0.0
 11
112.198979
 21
90.917444
 31
0.0
  0
LINE
  5
68
100
AcDbEntity
  8
0
 62
     0
100
AcDbLine
 10
113.394569
 20
89.589271
 30
0.0
 11
112.198979
 21
90.784862
 31
0.0
  0
LINE
  5
69
100
AcDbEntity
  8
0
 62
     0
100
AcDbLine
 10
113.303832
 20
89.547426
 30
0.0
 11
112.198979
 21
90.652279
 31
0.0
  0
LINE
  5
6A
100
AcDbEntity
  8
0
 62
     0
100
AcDbLine
 10
113.210296
 20
89.508379
 30
0.0
 11
112.198979
 21
90.519697
 31
0.0
  0
LINE
  5
6B
100
AcDbEntity
  8
0
 62
     0
100
AcDbLine
 10
113.113832
 20
89.472261
 30
0.0
 11
112.198979
 21
90.387114
 31
0.0
  0
LINE
  5
6C
100
AcDbEntity
  8
0
 62
     0
100
AcDbLine
 10
113.014285
 20
89.439225
 30
0.0
 11
112.198979
 21
90.254532
 31
0.0
  0
LINE
  5
6D
100
AcDbEntity
  8
0
 62
     0
100
AcDbLine
 10
112.911472
 20
89.409455
 30
0.0
 11
112.198979
 21
90.121949
 31
0.0
  0
LINE
  5
6E
100
AcDbEntity
  8
0
 62
     0
100
AcDbLine
 10
112.805177
 20
89.383169
 30
0.0
 11
112.198979
 21
89.989366
 31
0.0
  0
LINE
  5
6F
100
AcDbEntity
  8
0
 62
     0
100
AcDbLine
 10
112.695136
 20
89.360627
 30
0.0
 11
112.198979
 21
89.856784
 31
0.0
  0
LINE
  5
70
100
AcDbEntity
  8
0
 62
     0
100
AcDbLine
 10
112.581034
 20
89.342146
 30
0.0
 11
112.198979
 21
89.724201
 31
0.0
  0
LINE
  5
71
100
AcDbEntity
  8
0
 62
     0
100
AcDbLine
 10
112.462482
 20
89.328116
 30
0.0
 11
112.198979
 21
89.591619
 31
0.0
  0
LINE
  5
72
100
AcDbEntity
  8
0
 62
     0
100
AcDbLine
 10
112.338996
 20
89.319019
 30
0.0
 11
112.198979
 21
89.459036
 31
0.0
  0
LINE
  5
73
100
AcDbEntity
  8
0
 62
     0
100
AcDbLine
 10
112.209962
 20
89.315471
 30
0.0
 11
112.198979
 21
89.326454
 31
0.0
  0
LINE
  5
74
100
AcDbEntity
  8
0
 62
     0
100
AcDbLine
 10
114.165385
 20
90.144281
 30
0.0
 11
112.247149
 21
92.062516
 31
0.0
  0
LINE
  5
75
100
AcDbEntity
  8
0
 62
     0
100
AcDbLine
 10
114.229722
 20
90.212526
 30
0.0
 11
112.379732
 21
92.062516
 31
0.0
  0
LINE
  5
76
100
AcDbEntity
  8
0
 62
     0
100
AcDbLine
 10
114.291788
 20
90.283042
 30
0.0
 11
112.512314
 21
92.062516
 31
0.0
  0
LINE
  5
77
100
AcDbEntity
  8
0
 62
     0
100
AcDbLine
 10
114.35157
 20
90.355844
 30
0.0
 11
112.644897
 21
92.062516
 31
0.0
  0
LINE
  5
78
100
AcDbEntity
  8
0
 62
     0
100
AcDbLine
 10
114.409042
 20
90.430953
 30
0.0
 11
112.777479
 21
92.062516
 31
0.0
  0
LINE
  5
79
100
AcDbEntity
  8
0
 62
     0
100
AcDbLine
 10
114.464175
 20
90.508403
 30
0.0
 11
112.910062
 21
92.062516
 31
0.0
  0
LINE
  5
7A
100
AcDbEntity
  8
0
 62
     0
100
AcDbLine
 10
114.516925
 20
90.588236
 30
0.0
 11
113.042644
 21
92.062516
 31
0.0
  0
LINE
  5
7B
100
AcDbEntity
  8
0
 62
     0
100
AcDbLine
 10
114.567242
 20
90.670501
 30
0.0
 11
113.175227
 21
92.062516
 31
0.0
  0
LINE
  5
7C
100
AcDbEntity
  8
0
 62
     0
100
AcDbLine
 10
114.615064
 20
90.755262
 30
0.0
 11
113.30781
 21
92.062516
 31
0.0
  0
LINE
  5
7D
100
AcDbEntity
  8
0
 62
     0
100
AcDbLine
 10
114.660314
 20
90.842594
 30
0.0
 11
113.440392
 21
92.062516
 31
0.0
  0
LINE
  5
7E
100
AcDbEntity
  8
0
 62
     0
100
AcDbLine
 10
114.702904
 20
90.932587
 30
0.0
 11
113.572975
 21
92.062516
 31
0.0
  0
LINE
  5
7F
100
AcDbEntity
  8
0
 62
     0
100
AcDbLine
 10
114.742727
 20
91.025346
 30
0.0
 11
113.705557
 21
92.062516
 31
0.0
  0
LINE
  5
80
100
AcDbEntity
  8
0
 62
     0
100
AcDbLine
 10
114.77966
 20
91.120995
 30
0.0
 11
113.83814
 21
92.062516
 31
0.0
  0
LINE
  5
81
100
AcDbEntity
  8
0
 62
     0
100
AcDbLine
 10
114.813555
 20
91.219683
 30
0.0
 11
113.970722
 21
92.062516
 31
0.0
  0
LINE
  5
82
100
AcDbEntity
  8
0
 62
     0
100
AcDbLine
 10
114.844238
 20
91.321583
 30
0.0
 11
114.103305
 21
92.062516
 31
0.0
  0
LINE
  5
83
100
AcDbEntity
  8
0
 62
     0
100
AcDbLine
 10
114.871501
 20
91.426903
 30
0.0
 11
114.235887
 21
92.062516
 31
0.0
  0
LINE
  5
84
100
AcDbEntity
  8
0
 62
     0
100
AcDbLine
 10
114.895095
 20
91.535891
 30
0.0
 11
114.36847
 21
92.062516
 31
0.0
  0
LINE
  5
85
100
AcDbEntity
  8
0
 62
     0
100
AcDbLine
 10
114.914721
 20
91.648847
 30
0.0
 11
114.501052
 21
92.062516
 31
0.0
  0
LINE
  5
86
100
AcDbEntity
  8
0
 62
     0
100
AcDbLine
 10
114.930012
 20
91.766139
 30
0.0
 11
114.633635
 21
92.062516
 31
0.0
  0
LINE
  5
87
100
AcDbEntity
  8
0
 62
     0
100
AcDbLine
 10
114.940511
 20
91.888222
 30
0.0
 11
114.766217
 21
92.062516
 31
0.0
  0
LINE
  5
88
100
AcDbEntity
  8
0
 62
     0
100
AcDbLine
 10
114.945647
 20
92.015669
 30
0.0
 11
114.8988
 21
92.062516
 31
0.0
  0
ENDBLK
  5
89
100
AcDbEntity
  8
0
100
AcDbBlockEnd
  0
BLOCK
  5
8A
100
AcDbEntity
  8
0
100
AcDbBlockBegin
  2
*X1
 70
     1
 10
0.0
 20
0.0
 30
0.0
  3
*X1
  1

  0
LINE
  5
8B
100
AcDbEntity
  8
0
 62
     0
100
AcDbLine
 10
109.451993
 20
92.083683
 30
0.0
 11
112.177812
 21
94.809502
 31
0.0
  0
LINE
  5
8C
100
AcDbEntity
  8
0
 62
     0
100
AcDbLine
 10
109.456472
 20
92.220744
 30
0.0
 11
112.040751
 21
94.805023
 31
0.0
  0
LINE
  5
8D
100
AcDbEntity
  8
0
 62
     0
100
AcDbLine
 10
109.468674
 20
92.365529
 30
0.0
 11
111.895966
 21
94.792821
 31
0.0
  0
LINE
  5
8E
100
AcDbEntity
  8
0
 62
     0
100
AcDbLine
 10
109.490214
 20
92.519651
 30
0.0
 11
111.741844
 21
94.771281
 31
0.0
  0
LINE
  5
8F
100
AcDbEntity
  8
0
 62
     0
100
AcDbLine
 10
109.523486
 20
92.685505
 30
0.0
 11
111.57599
 21
94.738009
 31
0.0
  0
LINE
  5
90
100
AcDbEntity
  8
0
 62
     0
100
AcDbLine
 10
109.572327
 20
92.86693
 30
0.0
 11
111.394566
 21
94.689168
 31
0.0
  0
LINE
  5
91
100
AcDbEntity
  8
0
 62
     0
100
AcDbLine
 10
109.64366
 20
93.070845
 30
0.0
 11
111.19065
 21
94.617835
 31
0.0
  0
LINE
  5
92
100
AcDbEntity
  8
0
 62
     0
100
AcDbLine
 10
109.752816
 20
93.312584
 30
0.0
 11
110.948911
 21
94.508679
 31
0.0
  0
LINE
  5
93
100
AcDbEntity
  8
0
 62
     0
100
AcDbLine
 10
109.955576
 20
93.647926
 30
0.0
 11
110.613569
 21
94.305919
 31
0.0
  0
LINE
  5
94
100
AcDbEntity
  8
0
 62
     0
100
AcDbLine
 10
109.563409
 20
92.062516
 30
0.0
 11
112.198979
 21
94.698086
 31
0.0
  0
LINE
  5
95
100
AcDbEntity
  8
0
 62
     0
100
AcDbLine
 10
109.695992
 20
92.062516
 30
0.0
 11
112.198979
 21
94.565503
 31
0.0
  0
LINE
  5
96
100
AcDbEntity
  8
0
 62
     0
100
AcDbLine
 10
109.828574
 20
92.062516
 30
0.0
 11
112.198979
 21
94.432921
 31
0.0
  0
LINE
  5
97
100
AcDbEntity
  8
0
 62
     0
100
AcDbLine
 10
109.961157
 20
92.062516
 30
0.0
 11
112.198979
 21
94.300338
 31
0.0
  0
LINE
  5
98
100
AcDbEntity
  8
0
 62
     0
100
AcDbLine
 10
110.093739
 20
92.062516
 30
0.0
 11
112.198979
 21
94.167756
 31
0.0
  0
LINE
  5
99
100
AcDbEntity
  8
0
 62
     0
100
AcDbLine
 10
110.226322
 20
92.062516
 30
0.0
 11
112.198979
 21
94.035173
 31
0.0
  0
LINE
  5
9A
100
AcDbEntity
  8
0
 62
     0
100
AcDbLine
 10
110.358904
 20
92.062516
 30
0.0
 11
112.198979
 21
93.902591
 31
0.0
  0
LINE
  5
9B
100
AcDbEntity
  8
0
 62
     0
100
AcDbLine
 10
110.491487
 20
92.062516
 30
0.0
 11
112.198979
 21
93.770008
 31
0.0
  0
LINE
  5
9C
100
AcDbEntity
  8
0
 62
     0
100
AcDbLine
 10
110.624069
 20
92.062516
 30
0.0
 11
112.198979
 21
93.637426
 31
0.0
  0
LINE
  5
9D
100
AcDbEntity
  8
0
 62
     0
100
AcDbLine
 10
110.756652
 20
92.062516
 30
0.0
 11
112.198979
 21
93.504843
 31
0.0
  0
LINE
  5
9E
100
AcDbEntity
  8
0
 62
     0
100
AcDbLine
 10
110.889234
 20
92.062516
 30
0.0
 11
112.198979
 21
93.372261
 31
0.0
  0
LINE
  5
9F
100
AcDbEntity
  8
0
 62
     0
100
AcDbLine
 10
111.021817
 20
92.062516
 30
0.0
 11
112.198979
 21
93.239678
 31
0.0
  0
LINE
  5
A0
100
AcDbEntity
  8
0
 62
     0
100
AcDbLine
 10
111.154399
 20
92.062516
 30
0.0
 11
112.198979
 21
93.107096
 31
0.0
  0
LINE
  5
A1
100
AcDbEntity
  8
0
 62
     0
100
AcDbLine
 10
111.286982
 20
92.062516
 30
0.0
 11
112.198979
 21
92.974513
 31
0.0
  0
LINE
  5
A2
100
AcDbEntity
  8
0
 62
     0
100
AcDbLine
 10
111.419564
 20
92.062516
 30
0.0
 11
112.198979
 21
92.841931
 31
0.0
  0
LINE
  5
A3
100
AcDbEntity
  8
0
 62
     0
100
AcDbLine
 10
111.552147
 20
92.062516
 30
0.0
 11
112.198979
 21
92.709348
 31
0.0
  0
LINE
  5
A4
100
AcDbEntity
  8
0
 62
     0
100
AcDbLine
 10
111.684729
 20
92.062516
 30
0.0
 11
112.198979
 21
92.576766
 31
0.0
  0
LINE
  5
A5
100
AcDbEntity
  8
0
 62
     0
100
AcDbLine
 10
111.817312
 20
92.062516
 30
0.0
 11
112.198979
 21
92.444183
 31
0.0
  0
LINE
  5
A6
100
AcDbEntity
  8
0
 62
     0
100
AcDbLine
 10
111.949894
 20
92.062516
 30
0.0
 11
112.198979
 21
92.311601
 31
0.0
  0
LINE
  5
A7
100
AcDbEntity
  8
0
 62
     0
100
AcDbLine
 10
112.082477
 20
92.062516
 30
0.0
 11
112.198979
 21
92.179018
 31
0.0
  0
LINE
  5
A8
100
AcDbEntity
  8
0
 62
     0
100
AcDbLine
 10
112.114567
 20
92.062516
 30
0.0
 11
110.214761
 21
93.962322
 31
0.0
  0
LINE
  5
A9
100
AcDbEntity
  8
0
 62
     0
100
AcDbLine
 10
111.981984
 20
92.062516
 30
0.0
 11
110.151044
 21
93.893457
 31
0.0
  0
LINE
  5
AA
100
AcDbEntity
  8
0
 62
     0
100
AcDbLine
 10
111.849402
 20
92.062516
 30
0.0
 11
110.0896
 21
93.822318
 31
0.0
  0
LINE
  5
AB
100
AcDbEntity
  8
0
 62
     0
100
AcDbLine
 10
111.716819
 20
92.062516
 30
0.0
 11
110.030447
 21
93.748888
 31
0.0
  0
LINE
  5
AC
100
AcDbEntity
  8
0
 62
     0
100
AcDbLine
 10
111.584237
 20
92.062516
 30
0.0
 11
109.973611
 21
93.673142
 31
0.0
  0
LINE
  5
AD
100
AcDbEntity
  8
0
 62
     0
100
AcDbLine
 10
111.451654
 20
92.062516
 30
0.0
 11
109.919125
 21
93.595045
 31
0.0
  0
LINE
  5
AE
100
AcDbEntity
  8
0
 62
     0
100
AcDbLine
 10
111.319072
 20
92.062516
 30
0.0
 11
109.867034
 21
93.514554
 31
0.0
  0
LINE
  5
AF
100
AcDbEntity
  8
0
 62
     0
100
AcDbLine
 10
111.186489
 20
92.062516
 30
0.0
 11
109.817392
 21
93.431613
 31
0.0
  0
LINE
  5
B0
100
AcDbEntity
  8
0
 62
     0
100
AcDbLine
 10
111.053907
 20
92.062516
 30
0.0
 11
109.770266
 21
93.346157
 31
0.0
  0
LINE
  5
B1
100
AcDbEntity
  8
0
 62
     0
100
AcDbLine
 10
110.921324
 20
92.062516
 30
0.0
 11
109.725734
 21
93.258107
 31
0.0
  0
LINE
  5
B2
100
AcDbEntity
  8
0
 62
     0
100
AcDbLine
 10
110.788742
 20
92.062516
 30
0.0
 11
109.683889
 21
93.167369
 31
0.0
  0
LINE
  5
B3
100
AcDbEntity
  8
0
 62
     0
100
AcDbLine
 10
110.656159
 20
92.062516
 30
0.0
 11
109.644842
 21
93.073834
 31
0.0
  0
LINE
  5
B4
100
AcDbEntity
  8
0
 62
     0
100
AcDbLine
 10
110.523577
 20
92.062516
 30
0.0
 11
109.608723
 21
92.977369
 31
0.0
  0
LINE
  5
B5
100
AcDbEntity
  8
0
 62
     0
100
AcDbLine
 10
110.390994
 20
92.062516
 30
0.0
 11
109.575688
 21
92.877822
 31
0.0
  0
LINE
  5
B6
100
AcDbEntity
  8
0
 62
     0
100
AcDbLine
 10
110.258412
 20
92.062516
 30
0.0
 11
109.545918
 21
92.77501
 31
0.0
  0
LINE
  5
B7
100
AcDbEntity
  8
0
 62
     0
100
AcDbLine
 10
110.125829
 20
92.062516
 30
0.0
 11
109.519631
 21
92.668714
 31
0.0
  0
LINE
  5
B8
100
AcDbEntity
  8
0
 62
     0
100
AcDbLine
 10
109.993246
 20
92.062516
 30
0.0
 11
109.497089
 21
92.558673
 31
0.0
  0
LINE
  5
B9
100
AcDbEntity
  8
0
 62
     0
100
AcDbLine
 10
109.860664
 20
92.062516
 30
0.0
 11
109.478609
 21
92.444571
 31
0.0
  0
LINE
  5
BA
100
AcDbEntity
  8
0
 62
     0
100
AcDbLine
 10
109.728081
 20
92.062516
 30
0.0
 11
109.464578
 21
92.326019
 31
0.0
  0
LINE
  5
BB
100
AcDbEntity
  8
0
 62
     0
100
AcDbLine
 10
109.595499
 20
92.062516
 30
0.0
 11
109.455482
 21
92.202533
 31
0.0
  0
LINE
  5
BC
100
AcDbEntity
  8
0
 62
     0
100
AcDbLine
 10
109.462916
 20
92.062516
 30
0.0
 11
109.451933
 21
92.073499
 31
0.0
  0
LINE
  5
BD
100
AcDbEntity
  8
0
 62
     0
100
AcDbLine
 10
112.198979
 20
92.110687
 30
0.0
 11
110.280743
 21
94.028922
 31
0.0
  0
LINE
  5
BE
100
AcDbEntity
  8
0
 62
     0
100
AcDbLine
 10
112.198979
 20
92.243269
 30
0.0
 11
110.348989
 21
94.093259
 31
0.0
  0
LINE
  5
BF
100
AcDbEntity
  8
0
 62
     0
100
AcDbLine
 10
112.198979
 20
92.375852
 30
0.0
 11
110.419505
 21
94.155326
 31
0.0
  0
LINE
  5
C0
100
AcDbEntity
  8
0
 62
     0
100
AcDbLine
 10
112.198979
 20
92.508434
 30
0.0
 11
110.492306
 21
94.215107
 31
0.0
  0
LINE
  5
C1
100
AcDbEntity
  8
0
 62
     0
100
AcDbLine
 10
112.198979
 20
92.641017
 30
0.0
 11
110.567416
 21
94.27258
 31
0.0
  0
LINE
  5
C2
100
AcDbEntity
  8
0
 62
     0
100
AcDbLine
 10
112.198979
 20
92.773599
 30
0.0
 11
110.644866
 21
94.327712
 31
0.0
  0
LINE
  5
C3
100
AcDbEntity
  8
0
 62
     0
100
AcDbLine
 10
112.198979
 20
92.906182
 30
0.0
 11
110.724698
 21
94.380463
 31
0.0
  0
LINE
  5
C4
100
AcDbEntity
  8
0
 62
     0
100
AcDbLine
 10
112.198979
 20
93.038764
 30
0.0
 11
110.806963
 21
94.43078
 31
0.0
  0
LINE
  5
C5
100
AcDbEntity
  8
0
 62
     0
100
AcDbLine
 10
112.198979
 20
93.171347
 30
0.0
 11
110.891725
 21
94.478601
 31
0.0
  0
LINE
  5
C6
100
AcDbEntity
  8
0
 62
     0
100
AcDbLine
 10
112.198979
 20
93.303929
 30
0.0
 11
110.979057
 21
94.523851
 31
0.0
  0
LINE
  5
C7
100
AcDbEntity
  8
0
 62
     0
100
AcDbLine
 10
112.198979
 20
93.436512
 30
0.0
 11
111.06905
 21
94.566441
 31
0.0
  0
LINE
  5
C8
100
AcDbEntity
  8
0
 62
     0
100
AcDbLine
 10
112.198979
 20
93.569095
 30
0.0
 11
111.161808
 21
94.606265
 31
0.0
  0
LINE
  5
C9
100
AcDbEntity
  8
0
 62
     0
100
AcDbLine
 10
112.198979
 20
93.701677
 30
0.0
 11
111.257458
 21
94.643198
 31
0.0
  0
LINE
  5
CA
100
AcDbEntity
  8
0
 62
     0
100
AcDbLine
 10
112.198979
 20
93.83426
 30
0.0
 11
111.356145
 21
94.677093
 31
0.0
  0
LINE
  5
CB
100
AcDbEntity
  8
0
 62
     0
100
AcDbLine
 10
112.198979
 20
93.966842
 30
0.0
 11
111.458045
 21
94.707776
 31
0.0
  0
LINE
  5
CC
100
AcDbEntity
  8
0
 62
     0
100
AcDbLine
 10
112.198979
 20
94.099425
 30
0.0
 11
111.563365
 21
94.735038
 31
0.0
  0
LINE
  5
CD
100
AcDbEntity
  8
0
 62
     0
100
AcDbLine
 10
112.198979
 20
94.232007
 30
0.0
 11
111.672353
 21
94.758633
 31
0.0
  0
LINE
  5
CE
100
AcDbEntity
  8
0
 62
     0
100
AcDbLine
 10
112.198979
 20
94.36459
 30
0.0
 11
111.78531
 21
94.778259
 31
0.0
  0
LINE
  5
CF
100
AcDbEntity
  8
0
 62
     0
100
AcDbLine
 10
112.198979
 20
94.497172
 30
0.0
 11
111.902602
 21
94.793549
 31
0.0
  0
LINE
  5
D0
100
AcDbEntity
  8
0
 62
     0
100
AcDbLine
 10
112.198979
 20
94.629755
 30
0.0
 11
112.024685
 21
94.804049
 31
0.0
  0
LINE
  5
D1
100
AcDbEntity
  8
0
 62
     0
100
AcDbLine
 10
112.198979
 20
94.762337
 30
0.0
 11
112.152132
 21
94.809184
 31
0.0
  0
ENDBLK
  5
D2
100
AcDbEntity
  8
0
100
AcDbBlockEnd
  0
BLOCK
  5
117
100
AcDbEntity
  8
0
100
AcDbBlockBegin
  2
*X2
 70
     1
 10
0.0
 20
0.0
 30
0.0
  3
*X2
  1

  0
LINE
  5
118
100
AcDbEntity
  8
0
 62
     0
100
AcDbLine
 10
113.244857
 20
72.762994
 30
0.0
 11
115.254532
 21
74.772669
 31
0.0
  0
LINE
  5
119
100
AcDbEntity
  8
0
 62
     0
100
AcDbLine
 10
113.244857
 20
72.939771
 30
0.0
 11
115.077756
 21
74.772669
 31
0.0
  0
LINE
  5
11A
100
AcDbEntity
  8
0
 62
     0
100
AcDbLine
 10
113.244857
 20
73.116547
 30
0.0
 11
114.900979
 21
74.772669
 31
0.0
  0
LINE
  5
11B
100
AcDbEntity
  8
0
 62
     0
100
AcDbLine
 10
113.244857
 20
73.293324
 30
0.0
 11
114.724202
 21
74.772669
 31
0.0
  0
LINE
  5
11C
100
AcDbEntity
  8
0
 62
     0
100
AcDbLine
 10
113.244857
 20
73.470101
 30
0.0
 11
114.547426
 21
74.772669
 31
0.0
  0
LINE
  5
11D
100
AcDbEntity
  8
0
 62
     0
100
AcDbLine
 10
113.244857
 20
73.646878
 30
0.0
 11
114.370649
 21
74.772669
 31
0.0
  0
LINE
  5
11E
100
AcDbEntity
  8
0
 62
     0
100
AcDbLine
 10
113.244857
 20
73.823654
 30
0.0
 11
114.193872
 21
74.772669
 31
0.0
  0
LINE
  5
11F
100
AcDbEntity
  8
0
 62
     0
100
AcDbLine
 10
113.244857
 20
74.000431
 30
0.0
 11
114.017096
 21
74.772669
 31
0.0
  0
LINE
  5
120
100
AcDbEntity
  8
0
 62
     0
100
AcDbLine
 10
113.244857
 20
74.177208
 30
0.0
 11
113.840319
 21
74.772669
 31
0.0
  0
LINE
  5
121
100
AcDbEntity
  8
0
 62
     0
100
AcDbLine
 10
113.244857
 20
74.353984
 30
0.0
 11
113.663542
 21
74.772669
 31
0.0
  0
LINE
  5
122
100
AcDbEntity
  8
0
 62
     0
100
AcDbLine
 10
113.244857
 20
74.530761
 30
0.0
 11
113.486765
 21
74.772669
 31
0.0
  0
LINE
  5
123
100
AcDbEntity
  8
0
 62
     0
100
AcDbLine
 10
113.244857
 20
74.707538
 30
0.0
 11
113.309989
 21
74.772669
 31
0.0
  0
LINE
  5
124
100
AcDbEntity
  8
0
 62
     0
100
AcDbLine
 10
113.375131
 20
72.716491
 30
0.0
 11
115.301035
 21
74.642395
 31
0.0
  0
LINE
  5
125
100
AcDbEntity
  8
0
 62
     0
100
AcDbLine
 10
113.574294
 20
72.738877
 30
0.0
 11
115.278649
 21
74.443233
 31
0.0
  0
LINE
  5
126
100
AcDbEntity
  8
0
 62
     0
100
AcDbLine
 10
113.801058
 20
72.788865
 30
0.0
 11
115.228661
 21
74.216468
 31
0.0
  0
LINE
  5
127
100
AcDbEntity
  8
0
 62
     0
100
AcDbLine
 10
114.076757
 20
72.887787
 30
0.0
 11
115.12974
 21
73.94077
 31
0.0
  0
LINE
  5
128
100
AcDbEntity
  8
0
 62
     0
100
AcDbLine
 10
114.520614
 20
73.154867
 30
0.0
 11
114.862659
 21
73.496913
 31
0.0
  0
LINE
  5
129
100
AcDbEntity
  8
0
 62
     0
100
AcDbLine
 10
114.648834
 20
73.264794
 30
0.0
 11
113.244857
 21
74.66877
 31
0.0
  0
LINE
  5
12A
100
AcDbEntity
  8
0
 62
     0
100
AcDbLine
 10
114.554597
 20
73.182254
 30
0.0
 11
113.244857
 21
74.491993
 31
0.0
  0
LINE
  5
12B
100
AcDbEntity
  8
0
 62
     0
100
AcDbLine
 10
114.454916
 20
73.105157
 30
0.0
 11
113.244857
 21
74.315216
 31
0.0
  0
LINE
  5
12C
100
AcDbEntity
  8
0
 62
     0
100
AcDbLine
 10
114.349663
 20
73.033634
 30
0.0
 11
113.244857
 21
74.13844
 31
0.0
  0
LINE
  5
12D
100
AcDbEntity
  8
0
 62
     0
100
AcDbLine
 10
114.238635
 20
72.967885
 30
0.0
 11
113.244857
 21
73.961663
 31
0.0
  0
LINE
  5
12E
100
AcDbEntity
  8
0
 62
     0
100
AcDbLine
 10
114.121546
 20
72.908197
 30
0.0
 11
113.244857
 21
73.784886
 31
0.0
  0
LINE
  5
12F
100
AcDbEntity
  8
0
 62
     0
100
AcDbLine
 10
113.998006
 20
72.854961
 30
0.0
 11
113.244857
 21
73.60811
 31
0.0
  0
LINE
  5
130
100
AcDbEntity
  8
0
 62
     0
100
AcDbLine
 10
113.867489
 20
72.808702
 30
0.0
 11
113.244857
 21
73.431333
 31
0.0
  0
LINE
  5
131
100
AcDbEntity
  8
0
 62
     0
100
AcDbLine
 10
113.729285
 20
72.770129
 30
0.0
 11
113.244857
 21
73.254556
 31
0.0
  0
LINE
  5
132
100
AcDbEntity
  8
0
 62
     0
100
AcDbLine
 10
113.582426
 20
72.740211
 30
0.0
 11
113.244857
 21
73.07778
 31
0.0
  0
LINE
  5
133
100
AcDbEntity
  8
0
 62
     0
100
AcDbLine
 10
113.425552
 20
72.720308
 30
0.0
 11
113.244857
 21
72.901003
 31
0.0
  0
LINE
  5
134
100
AcDbEntity
  8
0
 62
     0
100
AcDbLine
 10
113.256681
 20
72.712403
 30
0.0
 11
113.244857
 21
72.724226
 31
0.0
  0
LINE
  5
135
100
AcDbEntity
  8
0
 62
     0
100
AcDbLine
 10
114.737693
 20
73.352711
 30
0.0
 11
113.317735
 21
74.772669
 31
0.0
  0
LINE
  5
136
100
AcDbEntity
  8
0
 62
     0
100
AcDbLine
 10
114.821179
 20
73.446001
 30
0.0
 11
113.494511
 21
74.772669
 31
0.0
  0
LINE
  5
137
100
AcDbEntity
  8
0
 62
     0
100
AcDbLine
 10
114.899238
 20
73.544719
 30
0.0
 11
113.671288
 21
74.772669
 31
0.0
  0
LINE
  5
138
100
AcDbEntity
  8
0
 62
     0
100
AcDbLine
 10
114.971752
 20
73.648982
 30
0.0
 11
113.848065
 21
74.772669
 31
0.0
  0
LINE
  5
139
100
AcDbEntity
  8
0
 62
     0
100
AcDbLine
 10
115.038532
 20
73.758978
 30
0.0
 11
114.024841
 21
74.772669
 31
0.0
  0
LINE
  5
13A
100
AcDbEntity
  8
0
 62
     0
100
AcDbLine
 10
115.099309
 20
73.874979
 30
0.0
 11
114.201618
 21
74.772669
 31
0.0
  0
LINE
  5
13B
100
AcDbEntity
  8
0
 62
     0
100
AcDbLine
 10
115.153711
 20
73.997353
 30
0.0
 11
114.378395
 21
74.772669
 31
0.0
  0
LINE
  5
13C
100
AcDbEntity
  8
0
 62
     0
100
AcDbLine
 10
115.20124
 20
74.126601
 30
0.0
 11
114.555172
 21
74.772669
 31
0.0
  0
LINE
  5
13D
100
AcDbEntity
  8
0
 62
     0
100
AcDbLine
 10
115.241223
 20
74.263394
 30
0.0
 11
114.731948
 21
74.772669
 31
0.0
  0
LINE
  5
13E
100
AcDbEntity
  8
0
 62
     0
100
AcDbLine
 10
115.272745
 20
74.408649
 30
0.0
 11
114.908725
 21
74.772669
 31
0.0
  0
LINE
  5
13F
100
AcDbEntity
  8
0
 62
     0
100
AcDbLine
 10
115.294527
 20
74.563644
 30
0.0
 11
115.085502
 21
74.772669
 31
0.0
  0
LINE
  5
140
100
AcDbEntity
  8
0
 62
     0
100
AcDbLine
 10
115.304721
 20
74.730227
 30
0.0
 11
115.262278
 21
74.772669
 31
0.0
  0
ENDBLK
  5
141
100
AcDbEntity
  8
0
100
AcDbBlockEnd
  0
BLOCK
  5
142
100
AcDbEntity
  8
0
100
AcDbBlockBegin
  2
*X3
 70
     1
 10
0.0
 20
0.0
 30
0.0
  3
*X3
  1

  0
LINE
  5
143
100
AcDbEntity
  8
0
 62
     0
100
AcDbLine
 10
111.192487
 20
74.953265
 30
0.0
 11
113.064262
 21
76.825039
 31
0.0
  0
LINE
  5
144
100
AcDbEntity
  8
0
 62
     0
100
AcDbLine
 10
111.221021
 20
75.158575
 30
0.0
 11
112.858952
 21
76.796506
 31
0.0
  0
LINE
  5
145
100
AcDbEntity
  8
0
 62
     0
100
AcDbLine
 10
111.280853
 20
75.395184
 30
0.0
 11
112.622343
 21
76.736674
 31
0.0
  0
LINE
  5
146
100
AcDbEntity
  8
0
 62
     0
100
AcDbLine
 10
111.401183
 20
75.692291
 30
0.0
 11
112.325236
 21
76.616343
 31
0.0
  0
LINE
  5
147
100
AcDbEntity
  8
0
 62
     0
100
AcDbLine
 10
111.188668
 20
74.772669
 30
0.0
 11
113.244857
 21
76.828858
 31
0.0
  0
LINE
  5
148
100
AcDbEntity
  8
0
 62
     0
100
AcDbLine
 10
111.365445
 20
74.772669
 30
0.0
 11
113.244857
 21
76.652081
 31
0.0
  0
LINE
  5
149
100
AcDbEntity
  8
0
 62
     0
100
AcDbLine
 10
111.542222
 20
74.772669
 30
0.0
 11
113.244857
 21
76.475305
 31
0.0
  0
LINE
  5
14A
100
AcDbEntity
  8
0
 62
     0
100
AcDbLine
 10
111.718998
 20
74.772669
 30
0.0
 11
113.244857
 21
76.298528
 31
0.0
  0
LINE
  5
14B
100
AcDbEntity
  8
0
 62
     0
100
AcDbLine
 10
111.895775
 20
74.772669
 30
0.0
 11
113.244857
 21
76.121751
 31
0.0
  0
LINE
  5
14C
100
AcDbEntity
  8
0
 62
     0
100
AcDbLine
 10
112.072552
 20
74.772669
 30
0.0
 11
113.244857
 21
75.944975
 31
0.0
  0
LINE
  5
14D
100
AcDbEntity
  8
0
 62
     0
100
AcDbLine
 10
112.249329
 20
74.772669
 30
0.0
 11
113.244857
 21
75.768198
 31
0.0
  0
LINE
  5
14E
100
AcDbEntity
  8
0
 62
     0
100
AcDbLine
 10
112.426105
 20
74.772669
 30
0.0
 11
113.244857
 21
75.591421
 31
0.0
  0
LINE
  5
14F
100
AcDbEntity
  8
0
 62
     0
100
AcDbLine
 10
112.602882
 20
74.772669
 30
0.0
 11
113.244857
 21
75.414644
 31
0.0
  0
LINE
  5
150
100
AcDbEntity
  8
0
 62
     0
100
AcDbLine
 10
112.779659
 20
74.772669
 30
0.0
 11
113.244857
 21
75.237868
 31
0.0
  0
LINE
  5
151
100
AcDbEntity
  8
0
 62
     0
100
AcDbLine
 10
112.956435
 20
74.772669
 30
0.0
 11
113.244857
 21
75.061091
 31
0.0
  0
LINE
  5
152
100
AcDbEntity
  8
0
 62
     0
100
AcDbLine
 10
113.133212
 20
74.772669
 30
0.0
 11
113.244857
 21
74.884314
 31
0.0
  0
LINE
  5
153
100
AcDbEntity
  8
0
 62
     0
100
AcDbLine
 10
113.140958
 20
74.772669
 30
0.0
 11
111.736982
 21
76.176645
 31
0.0
  0
LINE
  5
154
100
AcDbEntity
  8
0
 62
     0
100
AcDbLine
 10
112.964181
 20
74.772669
 30
0.0
 11
111.654442
 21
76.082409
 31
0.0
  0
LINE
  5
155
100
AcDbEntity
  8
0
 62
     0
100
AcDbLine
 10
112.787405
 20
74.772669
 30
0.0
 11
111.577346
 21
75.982728
 31
0.0
  0
LINE
  5
156
100
AcDbEntity
  8
0
 62
     0
100
AcDbLine
 10
112.610628
 20
74.772669
 30
0.0
 11
111.505822
 21
75.877475
 31
0.0
  0
LINE
  5
157
100
AcDbEntity
  8
0
 62
     0
100
AcDbLine
 10
112.433851
 20
74.772669
 30
0.0
 11
111.440074
 21
75.766447
 31
0.0
  0
LINE
  5
158
100
AcDbEntity
  8
0
 62
     0
100
AcDbLine
 10
112.257074
 20
74.772669
 30
0.0
 11
111.380386
 21
75.649358
 31
0.0
  0
LINE
  5
159
100
AcDbEntity
  8
0
 62
     0
100
AcDbLine
 10
112.080298
 20
74.772669
 30
0.0
 11
111.327149
 21
75.525818
 31
0.0
  0
LINE
  5
15A
100
AcDbEntity
  8
0
 62
     0
100
AcDbLine
 10
111.903521
 20
74.772669
 30
0.0
 11
111.28089
 21
75.3953
 31
0.0
  0
LINE
  5
15B
100
AcDbEntity
  8
0
 62
     0
100
AcDbLine
 10
111.726744
 20
74.772669
 30
0.0
 11
111.242317
 21
75.257097
 31
0.0
  0
LINE
  5
15C
100
AcDbEntity
  8
0
 62
     0
100
AcDbLine
 10
111.549968
 20
74.772669
 30
0.0
 11
111.212399
 21
75.110238
 31
0.0
  0
LINE
  5
15D
100
AcDbEntity
  8
0
 62
     0
100
AcDbLine
 10
111.373191
 20
74.772669
 30
0.0
 11
111.192496
 21
74.953364
 31
0.0
  0
LINE
  5
15E
100
AcDbEntity
  8
0
 62
     0
100
AcDbLine
 10
111.196414
 20
74.772669
 30
0.0
 11
111.184591
 21
74.784493
 31
0.0
  0
LINE
  5
15F
100
AcDbEntity
  8
0
 62
     0
100
AcDbLine
 10
113.244857
 20
74.845547
 30
0.0
 11
111.824899
 21
76.265505
 31
0.0
  0
LINE
  5
160
100
AcDbEntity
  8
0
 62
     0
100
AcDbLine
 10
113.244857
 20
75.022323
 30
0.0
 11
111.918189
 21
76.348991
 31
0.0
  0
LINE
  5
161
100
AcDbEntity
  8
0
 62
     0
100
AcDbLine
 10
113.244857
 20
75.1991
 30
0.0
 11
112.016907
 21
76.42705
 31
0.0
  0
LINE
  5
162
100
AcDbEntity
  8
0
 62
     0
100
AcDbLine
 10
113.244857
 20
75.375877
 30
0.0
 11
112.12117
 21
76.499564
 31
0.0
  0
LINE
  5
163
100
AcDbEntity
  8
0
 62
     0
100
AcDbLine
 10
113.244857
 20
75.552653
 30
0.0
 11
112.231167
 21
76.566344
 31
0.0
  0
LINE
  5
164
100
AcDbEntity
  8
0
 62
     0
100
AcDbLine
 10
113.244857
 20
75.72943
 30
0.0
 11
112.347167
 21
76.627121
 31
0.0
  0
LINE
  5
165
100
AcDbEntity
  8
0
 62
     0
100
AcDbLine
 10
113.244857
 20
75.906207
 30
0.0
 11
112.469541
 21
76.681523
 31
0.0
  0
LINE
  5
166
100
AcDbEntity
  8
0
 62
     0
100
AcDbLine
 10
113.244857
 20
76.082983
 30
0.0
 11
112.598789
 21
76.729052
 31
0.0
  0
LINE
  5
167
100
AcDbEntity
  8
0
 62
     0
100
AcDbLine
 10
113.244857
 20
76.25976
 30
0.0
 11
112.735582
 21
76.769035
 31
0.0
  0
LINE
  5
168
100
AcDbEntity
  8
0
 62
     0
100
AcDbLine
 10
113.244857
 20
76.436537
 30
0.0
 11
112.880837
 21
76.800557
 31
0.0
  0
LINE
  5
169
100
AcDbEntity
  8
0
 62
     0
100
AcDbLine
 10
113.244857
 20
76.613313
 30
0.0
 11
113.035832
 21
76.822339
 31
0.0
  0
LINE
  5
16A
100
AcDbEntity
  8
0
 62
     0
100
AcDbLine
 10
113.244857
 20
76.79009
 30
0.0
 11
113.202415
 21
76.832532
 31
0.0
  0
ENDBLK
  5
16B
100
AcDbEntity
  8
0
100
AcDbBlockEnd
  0
BLOCK
  5
191
100
AcDbEntity
  8
0
100
AcDbBlockBegin
  2
*D4
 70
     1
 10
0.0
 20
0.0
 30
0.0
  3
*D4
  1

  0
LINE
  5
192
100
AcDbEntity
  8
0
  6
BYBLOCK
 62
     0
100
AcDbLine
 10
42.157758
 20
46.282546
 30
0.0
 11
42.157758
 21
41.115671
 31
0.0
  0
LINE
  5
193
100
AcDbEntity
  8
0
  6
BYBLOCK
 62
     0
100
AcDbLine
 10
66.157758
 20
46.282546
 30
0.0
 11
66.157758
 21
41.115671
 31
0.0
  0
LINE
  5
194
100
AcDbEntity
  8
0
  6
BYBLOCK
 62
     0
100
AcDbLine
 10
43.357758
 20
42.335671
 30
0.0
 11
51.476329
 21
42.335671
 31
0.0
  0
LINE
  5
195
100
AcDbEntity
  8
0
  6
BYBLOCK
 62
     0
100
AcDbLine
 10
64.957758
 20
42.335671
 30
0.0
 11
56.839186
 21
42.335671
 31
0.0
  0
SOLID
  5
196
100
AcDbEntity
  8
0
  6
BYBLOCK
 62
     0
100
AcDbTrace
 10
43.357758
 20
42.535671
 30
0.0
 11
43.357758
 21
42.135671
 31
0.0
 12
42.157758
 22
42.335671
 32
0.0
 13
42.157758
 23
42.335671
 33
0.0
  0
SOLID
  5
197
100
AcDbEntity
  8
0
  6
BYBLOCK
 62
     0
100
AcDbTrace
 10
64.957758
 20
42.535671
 30
0.0
 11
64.957758
 21
42.135671
 31
0.0
 12
66.157758
 22
42.335671
 32
0.0
 13
66.157758
 23
42.335671
 33
0.0
  0
TEXT
  5
198
100
AcDbEntity
  8
0
  6
BYBLOCK
 62
     0
100
AcDbText
 10
52.502043
 20
41.725671
 30
0.0
 40
1.22
  1
24"
  7
ROMAND
 72
     1
 11
54.157758
 21
42.335671
 31
0.0
100
AcDbText
 73
     2
  0
POINT
  5
199
100
AcDbEntity
  8
DEFPOINTS
  6
BYBLOCK
 62
     0
100
AcDbPoint
 10
42.157758
 20
46.582546
 30
0.0
  0
POINT
  5
19A
100
AcDbEntity
  8
DEFPOINTS
  6
BYBLOCK
 62
     0
100
AcDbPoint
 10
66.157758
 20
46.582546
 30
0.0
  0
POINT
  5
19B
100
AcDbEntity
  8
DEFPOINTS
  6
BYBLOCK
 62
     0
100
AcDbPoint
 10
66.157758
 20
42.335671
 30
0.0
  0
ENDBLK
  5
19C
100
AcDbEntity
  8
0
100
AcDbBlockEnd
  0
BLOCK
  5
1338
100
AcDbEntity
  8
0
100
AcDbBlockBegin
  2
*D5
 70
     1
 10
0.0
 20
0.0
 30
0.0
  3
*D5
  1

  0
LINE
  5
1339
100
AcDbEntity
  8
0
  6
BYBLOCK
 62
     0
100
AcDbLine
 10
41.937425
 20
130.082546
 30
0.0
 11
32.127358
 21
130.082546
 31
0.0
  0
LINE
  5
133A
100
AcDbEntity
  8
0
  6
BYBLOCK
 62
     0
100
AcDbLine
 10
40.339318
 20
46.082546
 30
0.0
 11
32.127358
 21
46.082546
 31
0.0
  0
LINE
  5
133B
100
AcDbEntity
  8
0
  6
BYBLOCK
 62
     0
100
AcDbLine
 10
33.347358
 20
128.882546
 30
0.0
 11
33.347358
 21
94.888211
 31
0.0
  0
LINE
  5
133C
100
AcDbEntity
  8
0
  6
BYBLOCK
 62
     0
100
AcDbLine
 10
33.347358
 20
47.282546
 30
0.0
 11
33.347358
 21
91.268211
 31
0.0
  0
MTEXT
  5
133D
100
AcDbEntity
  8
0
  6
BYBLOCK
 62
     0
100
AcDbMText
 10
33.575219
 20
93.078211
 30
0.0
 40
1.22
 41
0.0
 71
     5
 72
     1
  1
\A1;  
  7
ROMAND
  0
SOLID
  5
133E
100
AcDbEntity
  8
0
  6
BYBLOCK
 62
     0
100
AcDbTrace
 10
33.147358
 20
128.882546
 30
0.0
 11
33.547358
 21
128.882546
 31
0.0
 12
33.347358
 22
130.082546
 32
0.0
 13
33.347358
 23
130.082546
 33
0.0
  0
SOLID
  5
133F
100
AcDbEntity
  8
0
  6
BYBLOCK
 62
     0
100
AcDbTrace
 10
33.147358
 20
47.282546
 30
0.0
 11
33.547358
 21
47.282546
 31
0.0
 12
33.347358
 22
46.082546
 32
0.0
 13
33.347358
 23
46.082546
 33
0.0
  0
POINT
  5
1340
100
AcDbEntity
  8
DEFPOINTS
  6
BYBLOCK
 62
     0
100
AcDbPoint
 10
42.237425
 20
130.082546
 30
0.0
  0
POINT
  5
1341
100
AcDbEntity
  8
DEFPOINTS
  6
BYBLOCK
 62
     0
100
AcDbPoint
 10
40.639318
 20
46.082546
 30
0.0
  0
POINT
  5
1342
100
AcDbEntity
  8
DEFPOINTS
  6
BYBLOCK
 62
     0
100
AcDbPoint
 10
33.347358
 20
46.082546
 30
0.0
  0
ENDBLK
  5
1343
100
AcDbEntity
  8
0
100
AcDbBlockEnd
  0
BLOCK
  5
1345
100
AcDbEntity
  8
0
100
AcDbBlockBegin
  2
*D6
 70
     1
 10
0.0
 20
0.0
 30
0.0
  3
*D6
  1

  0
LINE
  5
1346
100
AcDbEntity
  8
0
  6
BYBLOCK
 62
     0
100
AcDbLine
 10
68.31131
 20
130.082546
 30
0.0
 11
73.328443
 21
130.082546
 31
0.0
  0
LINE
  5
1347
100
AcDbEntity
  8
0
  6
BYBLOCK
 62
     0
100
AcDbLine
 10
70.437131
 20
82.082546
 30
0.0
 11
73.328443
 21
82.082546
 31
0.0
  0
LINE
  5
1348
100
AcDbEntity
  8
0
  6
BYBLOCK
 62
     0
100
AcDbLine
 10
72.108443
 20
128.882546
 30
0.0
 11
72.108443
 21
103.058225
 31
0.0
  0
LINE
  5
1349
100
AcDbEntity
  8
0
  6
BYBLOCK
 62
     0
100
AcDbLine
 10
72.108443
 20
83.282546
 30
0.0
 11
72.108443
 21
99.438225
 31
0.0
  0
MTEXT
  5
134A
100
AcDbEntity
  8
0
  6
BYBLOCK
 62
     0
100
AcDbMText
 10
71.860722
 20
101.248225
 30
0.0
 40
1.22
 41
0.0
 71
     5
 72
     1
  1
\A1;  
  7
ROMAND
  0
SOLID
  5
134B
100
AcDbEntity
  8
0
  6
BYBLOCK
 62
     0
100
AcDbTrace
 10
71.908443
 20
128.882546
 30
0.0
 11
72.308443
 21
128.882546
 31
0.0
 12
72.108443
 22
130.082546
 32
0.0
 13
72.108443
 23
130.082546
 33
0.0
  0
SOLID
  5
134C
100
AcDbEntity
  8
0
  6
BYBLOCK
 62
     0
100
AcDbTrace
 10
71.908443
 20
83.282546
 30
0.0
 11
72.308443
 21
83.282546
 31
0.0
 12
72.108443
 22
82.082546
 32
0.0
 13
72.108443
 23
82.082546
 33
0.0
  0
POINT
  5
134D
100
AcDbEntity
  8
DEFPOINTS
  6
BYBLOCK
 62
     0
100
AcDbPoint
 10
68.01131
 20
130.082546
 30
0.0
  0
POINT
  5
134E
100
AcDbEntity
  8
DEFPOINTS
  6
BYBLOCK
 62
     0
100
AcDbPoint
 10
70.137131
 20
82.082546
 30
0.0
  0
POINT
  5
134F
100
AcDbEntity
  8
DEFPOINTS
  6
BYBLOCK
 62
     0
100
AcDbPoint
 10
72.108443
 20
82.082546
 30
0.0
  0
ENDBLK
  5
1350
100
AcDbEntity
  8
0
100
AcDbBlockEnd
  0
BLOCK
  5
2508
100
AcDbEntity
  8
0
100
AcDbBlockBegin
  2
*D7
 70
     1
 10
0.0
 20
0.0
 30
0.0
  3
*D7
  1

  0
LINE
  5
2509
100
AcDbEntity
  8
0
  6
BYBLOCK
 62
     0
100
AcDbLine
 10
41.307758
 20
130.082546
 30
0.0
 11
36.308321
 21
130.082546
 31
0.0
  0
LINE
  5
250A
100
AcDbEntity
  8
0
  6
BYBLOCK
 62
     0
100
AcDbLine
 10
39.757908
 20
119.711046
 30
0.0
 11
36.308321
 21
119.711046
 31
0.0
  0
LINE
  5
250B
100
AcDbEntity
  8
0
  6
BYBLOCK
 62
     0
100
AcDbLine
 10
37.528321
 20
128.882546
 30
0.0
 11
37.528321
 21
126.706796
 31
0.0
  0
LINE
  5
250C
100
AcDbEntity
  8
0
  6
BYBLOCK
 62
     0
100
AcDbLine
 10
37.528321
 20
120.911046
 30
0.0
 11
37.528321
 21
123.086796
 31
0.0
  0
SOLID
  5
250D
100
AcDbEntity
  8
0
  6
BYBLOCK
 62
     0
100
AcDbTrace
 10
37.328321
 20
128.882546
 30
0.0
 11
37.728321
 21
128.882546
 31
0.0
 12
37.528321
 22
130.082546
 32
0.0
 13
37.528321
 23
130.082546
 33
0.0
  0
SOLID
  5
250E
100
AcDbEntity
  8
0
  6
BYBLOCK
 62
     0
100
AcDbTrace
 10
37.328321
 20
120.911046
 30
0.0
 11
37.728321
 21
120.911046
 31
0.0
 12
37.528321
 22
119.711046
 32
0.0
 13
37.528321
 23
119.711046
 33
0.0
  0
MTEXT
  5
250F
100
AcDbEntity
  8
0
  6
BYBLOCK
 62
     0
100
AcDbMText
 10
37.528321
 20
124.896796
 30
0.0
 40
1.22
 41
0.0
 71
     5
 72
     1
  1
\A1;  
  7
ROMAND
  0
POINT
  5
2510
100
AcDbEntity
  8
DEFPOINTS
  6
BYBLOCK
 62
     0
100
AcDbPoint
 10
41.607758
 20
130.082546
 30
0.0
  0
POINT
  5
2511
100
AcDbEntity
  8
DEFPOINTS
  6
BYBLOCK
 62
     0
100
AcDbPoint
 10
40.057908
 20
119.711046
 30
0.0
  0
POINT
  5
2512
100
AcDbEntity
  8
DEFPOINTS
  6
BYBLOCK
 62
     0
100
AcDbPoint
 10
37.528321
 20
119.711046
 30
0.0
  0
ENDBLK
  5
2513
100
AcDbEntity
  8
0
100
AcDbBlockEnd
  0
BLOCK
  5
2782
100
AcDbEntity
  8
0
100
AcDbBlockBegin
  2
*X8
 70
     1
 10
0.0
 20
0.0
 30
0.0
  3
*X8
  1

  0
LINE
  5
2740
100
AcDbEntity
  8
0
 62
     0
100
AcDbLine
 10
164.634173
 20
97.193864
 30
0.0
 11
165.570452
 21
98.130143
 31
0.0
  0
LINE
  5
2741
100
AcDbEntity
  8
0
 62
     0
100
AcDbLine
 10
164.545785
 20
97.193864
 30
0.0
 11
165.482064
 21
98.130143
 31
0.0
  0
LINE
  5
2742
100
AcDbEntity
  8
0
 62
     0
100
AcDbLine
 10
164.457396
 20
97.193864
 30
0.0
 11
165.393676
 21
98.130143
 31
0.0
  0
LINE
  5
2743
100
AcDbEntity
  8
0
 62
     0
100
AcDbLine
 10
164.369008
 20
97.193864
 30
0.0
 11
165.305287
 21
98.130143
 31
0.0
  0
LINE
  5
2744
100
AcDbEntity
  8
0
 62
     0
100
AcDbLine
 10
164.28062
 20
97.193864
 30
0.0
 11
165.216899
 21
98.130143
 31
0.0
  0
LINE
  5
2745
100
AcDbEntity
  8
0
 62
     0
100
AcDbLine
 10
164.192231
 20
97.193864
 30
0.0
 11
165.128511
 21
98.130143
 31
0.0
  0
LINE
  5
2746
100
AcDbEntity
  8
0
 62
     0
100
AcDbLine
 10
164.177907
 20
97.267928
 30
0.0
 11
165.040122
 21
98.130143
 31
0.0
  0
LINE
  5
2747
100
AcDbEntity
  8
0
 62
     0
100
AcDbLine
 10
164.177907
 20
97.356316
 30
0.0
 11
164.951734
 21
98.130143
 31
0.0
  0
LINE
  5
2748
100
AcDbEntity
  8
0
 62
     0
100
AcDbLine
 10
164.177907
 20
97.444705
 30
0.0
 11
164.863346
 21
98.130143
 31
0.0
  0
LINE
  5
2749
100
AcDbEntity
  8
0
 62
     0
100
AcDbLine
 10
164.177907
 20
97.533093
 30
0.0
 11
164.774957
 21
98.130143
 31
0.0
  0
LINE
  5
274A
100
AcDbEntity
  8
0
 62
     0
100
AcDbLine
 10
164.177907
 20
97.621481
 30
0.0
 11
164.686569
 21
98.130143
 31
0.0
  0
LINE
  5
274B
100
AcDbEntity
  8
0
 62
     0
100
AcDbLine
 10
164.177907
 20
97.70987
 30
0.0
 11
164.598181
 21
98.130143
 31
0.0
  0
LINE
  5
274C
100
AcDbEntity
  8
0
 62
     0
100
AcDbLine
 10
164.177907
 20
97.798258
 30
0.0
 11
164.509792
 21
98.130143
 31
0.0
  0
LINE
  5
274D
100
AcDbEntity
  8
0
 62
     0
100
AcDbLine
 10
164.177907
 20
97.886646
 30
0.0
 11
164.421404
 21
98.130143
 31
0.0
  0
LINE
  5
274E
100
AcDbEntity
  8
0
 62
     0
100
AcDbLine
 10
164.177907
 20
97.975035
 30
0.0
 11
164.333016
 21
98.130143
 31
0.0
  0
LINE
  5
274F
100
AcDbEntity
  8
0
 62
     0
100
AcDbLine
 10
164.177907
 20
98.063423
 30
0.0
 11
164.244627
 21
98.130143
 31
0.0
  0
LINE
  5
2750
100
AcDbEntity
  8
0
 62
     0
100
AcDbLine
 10
164.722561
 20
97.193864
 30
0.0
 11
165.658841
 21
98.130143
 31
0.0
  0
LINE
  5
2751
100
AcDbEntity
  8
0
 62
     0
100
AcDbLine
 10
164.81095
 20
97.193864
 30
0.0
 11
165.747229
 21
98.130143
 31
0.0
  0
LINE
  5
2752
100
AcDbEntity
  8
0
 62
     0
100
AcDbLine
 10
164.899338
 20
97.193864
 30
0.0
 11
165.835617
 21
98.130143
 31
0.0
  0
LINE
  5
2753
100
AcDbEntity
  8
0
 62
     0
100
AcDbLine
 10
164.987727
 20
97.193864
 30
0.0
 11
165.924006
 21
98.130143
 31
0.0
  0
LINE
  5
2754
100
AcDbEntity
  8
0
 62
     0
100
AcDbLine
 10
165.076115
 20
97.193864
 30
0.0
 11
166.012394
 21
98.130143
 31
0.0
  0
LINE
  5
2755
100
AcDbEntity
  8
0
 62
     0
100
AcDbLine
 10
165.164503
 20
97.193864
 30
0.0
 11
166.100783
 21
98.130143
 31
0.0
  0
LINE
  5
2756
100
AcDbEntity
  8
0
 62
     0
100
AcDbLine
 10
165.252892
 20
97.193864
 30
0.0
 11
166.177907
 21
98.118879
 31
0.0
  0
LINE
  5
2757
100
AcDbEntity
  8
0
 62
     0
100
AcDbLine
 10
165.34128
 20
97.193864
 30
0.0
 11
166.177907
 21
98.030491
 31
0.0
  0
LINE
  5
2758
100
AcDbEntity
  8
0
 62
     0
100
AcDbLine
 10
165.429668
 20
97.193864
 30
0.0
 11
166.177907
 21
97.942103
 31
0.0
  0
LINE
  5
2759
100
AcDbEntity
  8
0
 62
     0
100
AcDbLine
 10
165.518057
 20
97.193864
 30
0.0
 11
166.177907
 21
97.853714
 31
0.0
  0
LINE
  5
275A
100
AcDbEntity
  8
0
 62
     0
100
AcDbLine
 10
165.606445
 20
97.193864
 30
0.0
 11
166.177907
 21
97.765326
 31
0.0
  0
LINE
  5
275B
100
AcDbEntity
  8
0
 62
     0
100
AcDbLine
 10
165.694833
 20
97.193864
 30
0.0
 11
166.177907
 21
97.676938
 31
0.0
  0
LINE
  5
275C
100
AcDbEntity
  8
0
 62
     0
100
AcDbLine
 10
165.783222
 20
97.193864
 30
0.0
 11
166.177907
 21
97.588549
 31
0.0
  0
LINE
  5
275D
100
AcDbEntity
  8
0
 62
     0
100
AcDbLine
 10
165.87161
 20
97.193864
 30
0.0
 11
166.177907
 21
97.500161
 31
0.0
  0
LINE
  5
275E
100
AcDbEntity
  8
0
 62
     0
100
AcDbLine
 10
165.959998
 20
97.193864
 30
0.0
 11
166.177907
 21
97.411773
 31
0.0
  0
LINE
  5
275F
100
AcDbEntity
  8
0
 62
     0
100
AcDbLine
 10
166.048387
 20
97.193864
 30
0.0
 11
166.177907
 21
97.323384
 31
0.0
  0
LINE
  5
2760
100
AcDbEntity
  8
0
 62
     0
100
AcDbLine
 10
166.136775
 20
97.193864
 30
0.0
 11
166.177907
 21
97.234996
 31
0.0
  0
LINE
  5
2761
100
AcDbEntity
  8
0
 62
     0
100
AcDbLine
 10
165.584694
 20
97.193864
 30
0.0
 11
164.648414
 21
98.130143
 31
0.0
  0
LINE
  5
2762
100
AcDbEntity
  8
0
 62
     0
100
AcDbLine
 10
165.496305
 20
97.193864
 30
0.0
 11
164.560026
 21
98.130143
 31
0.0
  0
LINE
  5
2763
100
AcDbEntity
  8
0
 62
     0
100
AcDbLine
 10
165.407917
 20
97.193864
 30
0.0
 11
164.471638
 21
98.130143
 31
0.0
  0
LINE
  5
2764
100
AcDbEntity
  8
0
 62
     0
100
AcDbLine
 10
165.319529
 20
97.193864
 30
0.0
 11
164.383249
 21
98.130143
 31
0.0
  0
LINE
  5
2765
100
AcDbEntity
  8
0
 62
     0
100
AcDbLine
 10
165.23114
 20
97.193864
 30
0.0
 11
164.294861
 21
98.130143
 31
0.0
  0
LINE
  5
2766
100
AcDbEntity
  8
0
 62
     0
100
AcDbLine
 10
165.142752
 20
97.193864
 30
0.0
 11
164.206473
 21
98.130143
 31
0.0
  0
LINE
  5
2767
100
AcDbEntity
  8
0
 62
     0
100
AcDbLine
 10
165.054364
 20
97.193864
 30
0.0
 11
164.177907
 21
98.07032
 31
0.0
  0
LINE
  5
2768
100
AcDbEntity
  8
0
 62
     0
100
AcDbLine
 10
164.965975
 20
97.193864
 30
0.0
 11
164.177907
 21
97.981932
 31
0.0
  0
LINE
  5
2769
100
AcDbEntity
  8
0
 62
     0
100
AcDbLine
 10
164.877587
 20
97.193864
 30
0.0
 11
164.177907
 21
97.893544
 31
0.0
  0
LINE
  5
276A
100
AcDbEntity
  8
0
 62
     0
100
AcDbLine
 10
164.789199
 20
97.193864
 30
0.0
 11
164.177907
 21
97.805155
 31
0.0
  0
LINE
  5
276B
100
AcDbEntity
  8
0
 62
     0
100
AcDbLine
 10
164.70081
 20
97.193864
 30
0.0
 11
164.177907
 21
97.716767
 31
0.0
  0
LINE
  5
276C
100
AcDbEntity
  8
0
 62
     0
100
AcDbLine
 10
164.612422
 20
97.193864
 30
0.0
 11
164.177907
 21
97.628379
 31
0.0
  0
LINE
  5
276D
100
AcDbEntity
  8
0
 62
     0
100
AcDbLine
 10
164.524033
 20
97.193864
 30
0.0
 11
164.177907
 21
97.53999
 31
0.0
  0
LINE
  5
276E
100
AcDbEntity
  8
0
 62
     0
100
AcDbLine
 10
164.435645
 20
97.193864
 30
0.0
 11
164.177907
 21
97.451602
 31
0.0
  0
LINE
  5
276F
100
AcDbEntity
  8
0
 62
     0
100
AcDbLine
 10
164.347257
 20
97.193864
 30
0.0
 11
164.177907
 21
97.363214
 31
0.0
  0
LINE
  5
2770
100
AcDbEntity
  8
0
 62
     0
100
AcDbLine
 10
164.258868
 20
97.193864
 30
0.0
 11
164.177907
 21
97.274825
 31
0.0
  0
LINE
  5
2771
100
AcDbEntity
  8
0
 62
     0
100
AcDbLine
 10
165.673082
 20
97.193864
 30
0.0
 11
164.736803
 21
98.130143
 31
0.0
  0
LINE
  5
2772
100
AcDbEntity
  8
0
 62
     0
100
AcDbLine
 10
165.76147
 20
97.193864
 30
0.0
 11
164.825191
 21
98.130143
 31
0.0
  0
LINE
  5
2773
100
AcDbEntity
  8
0
 62
     0
100
AcDbLine
 10
165.849859
 20
97.193864
 30
0.0
 11
164.913579
 21
98.130143
 31
0.0
  0
LINE
  5
2774
100
AcDbEntity
  8
0
 62
     0
100
AcDbLine
 10
165.938247
 20
97.193864
 30
0.0
 11
165.001968
 21
98.130143
 31
0.0
  0
LINE
  5
2775
100
AcDbEntity
  8
0
 62
     0
100
AcDbLine
 10
166.026635
 20
97.193864
 30
0.0
 11
165.090356
 21
98.130143
 31
0.0
  0
LINE
  5
2776
100
AcDbEntity
  8
0
 62
     0
100
AcDbLine
 10
166.115024
 20
97.193864
 30
0.0
 11
165.178744
 21
98.130143
 31
0.0
  0
LINE
  5
2777
100
AcDbEntity
  8
0
 62
     0
100
AcDbLine
 10
166.177907
 20
97.219369
 30
0.0
 11
165.267133
 21
98.130143
 31
0.0
  0
LINE
  5
2778
100
AcDbEntity
  8
0
 62
     0
100
AcDbLine
 10
166.177907
 20
97.307757
 30
0.0
 11
165.355521
 21
98.130143
 31
0.0
  0
LINE
  5
2779
100
AcDbEntity
  8
0
 62
     0
100
AcDbLine
 10
166.177907
 20
97.396146
 30
0.0
 11
165.443909
 21
98.130143
 31
0.0
  0
LINE
  5
277A
100
AcDbEntity
  8
0
 62
     0
100
AcDbLine
 10
166.177907
 20
97.484534
 30
0.0
 11
165.532298
 21
98.130143
 31
0.0
  0
LINE
  5
277B
100
AcDbEntity
  8
0
 62
     0
100
AcDbLine
 10
166.177907
 20
97.572922
 30
0.0
 11
165.620686
 21
98.130143
 31
0.0
  0
LINE
  5
277C
100
AcDbEntity
  8
0
 62
     0
100
AcDbLine
 10
166.177907
 20
97.661311
 30
0.0
 11
165.709075
 21
98.130143
 31
0.0
  0
LINE
  5
277D
100
AcDbEntity
  8
0
 62
     0
100
AcDbLine
 10
166.177907
 20
97.749699
 30
0.0
 11
165.797463
 21
98.130143
 31
0.0
  0
LINE
  5
277E
100
AcDbEntity
  8
0
 62
     0
100
AcDbLine
 10
166.177907
 20
97.838087
 30
0.0
 11
165.885851
 21
98.130143
 31
0.0
  0
LINE
  5
277F
100
AcDbEntity
  8
0
 62
     0
100
AcDbLine
 10
166.177907
 20
97.926476
 30
0.0
 11
165.97424
 21
98.130143
 31
0.0
  0
LINE
  5
2780
100
AcDbEntity
  8
0
 62
     0
100
AcDbLine
 10
166.177907
 20
98.014864
 30
0.0
 11
166.062628
 21
98.130143
 31
0.0
  0
LINE
  5
2781
100
AcDbEntity
  8
0
 62
     0
100
AcDbLine
 10
166.177907
 20
98.103252
 30
0.0
 11
166.151016
 21
98.130143
 31
0.0
  0
ENDBLK
  5
2783
100
AcDbEntity
  8
0
100
AcDbBlockEnd
  0
ENDSEC
  0
SECTION
  2
ENTITIES
  0
LINE
  5
9A1
100
AcDbEntity
  8
OBJECT
100
AcDbLine
 10
54.919202
 20
73.558062
 30
0.0
 11
54.919202
 21
51.357519
 31
0.0
  0
LINE
  5
9A2
100
AcDbEntity
  8
OBJECT
100
AcDbLine
 10
56.579202
 20
73.558062
 30
0.0
 11
56.579202
 21
51.357519
 31
0.0
  0
LINE
  5
9A3
100
AcDbEntity
  8
OBJECT
100
AcDbLine
 10
57.906802
 20
80.385978
 30
0.0
 11
57.906802
 21
83.665158
 31
0.0
  0
LINE
  5
9A4
100
AcDbEntity
  8
OBJECT
100
AcDbLine
 10
54.919202
 20
51.548668
 30
0.0
 11
56.579202
 21
51.548668
 31
0.0
  0
LINE
  5
9A5
100
AcDbEntity
  8
OBJECT
100
AcDbLine
 10
54.919202
 20
51.748786
 30
0.0
 11
56.579202
 21
51.748786
 31
0.0
  0
LINE
  5
9A6
100
AcDbEntity
  8
OBJECT
100
AcDbLine
 10
54.919202
 20
51.948786
 30
0.0
 11
56.579202
 21
51.948786
 31
0.0
  0
LINE
  5
9A7
100
AcDbEntity
  8
OBJECT
100
AcDbLine
 10
55.102798
 20
51.357519
 30
0.0
 11
56.395606
 21
51.357519
 31
0.0
  0
ARC
  5
9A8
100
AcDbEntity
  8
OBJECT
100
AcDbCircle
 10
56.17358
 20
75.355062
 30
0.0
 40
0.937024
100
AcDbArc
 50
314.616122
 51
45.383878
  0
LINE
  5
9A9
100
AcDbEntity
  8
OBJECT
100
AcDbLine
 10
53.473897
 20
75.97461
 30
0.0
 11
54.526023
 21
74.922483
 31
0.0
  0
LINE
  5
9AA
100
AcDbEntity
  8
OBJECT
100
AcDbLine
 10
56.831702
 20
74.688062
 30
0.0
 11
54.59251
 21
74.688062
 31
0.0
  0
LINE
  5
9AB
100
AcDbEntity
  8
OBJECT
100
AcDbLine
 10
54.919202
 20
72.983754
 30
0.0
 11
56.579202
 21
72.983754
 31
0.0
  0
LINE
  5
9AC
100
AcDbEntity
  8
OBJECT
100
AcDbLine
 10
54.919202
 20
72.783754
 30
0.0
 11
56.579202
 21
72.783754
 31
0.0
  0
LINE
  5
9AD
100
AcDbEntity
  8
OBJECT
100
AcDbLine
 10
54.919202
 20
73.383754
 30
0.0
 11
56.579202
 21
73.383754
 31
0.0
  0
LINE
  5
9AE
100
AcDbEntity
  8
OBJECT
100
AcDbLine
 10
54.919202
 20
73.183754
 30
0.0
 11
56.579202
 21
73.183754
 31
0.0
  0
LINE
  5
9AF
100
AcDbEntity
  8
OBJECT
100
AcDbLine
 10
54.499202
 20
73.558062
 30
0.0
 11
56.999202
 21
73.558062
 31
0.0
  0
ARC
  5
9B0
100
AcDbEntity
  8
OBJECT
100
AcDbCircle
 10
55.749202
 20
73.400932
 30
0.0
 40
1.146217
100
AcDbArc
 50
54.843805
 51
125.156195
  0
LINE
  5
9B1
100
AcDbEntity
  8
OBJECT
100
AcDbLine
 10
55.089202
 20
74.338062
 30
0.0
 11
55.089202
 21
73.558062
 31
0.0
  0
LINE
  5
9B2
100
AcDbEntity
  8
OBJECT
100
AcDbLine
 10
54.499202
 20
74.545009
 30
0.0
 11
54.511605
 21
74.555602
 31
0.0
  0
LINE
  5
9B3
100
AcDbEntity
  8
OBJECT
100
AcDbLine
 10
54.499202
 20
73.558062
 30
0.0
 11
54.499202
 21
74.545009
 31
0.0
  0
ARC
  5
9B4
100
AcDbEntity
  8
OBJECT
100
AcDbCircle
 10
54.429202
 20
73.400932
 30
0.0
 40
1.146217
100
AcDbArc
 50
54.843805
 51
86.49874
  0
ARC
  5
9B5
100
AcDbEntity
  8
OBJECT
100
AcDbCircle
 10
54.349247
 20
74.745707
 30
0.0
 40
0.25
100
AcDbArc
 50
310.498867
 51
45.0
  0
LINE
  5
9B6
100
AcDbEntity
  8
OBJECT
100
AcDbLine
 10
56.999202
 20
74.545009
 30
0.0
 11
56.831702
 21
74.688062
 31
0.0
  0
LINE
  5
9B7
100
AcDbEntity
  8
OBJECT
100
AcDbLine
 10
56.409202
 20
74.338062
 30
0.0
 11
56.409202
 21
73.558062
 31
0.0
  0
ARC
  5
9B8
100
AcDbEntity
  8
OBJECT
100
AcDbCircle
 10
57.069202
 20
73.400932
 30
0.0
 40
1.146217
100
AcDbArc
 50
93.50126
 51
125.156195
  0
LINE
  5
9B9
100
AcDbEntity
  8
OBJECT
100
AcDbLine
 10
56.999202
 20
73.558062
 30
0.0
 11
56.999202
 21
74.545009
 31
0.0
  0
ARC
  5
9BA
100
AcDbEntity
  8
OBJECT
100
AcDbCircle
 10
55.749202
 20
86.074099
 30
0.0
 40
0.248007
100
AcDbArc
 50
103.779262
 51
33.011108
  0
LINE
  5
9BB
100
AcDbEntity
  8
OBJECT
100
AcDbLine
 10
55.164683
 20
86.570113
 30
0.0
 11
55.681851
 21
86.570113
 31
0.0
  0
LINE
  5
9BC
100
AcDbEntity
  8
OBJECT
100
AcDbLine
 10
56.579202
 20
84.360546
 30
0.0
 11
54.919202
 21
84.360546
 31
0.0
  0
LINE
  5
9BD
100
AcDbEntity
  8
OBJECT
100
AcDbLine
 10
56.579202
 20
84.560546
 30
0.0
 11
54.919202
 21
84.560546
 31
0.0
  0
LINE
  5
9BE
100
AcDbEntity
  8
OBJECT
100
AcDbLine
 10
56.579202
 20
84.760546
 30
0.0
 11
54.919202
 21
84.760546
 31
0.0
  0
LINE
  5
9BF
100
AcDbEntity
  8
OBJECT
100
AcDbLine
 10
57.623602
 20
84.160546
 30
0.0
 11
54.750802
 21
84.160546
 31
0.0
  0
LINE
  5
9C0
100
AcDbEntity
  8
OBJECT
100
AcDbLine
 10
56.747602
 20
83.754546
 30
0.0
 11
54.750802
 21
83.754546
 31
0.0
  0
LINE
  5
9C1
100
AcDbEntity
  8
OBJECT
100
AcDbLine
 10
56.747602
 20
83.754546
 30
0.0
 11
54.750802
 21
83.754546
 31
0.0
  0
LINE
  5
9C2
100
AcDbEntity
  8
OBJECT
100
AcDbLine
 10
54.750802
 20
81.004546
 30
0.0
 11
56.747602
 21
81.004546
 31
0.0
  0
LINE
  5
9C3
100
AcDbEntity
  8
OBJECT
100
AcDbLine
 10
54.750802
 20
80.598546
 30
0.0
 11
56.935602
 21
80.598546
 31
0.0
  0
LINE
  5
9C4
100
AcDbEntity
  8
OBJECT
100
AcDbLine
 10
54.919202
 20
79.998546
 30
0.0
 11
56.579202
 21
79.998546
 31
0.0
  0
LINE
  5
9C5
100
AcDbEntity
  8
OBJECT
100
AcDbLine
 10
54.919202
 20
80.198546
 30
0.0
 11
56.579202
 21
80.198546
 31
0.0
  0
LINE
  5
9C6
100
AcDbEntity
  8
OBJECT
100
AcDbLine
 10
54.919202
 20
80.398546
 30
0.0
 11
56.579202
 21
80.398546
 31
0.0
  0
LINE
  5
9C7
100
AcDbEntity
  8
OBJECT
100
AcDbLine
 10
54.919202
 20
79.314062
 30
0.0
 11
56.579202
 21
79.314062
 31
0.0
  0
LINE
  5
9C8
100
AcDbEntity
  8
OBJECT
100
AcDbLine
 10
54.919202
 20
79.114062
 30
0.0
 11
56.579202
 21
79.114062
 31
0.0
  0
LINE
  5
9C9
100
AcDbEntity
  8
OBJECT
100
AcDbLine
 10
54.919202
 20
78.914062
 30
0.0
 11
56.579202
 21
78.914062
 31
0.0
  0
LINE
  5
9CA
100
AcDbEntity
  8
OBJECT
100
AcDbLine
 10
54.499202
 20
78.714062
 30
0.0
 11
56.999202
 21
78.714062
 31
0.0
  0
LINE
  5
9CB
100
AcDbEntity
  8
OBJECT
100
AcDbLine
 10
55.792896
 20
77.435229
 30
0.0
 11
55.64305
 21
77.200043
 31
0.0
  0
LINE
  5
9CC
100
AcDbEntity
  8
OBJECT
100
AcDbLine
 10
55.760786
 20
76.537244
 30
0.0
 11
55.825005
 21
76.537244
 31
0.0
  0
LINE
  5
9CD
100
AcDbEntity
  8
OBJECT
100
AcDbLine
 10
56.831702
 20
77.584062
 30
0.0
 11
54.697971
 21
77.584062
 31
0.0
  0
ARC
  5
9CE
100
AcDbEntity
  8
OBJECT
100
AcDbCircle
 10
55.749202
 20
78.871192
 30
0.0
 40
1.146217
100
AcDbArc
 50
234.843805
 51
305.156195
  0
ARC
  5
9CF
100
AcDbEntity
  8
OBJECT
100
AcDbCircle
 10
57.105387
 20
78.634287
 30
0.0
 40
2.626523
100
AcDbArc
 50
187.134802
 51
264.01889
  0
LINE
  5
9D0
100
AcDbEntity
  8
OBJECT
100
AcDbLine
 10
54.874676
 20
84.999401
 30
0.0
 11
58.887051
 21
84.999401
 31
0.0
  0
LINE
  5
9D1
100
AcDbEntity
  8
OBJECT
100
AcDbLine
 10
54.874676
 20
85.249401
 30
0.0
 11
58.887051
 21
85.249401
 31
0.0
  0
LINE
  5
9D2
100
AcDbEntity
  8
OBJECT
100
AcDbLine
 10
54.785202
 20
81.004546
 30
0.0
 11
54.785202
 21
83.754546
 31
0.0
  0
LINE
  5
9D3
100
AcDbEntity
  8
OBJECT
100
AcDbLine
 10
54.919202
 20
80.598546
 30
0.0
 11
54.919202
 21
78.714062
 31
0.0
  0
LINE
  5
9D4
100
AcDbEntity
  8
OBJECT
100
AcDbLine
 10
53.946598
 20
78.131639
 30
0.0
 11
53.668514
 21
78.409723
 31
0.0
  0
LINE
  5
9D5
100
AcDbEntity
  8
OBJECT
100
AcDbLine
 10
54.826939
 20
77.327651
 30
0.0
 11
53.473897
 21
75.97461
 31
0.0
  0
LINE
  5
9D6
100
AcDbEntity
  8
OBJECT
100
AcDbLine
 10
54.801544
 20
77.372967
 30
0.0
 11
53.350154
 21
75.921577
 31
0.0
  0
LINE
  5
9D7
100
AcDbEntity
  8
OBJECT
100
AcDbLine
 10
54.160851
 20
78.204471
 30
0.0
 11
52.835026
 21
76.878646
 31
0.0
  0
LINE
  5
9D8
100
AcDbEntity
  8
OBJECT
100
AcDbLine
 10
54.090141
 20
78.275182
 30
0.0
 11
52.764316
 21
76.949356
 31
0.0
  0
LINE
  5
9D9
100
AcDbEntity
  8
OBJECT
100
AcDbLine
 10
54.231562
 20
78.13376
 30
0.0
 11
52.905737
 21
76.807935
 31
0.0
  0
LINE
  5
9DA
100
AcDbEntity
  8
OBJECT
100
AcDbLine
 10
54.499202
 20
78.308062
 30
0.0
 11
52.731435
 21
76.540295
 31
0.0
  0
LINE
  5
9DB
100
AcDbEntity
  8
OBJECT
100
AcDbLine
 10
52.731435
 20
76.540295
 30
0.0
 11
53.350154
 21
75.921577
 31
0.0
  0
LINE
  5
9DC
100
AcDbEntity
  8
OBJECT
100
AcDbLine
 10
53.350154
 20
75.921577
 30
0.0
 11
53.473897
 21
75.97461
 31
0.0
  0
LINE
  5
9DD
100
AcDbEntity
  8
OBJECT
100
AcDbLine
 10
52.952406
 20
76.761266
 30
0.0
 11
52.764316
 21
76.949356
 31
0.0
  0
LINE
  5
9DE
100
AcDbEntity
  8
OBJECT
100
AcDbLine
 10
52.907858
 20
77.092899
 30
0.0
 11
52.556393
 21
77.444364
 31
0.0
  0
LINE
  5
9DF
100
AcDbEntity
  8
OBJECT
100
AcDbLine
 10
53.194497
 20
78.263421
 30
0.0
 11
52.556393
 21
77.444364
 31
0.0
  0
LINE
  5
9E0
100
AcDbEntity
  8
OBJECT
100
AcDbLine
 10
53.636439
 20
77.82148
 30
0.0
 11
53.194497
 21
78.263421
 31
0.0
  0
LINE
  5
9E1
100
AcDbEntity
  8
OBJECT
100
AcDbLine
 10
53.194497
 20
78.263421
 30
0.0
 11
53.668514
 21
78.409723
 31
0.0
  0
LINE
  5
9E2
100
AcDbEntity
  8
OBJECT
100
AcDbLine
 10
54.499202
 20
78.714062
 30
0.0
 11
54.499202
 21
78.308062
 31
0.0
  0
LINE
  5
9E3
100
AcDbEntity
  8
OBJECT
100
AcDbLine
 10
55.760786
 20
77.135901
 30
0.0
 11
55.760786
 21
76.537244
 31
0.0
  0
LINE
  5
9E4
100
AcDbEntity
  8
OBJECT
100
AcDbLine
 10
55.64305
 20
77.200043
 30
0.0
 11
55.760786
 21
77.135901
 31
0.0
  0
LINE
  5
9E5
100
AcDbEntity
  8
OBJECT
100
AcDbLine
 10
54.278231
 20
78.087091
 30
0.0
 11
54.090141
 21
78.275182
 31
0.0
  0
ARC
  5
9E6
100
AcDbEntity
  8
OBJECT
100
AcDbCircle
 10
54.429202
 20
78.871192
 30
0.0
 40
1.146217
100
AcDbArc
 50
280.319255
 51
305.156195
  0
LINE
  5
9E7
100
AcDbEntity
  8
OBJECT
100
AcDbLine
 10
55.089202
 20
77.934062
 30
0.0
 11
55.089202
 21
78.714062
 31
0.0
  0
LINE
  5
9E8
100
AcDbEntity
  8
OBJECT
100
AcDbLine
 10
54.750802
 20
80.598546
 30
0.0
 11
54.750802
 21
81.004546
 31
0.0
  0
LINE
  5
9E9
100
AcDbEntity
  8
OBJECT
100
AcDbLine
 10
55.164683
 20
85.249401
 30
0.0
 11
55.164683
 21
86.570113
 31
0.0
  0
LINE
  5
9EA
100
AcDbEntity
  8
OBJECT
100
AcDbLine
 10
54.874676
 20
85.249401
 30
0.0
 11
54.874676
 21
84.999401
 31
0.0
  0
LINE
  5
9EB
100
AcDbEntity
  8
OBJECT
100
AcDbLine
 10
54.750802
 20
83.754546
 30
0.0
 11
54.750802
 21
84.160546
 31
0.0
  0
LINE
  5
9EC
100
AcDbEntity
  8
OBJECT
100
AcDbLine
 10
54.919202
 20
84.999401
 30
0.0
 11
54.919202
 21
84.160546
 31
0.0
  0
LINE
  5
9ED
100
AcDbEntity
  8
OBJECT
100
AcDbLine
 10
58.650981
 20
81.252546
 30
0.0
 11
58.650981
 21
82.912546
 31
0.0
  0
LINE
  5
9EE
100
AcDbEntity
  8
OBJECT
100
AcDbLine
 10
58.617706
 20
80.862988
 30
0.0
 11
58.617706
 21
83.346988
 31
0.0
  0
LINE
  5
9EF
100
AcDbEntity
  8
OBJECT
100
AcDbLine
 10
57.821158
 20
83.269546
 30
0.0
 11
57.551314
 21
82.613546
 31
0.0
  0
ARC
  5
9F0
100
AcDbEntity
  8
OBJECT
100
AcDbCircle
 10
57.134467
 20
82.082546
 30
0.0
 40
0.970904
100
AcDbArc
 50
113.481846
 51
246.518154
  0
LINE
  5
9F1
100
AcDbEntity
  8
OBJECT
100
AcDbLine
 10
56.863314
 20
81.129546
 30
0.0
 11
56.863314
 21
83.566546
 31
0.0
  0
ARC
  5
9F2
100
AcDbEntity
  8
OBJECT
100
AcDbCircle
 10
60.525807
 20
82.082546
 30
0.0
 40
2.911022
100
AcDbArc
 50
157.595833
 51
202.404167
  0
LINE
  5
9F3
100
AcDbEntity
  8
OBJECT
100
AcDbLine
 10
57.906802
 20
80.598546
 30
0.0
 11
57.906802
 21
83.566546
 31
0.0
  0
LINE
  5
9F4
100
AcDbEntity
  8
OBJECT
100
AcDbLine
 10
57.551314
 20
80.441546
 30
0.0
 11
57.551314
 21
83.566546
 31
0.0
  0
LINE
  5
9F5
100
AcDbEntity
  8
OBJECT
100
AcDbLine
 10
60.970981
 20
81.252546
 30
0.0
 11
61.205281
 21
81.252546
 31
0.0
  0
LINE
  5
9F6
100
AcDbEntity
  8
OBJECT
100
AcDbLine
 10
56.579202
 20
80.598546
 30
0.0
 11
56.579202
 21
78.714062
 31
0.0
  0
ARC
  5
9F7
100
AcDbEntity
  8
OBJECT
100
AcDbCircle
 10
57.069202
 20
78.871192
 30
0.0
 40
1.146217
100
AcDbArc
 50
234.843805
 51
266.49874
  0
LINE
  5
9F8
100
AcDbEntity
  8
OBJECT
100
AcDbLine
 10
56.831702
 20
77.584062
 30
0.0
 11
56.831702
 21
76.022062
 31
0.0
  0
LINE
  5
9F9
100
AcDbEntity
  8
OBJECT
100
AcDbLine
 10
56.999202
 20
77.727115
 30
0.0
 11
56.831702
 21
77.584062
 31
0.0
  0
LINE
  5
9FA
100
AcDbEntity
  8
OBJECT
100
AcDbLine
 10
55.792896
 20
77.435229
 30
0.0
 11
55.942741
 21
77.200043
 31
0.0
  0
LINE
  5
9FB
100
AcDbEntity
  8
OBJECT
100
AcDbLine
 10
55.825005
 20
77.135901
 30
0.0
 11
55.825005
 21
76.537244
 31
0.0
  0
LINE
  5
9FC
100
AcDbEntity
  8
OBJECT
100
AcDbLine
 10
55.942741
 20
77.200043
 30
0.0
 11
55.825005
 21
77.135901
 31
0.0
  0
LINE
  5
9FD
100
AcDbEntity
  8
OBJECT
100
AcDbLine
 10
56.409202
 20
77.934062
 30
0.0
 11
56.409202
 21
78.714062
 31
0.0
  0
LINE
  5
9FE
100
AcDbEntity
  8
OBJECT
100
AcDbLine
 10
56.999202
 20
78.714062
 30
0.0
 11
56.999202
 21
77.727115
 31
0.0
  0
LINE
  5
9FF
100
AcDbEntity
  8
OBJECT
100
AcDbLine
 10
57.551314
 20
80.895546
 30
0.0
 11
57.821158
 21
80.895546
 31
0.0
  0
LINE
  5
A00
100
AcDbEntity
  8
OBJECT
100
AcDbLine
 10
57.821158
 20
80.895546
 30
0.0
 11
57.551314
 21
81.551546
 31
0.0
  0
LINE
  5
A01
100
AcDbEntity
  8
OBJECT
100
AcDbLine
 10
57.551314
 20
80.598546
 30
0.0
 11
57.906802
 21
80.598546
 31
0.0
  0
LINE
  5
A02
100
AcDbEntity
  8
OBJECT
100
AcDbLine
 10
56.747602
 20
81.192046
 30
0.0
 11
56.863314
 21
81.192046
 31
0.0
  0
LINE
  5
A03
100
AcDbEntity
  8
OBJECT
100
AcDbLine
 10
57.310602
 20
80.598546
 30
0.0
 11
57.310602
 21
80.682257
 31
0.0
  0
LINE
  5
A04
100
AcDbEntity
  8
OBJECT
100
AcDbLine
 10
56.935602
 20
80.598546
 30
0.0
 11
57.310602
 21
80.598546
 31
0.0
  0
LINE
  5
A05
100
AcDbEntity
  8
OBJECT
100
AcDbLine
 10
56.747602
 20
80.598546
 30
0.0
 11
56.747602
 21
81.192046
 31
0.0
  0
LINE
  5
A06
100
AcDbEntity
  8
OBJECT
100
AcDbLine
 10
56.935602
 20
80.598546
 30
0.0
 11
56.935602
 21
81.057257
 31
0.0
  0
LINE
  5
A07
100
AcDbEntity
  8
OBJECT
100
AcDbLine
 10
57.310602
 20
80.598546
 30
0.0
 11
57.394314
 21
80.598546
 31
0.0
  0
LINE
  5
A08
100
AcDbEntity
  8
OBJECT
100
AcDbLine
 10
57.551314
 20
80.441546
 30
0.0
 11
56.863314
 21
81.129546
 31
0.0
  0
ARC
  5
A09
100
AcDbEntity
  8
OBJECT
100
AcDbCircle
 10
56.548883
 20
82.082546
 30
0.0
 40
0.3905
100
AcDbArc
 50
36.370336
 51
323.629664
  0
LINE
  5
A0A
100
AcDbEntity
  8
OBJECT
100
AcDbLine
 10
58.156802
 20
82.604988
 30
0.0
 11
58.617706
 21
82.604988
 31
0.0
  0
LINE
  5
A0B
100
AcDbEntity
  8
OBJECT
100
AcDbLine
 10
58.156802
 20
81.604988
 30
0.0
 11
58.617706
 21
81.604988
 31
0.0
  0
LINE
  5
A0C
100
AcDbEntity
  8
OBJECT
100
AcDbLine
 10
58.156802
 20
80.862988
 30
0.0
 11
58.617706
 21
80.862988
 31
0.0
  0
LINE
  5
A0D
100
AcDbEntity
  8
OBJECT
100
AcDbLine
 10
57.834514
 20
80.973046
 30
0.0
 11
57.906802
 21
80.973046
 31
0.0
  0
LINE
  5
A0E
100
AcDbEntity
  8
OBJECT
100
AcDbLine
 10
57.821158
 20
80.895546
 30
0.0
 11
57.906802
 21
80.841832
 31
0.0
  0
LINE
  5
A0F
100
AcDbEntity
  8
OBJECT
100
AcDbLine
 10
60.970981
 20
82.912546
 30
0.0
 11
61.205281
 21
82.912546
 31
0.0
  0
LINE
  5
A10
100
AcDbEntity
  8
OBJECT
100
AcDbLine
 10
56.333721
 20
85.249401
 30
0.0
 11
56.333721
 21
86.570113
 31
0.0
  0
LINE
  5
A11
100
AcDbEntity
  8
OBJECT
100
AcDbLine
 10
57.551314
 20
83.269546
 30
0.0
 11
57.821158
 21
83.269546
 31
0.0
  0
LINE
  5
A12
100
AcDbEntity
  8
OBJECT
100
AcDbLine
 10
57.906802
 20
83.566546
 30
0.0
 11
56.863314
 21
83.566546
 31
0.0
  0
LINE
  5
A13
100
AcDbEntity
  8
OBJECT
100
AcDbLine
 10
57.623602
 20
83.754546
 30
0.0
 11
57.623602
 21
84.160546
 31
0.0
  0
LINE
  5
A14
100
AcDbEntity
  8
OBJECT
100
AcDbLine
 10
57.623602
 20
84.160546
 30
0.0
 11
57.623602
 21
83.754546
 31
0.0
  0
LINE
  5
A15
100
AcDbEntity
  8
OBJECT
100
AcDbLine
 10
57.310602
 20
83.566546
 30
0.0
 11
57.310602
 21
83.754546
 31
0.0
  0
LINE
  5
A16
100
AcDbEntity
  8
OBJECT
100
AcDbLine
 10
56.747602
 20
82.973046
 30
0.0
 11
56.863314
 21
82.973046
 31
0.0
  0
LINE
  5
A17
100
AcDbEntity
  8
OBJECT
100
AcDbLine
 10
56.747602
 20
82.973046
 30
0.0
 11
56.747602
 21
84.160546
 31
0.0
  0
LINE
  5
A18
100
AcDbEntity
  8
OBJECT
100
AcDbLine
 10
56.935602
 20
83.566546
 30
0.0
 11
56.935602
 21
84.160546
 31
0.0
  0
LINE
  5
A19
100
AcDbEntity
  8
OBJECT
100
AcDbLine
 10
57.623602
 20
83.754546
 30
0.0
 11
57.310602
 21
83.754546
 31
0.0
  0
LINE
  5
A1A
100
AcDbEntity
  8
OBJECT
100
AcDbLine
 10
56.579202
 20
84.999401
 30
0.0
 11
56.579202
 21
84.160546
 31
0.0
  0
LINE
  5
A1B
100
AcDbEntity
  8
OBJECT
100
AcDbLine
 10
58.156802
 20
83.346988
 30
0.0
 11
58.617706
 21
83.346988
 31
0.0
  0
LINE
  5
A1C
100
AcDbEntity
  8
OBJECT
100
AcDbLine
 10
57.821158
 20
83.269546
 30
0.0
 11
57.906802
 21
83.323259
 31
0.0
  0
LINE
  5
A1D
100
AcDbEntity
  8
OBJECT
100
AcDbLine
 10
57.834514
 20
83.192046
 30
0.0
 11
57.906802
 21
83.192046
 31
0.0
  0
LINE
  5
A1E
100
AcDbEntity
  8
OBJECT
100
AcDbLine
 10
58.887051
 20
85.249401
 30
0.0
 11
58.887051
 21
84.999401
 31
0.0
  0
LINE
  5
A1F
100
AcDbEntity
  8
CENTER
100
AcDbLine
 10
70.137131
 20
82.082546
 30
0.0
 11
66.067399
 21
82.082546
 31
0.0
  0
LINE
  5
A23
100
AcDbEntity
  8
OBJECT
100
AcDbLine
 10
57.724953
 20
84.352995
 30
0.0
 11
57.724953
 21
84.999401
 31
0.0
  0
LINE
  5
A24
100
AcDbEntity
  8
OBJECT
100
AcDbLine
 10
59.598446
 20
84.352995
 30
0.0
 11
59.598446
 21
87.301269
 31
0.0
  0
LINE
  5
A25
100
AcDbEntity
  8
OBJECT
100
AcDbLine
 10
57.724953
 20
87.301269
 30
0.0
 11
59.598446
 21
87.301269
 31
0.0
  0
LINE
  5
A26
100
AcDbEntity
  8
OBJECT
100
AcDbLine
 10
58.156802
 20
80.385978
 30
0.0
 11
58.156802
 21
83.665158
 31
0.0
  0
LINE
  5
A27
100
AcDbEntity
  8
OBJECT
100
AcDbLine
 10
57.906802
 20
83.665158
 30
0.0
 11
58.156802
 21
83.665158
 31
0.0
  0
LINE
  5
A28
100
AcDbEntity
  8
OBJECT
100
AcDbLine
 10
57.906802
 20
83.665158
 30
0.0
 11
57.749028
 21
83.665158
 31
0.0
  0
LINE
  5
A29
100
AcDbEntity
  8
OBJECT
100
AcDbLine
 10
57.749028
 20
83.665158
 30
0.0
 11
57.749028
 21
83.915158
 31
0.0
  0
LINE
  5
A2A
100
AcDbEntity
  8
OBJECT
100
AcDbLine
 10
57.749028
 20
83.915158
 30
0.0
 11
60.426218
 21
83.915158
 31
0.0
  0
LINE
  5
A2B
100
AcDbEntity
  8
OBJECT
100
AcDbLine
 10
60.426218
 20
83.665158
 30
0.0
 11
60.426218
 21
87.59502
 31
0.0
  0
LINE
  5
A2C
100
AcDbEntity
  8
OBJECT
100
AcDbLine
 10
60.426218
 20
87.59502
 30
0.0
 11
59.426218
 21
87.59502
 31
0.0
  0
LINE
  5
A2D
100
AcDbEntity
  8
OBJECT
100
AcDbLine
 10
59.426218
 20
87.59502
 30
0.0
 11
59.426218
 21
87.301269
 31
0.0
  0
LINE
  5
A2E
100
AcDbEntity
  8
OBJECT
100
AcDbLine
 10
57.749028
 20
83.665158
 30
0.0
 11
60.426218
 21
83.665158
 31
0.0
  0
LINE
  5
A2F
100
AcDbEntity
  8
OBJECT
100
AcDbLine
 10
57.724953
 20
84.352995
 30
0.0
 11
59.598446
 21
84.352995
 31
0.0
  0
LINE
  5
A30
100
AcDbEntity
  8
OBJECT
100
AcDbLine
 10
57.724953
 20
85.249401
 30
0.0
 11
57.724953
 21
87.301269
 31
0.0
  0
LINE
  5
A31
100
AcDbEntity
  8
OBJECT
100
AcDbLine
 10
59.426218
 20
84.352995
 30
0.0
 11
59.426218
 21
83.915158
 31
0.0
  0
LINE
  5
A33
100
AcDbEntity
  8
OBJECT
100
AcDbLine
 10
57.906802
 20
80.385978
 30
0.0
 11
58.156802
 21
80.385978
 31
0.0
  0
LINE
  5
A34
100
AcDbEntity
  8
OBJECT
 62
     2
100
AcDbLine
 39
50.0
 10
69.157758
 20
130.457546
 30
0.0
 11
69.157758
 21
130.085318
 31
0.0
  0
LINE
  5
A35
100
AcDbEntity
  8
OBJECT
 62
     2
100
AcDbLine
 39
50.0
 10
39.157758
 20
130.457546
 30
0.0
 11
39.157758
 21
130.085318
 31
0.0
  0
LINE
  5
A36
100
AcDbEntity
  8
CENTER
 62
     2
100
AcDbLine
 39
50.0
 10
66.157758
 20
130.082546
 30
0.0
 11
66.407758
 21
130.082546
 31
0.0
  0
LINE
  5
A37
100
AcDbEntity
  8
OBJECT
 62
     2
100
AcDbLine
 39
50.0
 10
69.208929
 20
129.607029
 30
0.0
 11
69.907758
 21
129.941382
 31
0.0
  0
LINE
  5
A38
100
AcDbEntity
  8
OBJECT
 62
     2
100
AcDbLine
 39
50.0
 10
69.193283
 20
130.093336
 30
0.0
 11
69.907758
 21
130.31034
 31
0.0
  0
ARC
  5
A39
100
AcDbEntity
  8
OBJECT
 62
     2
100
AcDbCircle
 39
50.0
 10
69.850256
 20
130.125861
 30
0.0
 40
0.193233
100
AcDbArc
 50
287.312204
 51
72.687796
  0
ARC
  5
A3A
100
AcDbEntity
  8
OBJECT
 62
     2
100
AcDbCircle
 39
50.0
 10
69.101031
 20
129.832546
 30
0.0
 40
0.25
100
AcDbArc
 50
270.0
 51
295.568684
  0
ARC
  5
A3B
100
AcDbEntity
  8
OBJECT
 62
     2
100
AcDbCircle
 39
50.0
 10
69.120629
 20
130.332546
 30
0.0
 40
0.25
100
AcDbArc
 50
270.0
 51
286.894855
  0
LINE
  5
A3C
100
AcDbEntity
  8
OBJECT
 62
     2
100
AcDbLine
 39
50.0
 10
66.407758
 20
130.082546
 30
0.0
 11
69.120629
 21
130.082546
 31
0.0
  0
LINE
  5
A3D
100
AcDbEntity
  8
OBJECT
 62
     2
100
AcDbLine
 39
50.0
 10
66.907758
 20
129.582546
 30
0.0
 11
69.101031
 21
129.582546
 31
0.0
  0
ARC
  5
A3E
100
AcDbEntity
  8
OBJECT
 62
     2
100
AcDbCircle
 39
50.0
 10
66.907758
 20
129.332546
 30
0.0
 40
0.25
100
AcDbArc
 50
90.0
 51
180.0
  0
ARC
  5
A3F
100
AcDbEntity
  8
OBJECT
 62
     2
100
AcDbCircle
 39
50.0
 10
66.407758
 20
129.832546
 30
0.0
 40
0.25
100
AcDbArc
 50
90.0
 51
180.0
  0
ARC
  5
A40
100
AcDbEntity
  8
OBJECT
 62
     2
100
AcDbCircle
 39
50.0
 10
41.907758
 20
129.832546
 30
0.0
 40
0.25
100
AcDbArc
 50
0.0
 51
90.0
  0
ARC
  5
A41
100
AcDbEntity
  8
OBJECT
 62
     2
100
AcDbCircle
 39
50.0
 10
41.407758
 20
129.332546
 30
0.0
 40
0.25
100
AcDbArc
 50
0.0
 51
90.0
  0
LINE
  5
A42
100
AcDbEntity
  8
OBJECT
 62
     2
100
AcDbLine
 39
50.0
 10
41.407758
 20
129.582546
 30
0.0
 11
39.214484
 21
129.582546
 31
0.0
  0
LINE
  5
A43
100
AcDbEntity
  8
OBJECT
 62
     2
100
AcDbLine
 39
50.0
 10
41.907758
 20
130.082546
 30
0.0
 11
39.194886
 21
130.082546
 31
0.0
  0
ARC
  5
A44
100
AcDbEntity
  8
OBJECT
 62
     2
100
AcDbCircle
 39
50.0
 10
39.194886
 20
130.332546
 30
0.0
 40
0.25
100
AcDbArc
 50
253.105145
 51
270.0
  0
ARC
  5
A45
100
AcDbEntity
  8
OBJECT
 62
     2
100
AcDbCircle
 39
50.0
 10
39.214484
 20
129.832546
 30
0.0
 40
0.25
100
AcDbArc
 50
244.431316
 51
270.0
  0
ARC
  5
A46
100
AcDbEntity
  8
OBJECT
 62
     2
100
AcDbCircle
 39
50.0
 10
38.465259
 20
130.125861
 30
0.0
 40
0.193233
100
AcDbArc
 50
107.312204
 51
252.687796
  0
LINE
  5
A47
100
AcDbEntity
  8
OBJECT
 62
     2
100
AcDbLine
 39
50.0
 10
39.122232
 20
130.093336
 30
0.0
 11
38.407758
 21
130.31034
 31
0.0
  0
LINE
  5
A48
100
AcDbEntity
  8
OBJECT
 62
     2
100
AcDbLine
 39
50.0
 10
39.106586
 20
129.607029
 30
0.0
 11
38.407758
 21
129.941382
 31
0.0
  0
LINE
  5
A49
100
AcDbEntity
  8
OBJECT
100
AcDbLine
 10
69.157758
 20
130.457546
 30
0.0
 11
39.157758
 21
130.457546
 31
0.0
  0
LINE
  5
A4A
100
AcDbEntity
  8
OBJECT
100
AcDbLine
 10
66.157758
 20
130.082546
 30
0.0
 11
41.907758
 21
130.082546
 31
0.0
  0
LINE
  5
A4B
100
AcDbEntity
  8
OBJECT
100
AcDbLine
 10
39.157758
 20
45.082546
 30
0.0
 11
69.157758
 21
45.082546
 31
0.0
  0
LINE
  5
A4C
100
AcDbEntity
  8
OBJECT
100
AcDbLine
 10
42.657758
 20
46.082546
 30
0.0
 11
65.657758
 21
46.082546
 31
0.0
  0
LINE
  5
A4D
100
AcDbEntity
  8
OBJECT
100
AcDbLine
 10
42.157758
 20
46.582546
 30
0.0
 11
42.157758
 21
129.832546
 31
0.0
  0
LINE
  5
A4E
100
AcDbEntity
  8
OBJECT
100
AcDbLine
 10
41.657758
 20
46.332546
 30
0.0
 11
41.657758
 21
129.332546
 31
0.0
  0
ARC
  5
A4F
100
AcDbEntity
  8
OBJECT
100
AcDbCircle
 10
42.657758
 20
46.582546
 30
0.0
 40
0.5
100
AcDbArc
 50
180.0
 51
270.0
  0
LINE
  5
A50
100
AcDbEntity
  8
OBJECT
100
AcDbLine
 10
39.157758
 20
45.832546
 30
0.0
 11
41.157758
 21
45.832546
 31
0.0
  0
ARC
  5
A51
100
AcDbEntity
  8
OBJECT
100
AcDbCircle
 10
41.157758
 20
46.332546
 30
0.0
 40
0.5
100
AcDbArc
 50
270.0
 51
0.0
  0
LINE
  5
A52
100
AcDbEntity
  8
OBJECT
100
AcDbLine
 10
66.157758
 20
46.582546
 30
0.0
 11
66.157758
 21
129.832546
 31
0.0
  0
LINE
  5
A53
100
AcDbEntity
  8
OBJECT
100
AcDbLine
 10
66.657758
 20
46.332546
 30
0.0
 11
66.657758
 21
129.332546
 31
0.0
  0
ARC
  5
A54
100
AcDbEntity
  8
OBJECT
100
AcDbCircle
 10
65.657758
 20
46.582546
 30
0.0
 40
0.5
100
AcDbArc
 50
270.0
 51
0.0
  0
ARC
  5
A55
100
AcDbEntity
  8
OBJECT
100
AcDbCircle
 10
67.157758
 20
46.332546
 30
0.0
 40
0.5
100
AcDbArc
 50
180.0
 51
270.0
  0
LINE
  5
A56
100
AcDbEntity
  8
OBJECT
100
AcDbLine
 10
69.157758
 20
45.832546
 30
0.0
 11
67.157758
 21
45.832546
 31
0.0
  0
LINE
  5
A57
100
AcDbEntity
  8
OBJECT
100
AcDbLine
 10
39.157758
 20
45.082546
 30
0.0
 11
39.157758
 21
45.832546
 31
0.0
  0
LINE
  5
A58
100
AcDbEntity
  8
OBJECT
100
AcDbLine
 10
69.157758
 20
45.082546
 30
0.0
 11
69.157758
 21
45.832546
 31
0.0
  0
LINE
  5
A59
100
AcDbEntity
  8
OBJECT
100
AcDbLine
 10
59.3192
 20
117.910613
 30
0.0
 11
58.0042
 21
117.910613
 31
0.0
  0
LINE
  5
A5C
100
AcDbEntity
  8
OBJECT
100
AcDbLine
 10
61.361012
 20
124.082546
 30
0.0
 11
61.361012
 21
123.707546
 31
0.0
  0
LINE
  5
A5D
100
AcDbEntity
  8
OBJECT
100
AcDbLine
 10
63.992104
 20
88.378131
 30
0.0
 11
63.992104
 21
117.805
 31
0.0
  0
LINE
  5
A5E
100
AcDbEntity
  8
OBJECT
100
AcDbLine
 10
63.617104
 20
88.378131
 30
0.0
 11
63.617104
 21
117.805
 31
0.0
  0
LINE
  5
A5F
100
AcDbEntity
  8
CENTER
 62
     3
100
AcDbLine
 39
20.0
 10
66.907758
 20
82.082546
 30
0.0
 11
65.657758
 21
82.082546
 31
0.0
  0
LINE
  5
A60
100
AcDbEntity
  8
OBJECT
100
AcDbLine
 10
66.057758
 20
80.277546
 30
0.0
 11
65.857758
 21
80.477546
 31
0.0
  0
LINE
  5
A61
100
AcDbEntity
  8
DIM
 62
     2
100
AcDbLine
 39
20.0
 10
66.157758
 20
80.277546
 30
0.0
 11
66.157758
 21
83.887546
 31
0.0
  0
LINE
  5
A62
100
AcDbEntity
  8
DIM
 62
     2
100
AcDbLine
 39
20.0
 10
66.057758
 20
80.277546
 30
0.0
 11
66.057758
 21
83.887546
 31
0.0
  0
LINE
  5
A63
100
AcDbEntity
  8
DIM
 62
     2
100
AcDbLine
 39
20.0
 10
66.157758
 20
80.277546
 30
0.0
 11
66.057758
 21
80.277546
 31
0.0
  0
LINE
  5
A64
100
AcDbEntity
  8
DIM
 62
     2
100
AcDbLine
 39
20.0
 10
66.157758
 20
83.887546
 30
0.0
 11
66.057758
 21
83.887546
 31
0.0
  0
LINE
  5
A65
100
AcDbEntity
  8
DIM
 62
     2
100
AcDbLine
 39
20.0
 10
65.857758
 20
80.477546
 30
0.0
 11
65.857758
 21
83.687546
 31
0.0
  0
LINE
  5
A66
100
AcDbEntity
  8
DIM
 62
     2
100
AcDbLine
 39
20.0
 10
66.657758
 20
80.652546
 30
0.0
 11
66.157758
 21
80.652546
 31
0.0
  0
LINE
  5
A67
100
AcDbEntity
  8
DIM
 62
     2
100
AcDbLine
 39
20.0
 10
66.657758
 20
80.652546
 30
0.0
 11
66.657758
 21
83.512546
 31
0.0
  0
LINE
  5
A68
100
AcDbEntity
  8
DIM
 62
     2
100
AcDbLine
 39
20.0
 10
66.657758
 20
83.512546
 30
0.0
 11
66.157758
 21
83.512546
 31
0.0
  0
LINE
  5
A69
100
AcDbEntity
  8
OBJECT
100
AcDbLine
 10
66.057758
 20
83.887546
 30
0.0
 11
65.857758
 21
83.687546
 31
0.0
  0
TEXT
  5
A6A
100
AcDbEntity
  8
0
  6
BYBLOCK
 62
     0
100
AcDbText
 10
1757.776624
 20
1793.128252
 30
0.0
 40
18.75
  1
   
  7
ROMANS
 72
     1
 11
1785.901624
 21
1802.503252
 31
0.0
100
AcDbText
 73
     2
  0
TEXT
  5
A6C
100
AcDbEntity
  8
0
  6
BYBLOCK
 62
     0
100
AcDbText
 10
1349.843024
 20
2440.436845
 30
0.0
 40
18.75
  1
  
  7
ROMANS
 72
     1
 11
1368.593024
 21
2449.811845
 31
0.0
100
AcDbText
 73
     2
  0
TEXT
  5
A6D
100
AcDbEntity
  8
0
  6
BYBLOCK
 62
     0
100
AcDbText
 10
1349.610074
 20
2327.936845
 30
0.0
 40
18.75
  1
  
  7
ROMANS
 72
     1
 11
1368.360074
 21
2337.311845
 31
0.0
100
AcDbText
 73
     2
  0
TEXT
  5
A6E
100
AcDbEntity
  8
0
  6
BYBLOCK
 62
     0
100
AcDbText
 10
840.206484
 20
1971.890495
 30
0.0
 40
18.75
  1
  
  7
ROMANS
 72
     1
 11
858.956484
 21
1981.265495
 31
0.0
100
AcDbText
 73
     2
  0
LINE
  5
A93
100
AcDbEntity
  8
OBJECT
100
AcDbLine
 10
61.361012
 20
123.707546
 30
0.0
 11
62.947958
 21
123.707546
 31
0.0
  0
LINE
  5
A94
100
AcDbEntity
  8
OBJECT
100
AcDbLine
 10
61.361012
 20
124.082546
 30
0.0
 11
62.748137
 21
124.082546
 31
0.0
  0
LINE
  5
A95
100
AcDbEntity
  8
OBJECT
100
AcDbLine
 10
58.0042
 20
87.301269
 30
0.0
 11
58.0042
 21
117.910613
 31
0.0
  0
LINE
  5
A96
100
AcDbEntity
  8
OBJECT
100
AcDbLine
 10
59.3192
 20
87.301269
 30
0.0
 11
59.3192
 21
117.910613
 31
0.0
  0
LINE
  5
A97
100
AcDbEntity
  8
DIM
100
AcDbLine
 10
75.209465
 20
114.587557
 30
0.0
 11
76.409465
 21
114.587557
 31
0.0
  0
TEXT
  5
A98
100
AcDbEntity
  8
DIM
100
AcDbText
 10
77.609465
 20
113.977557
 30
0.0
 40
1.22
  1
1 1/2" Sch40 PVC
  7
ROMAND
 11
77.609465
 21
114.587557
 31
0.0
100
AcDbText
 73
     2
  0
TEXT
  5
A99
100
AcDbEntity
  8
DIM
100
AcDbText
 10
77.609465
 20
111.94833
 30
0.0
 40
1.22
  1
Guiderail
  7
ROMAND
 11
77.609465
 21
112.55833
 31
0.0
100
AcDbText
 73
     2
  0
TEXT
  5
A9A
100
AcDbEntity
  8
DIM
100
AcDbText
 10
77.609465
 20
105.607052
 30
0.0
 40
1.22
  1
3/8" 304 Stainless Steel
  7
ROMAND
 11
77.609465
 21
106.217052
 31
0.0
100
AcDbText
 73
     2
  0
TEXT
  5
A9B
100
AcDbEntity
  8
DIM
100
AcDbText
 10
77.609465
 20
103.577824
 30
0.0
 40
1.22
  1
Valve Extension Handle
  7
ROMAND
 11
77.609465
 21
104.187824
 31
0.0
100
AcDbText
 73
     2
  0
LINE
  5
A9C
100
AcDbEntity
  8
DIM
100
AcDbLine
 10
75.209465
 20
106.217052
 30
0.0
 11
76.409465
 21
106.217052
 31
0.0
  0
TEXT
  5
A9D
100
AcDbEntity
  8
DIM
100
AcDbText
 10
77.609465
 20
123.612913
 30
0.0
 40
1.22
  1
Steel Lifting Cable
  7
ROMAND
 11
77.609465
 21
124.222913
 31
0.0
100
AcDbText
 73
     2
  0
TEXT
  5
A9E
100
AcDbEntity
  8
DIM
100
AcDbText
 10
77.609465
 20
125.64214
 30
0.0
 40
1.22
  1
3/16" 304 Stainless
  7
ROMAND
 11
77.609465
 21
126.25214
 31
0.0
100
AcDbText
 73
     2
  0
LINE
  5
A9F
100
AcDbEntity
  8
DIM
100
AcDbLine
 10
75.209465
 20
126.25214
 30
0.0
 11
76.409465
 21
126.25214
 31
0.0
  0
TEXT
  5
AA0
100
AcDbEntity
  8
DIM
100
AcDbText
 10
77.609465
 20
96.974228
 30
0.0
 40
1.22
  1
1 1/4" Sch80 PVC
  7
ROMAND
 11
77.609465
 21
97.584228
 31
0.0
100
AcDbText
 73
     2
  0
TEXT
  5
AA1
100
AcDbEntity
  8
DIM
100
AcDbText
 10
77.609465
 20
94.945001
 30
0.0
 40
1.22
  1
Gate Valve
  7
ROMAND
 11
77.609465
 21
95.555001
 31
0.0
100
AcDbText
 73
     2
  0
LINE
  5
AA2
100
AcDbEntity
  8
DIM
100
AcDbLine
 10
75.209465
 20
97.584228
 30
0.0
 11
76.409465
 21
97.584228
 31
0.0
  0
TEXT
  5
AA3
100
AcDbEntity
  8
DIM
100
AcDbText
 10
77.609465
 20
88.29864
 30
0.0
 40
1.22
  1
1 1/4" Discharge 
  7
ROMAND
 11
77.609465
 21
88.90864
 31
0.0
100
AcDbText
 73
     2
  0
TEXT
  5
AA4
100
AcDbEntity
  8
DIM
100
AcDbText
 10
77.609465
 20
86.269412
 30
0.0
 40
1.22
  1
Grommet
  7
ROMAND
 11
77.609465
 21
86.879412
 31
0.0
100
AcDbText
 73
     2
  0
LINE
  5
AA5
100
AcDbEntity
  8
DIM
100
AcDbLine
 10
75.209465
 20
88.90864
 30
0.0
 11
76.409465
 21
88.90864
 31
0.0
  0
LINE
  5
AA6
100
AcDbEntity
  8
OBJECT
 62
     2
100
AcDbLine
 10
62.304604
 20
85.257546
 30
0.0
 11
62.304604
 21
86.257546
 31
0.0
  0
LINE
  5
AA7
100
AcDbEntity
  8
OBJECT
 62
     2
100
AcDbLine
 10
65.304604
 20
85.257546
 30
0.0
 11
65.304604
 21
86.257546
 31
0.0
  0
LINE
  5
AA8
100
AcDbEntity
  8
OBJECT
 62
     2
100
AcDbLine
 10
62.239604
 20
83.257546
 30
0.0
 11
63.079604
 21
83.257546
 31
0.0
  0
LINE
  5
AA9
100
AcDbEntity
  8
OBJECT
 62
     2
100
AcDbLine
 10
62.239604
 20
80.907546
 30
0.0
 11
63.079604
 21
80.907546
 31
0.0
  0
LINE
  5
AAA
100
AcDbEntity
  8
OBJECT
 62
     2
100
AcDbLine
 10
62.304604
 20
85.257546
 30
0.0
 11
65.304604
 21
85.257546
 31
0.0
  0
LINE
  5
AAB
100
AcDbEntity
  8
OBJECT
 62
     2
100
AcDbLine
 10
62.389604
 20
83.257546
 30
0.0
 11
62.389604
 21
85.257546
 31
0.0
  0
LINE
  5
AAC
100
AcDbEntity
  8
OBJECT
 62
     2
100
AcDbLine
 10
62.239604
 20
80.907546
 30
0.0
 11
62.239604
 21
83.257546
 31
0.0
  0
LINE
  5
AAD
100
AcDbEntity
  8
OBJECT
 62
     2
100
AcDbLine
 10
65.219604
 20
83.257546
 30
0.0
 11
65.219604
 21
85.257546
 31
0.0
  0
LINE
  5
AAE
100
AcDbEntity
  8
OBJECT
 62
     2
100
AcDbLine
 10
63.079604
 20
80.707546
 30
0.0
 11
63.079604
 21
85.257546
 31
0.0
  0
LINE
  5
AAF
100
AcDbEntity
  8
OBJECT
 62
     2
100
AcDbLine
 10
64.529604
 20
80.707546
 30
0.0
 11
64.529604
 21
85.257546
 31
0.0
  0
LINE
  5
AB0
100
AcDbEntity
  8
OBJECT
 62
     2
100
AcDbLine
 10
63.079604
 20
80.707546
 30
0.0
 11
64.529604
 21
80.707546
 31
0.0
  0
LINE
  5
AB1
100
AcDbEntity
  8
OBJECT
 62
     2
100
AcDbLine
 10
65.369604
 20
80.907546
 30
0.0
 11
65.369604
 21
83.257546
 31
0.0
  0
LINE
  5
AB2
100
AcDbEntity
  8
OBJECT
 62
     2
100
AcDbLine
 10
64.529604
 20
83.257546
 30
0.0
 11
65.369604
 21
83.257546
 31
0.0
  0
LINE
  5
AB3
100
AcDbEntity
  8
OBJECT
 62
     2
100
AcDbLine
 10
64.529604
 20
80.907546
 30
0.0
 11
65.369604
 21
80.907546
 31
0.0
  0
LINE
  5
AB4
100
AcDbEntity
  8
OBJECT
 62
     2
100
AcDbLine
 10
62.879604
 20
86.857546
 30
0.0
 11
64.729604
 21
86.857546
 31
0.0
  0
LINE
  5
AB7
100
AcDbEntity
  8
OBJECT
 62
     2
100
AcDbLine
 10
62.364604
 20
86.507546
 30
0.0
 11
65.244604
 21
86.507546
 31
0.0
  0
LINE
  5
AB8
100
AcDbEntity
  8
OBJECT
 62
     2
100
AcDbLine
 10
62.304604
 20
86.257546
 30
0.0
 11
65.304604
 21
86.257546
 31
0.0
  0
LINE
  5
ABA
100
AcDbEntity
  8
OBJECT
 62
     2
100
AcDbLine
 10
62.364604
 20
86.257546
 30
0.0
 11
62.364604
 21
86.507546
 31
0.0
  0
LINE
  5
ABB
100
AcDbEntity
  8
OBJECT
 62
     2
100
AcDbLine
 10
62.879604
 20
86.507546
 30
0.0
 11
62.879604
 21
86.857546
 31
0.0
  0
LINE
  5
AC3
100
AcDbEntity
  8
OBJECT
 62
     2
100
AcDbLine
 10
65.244604
 20
86.257546
 30
0.0
 11
65.244604
 21
86.507546
 31
0.0
  0
LINE
  5
AC5
100
AcDbEntity
  8
OBJECT
 62
     2
100
AcDbLine
 10
64.729604
 20
86.507546
 30
0.0
 11
64.729604
 21
86.857546
 31
0.0
  0
LINE
  5
AC6
100
AcDbEntity
  8
OBJECT
100
AcDbLine
 10
59.550981
 20
81.277546
 30
0.0
 11
58.650981
 21
81.277546
 31
0.0
  0
LINE
  5
AC7
100
AcDbEntity
  8
OBJECT
100
AcDbLine
 10
59.550981
 20
82.887546
 30
0.0
 11
58.650981
 21
82.887546
 31
0.0
  0
LINE
  5
AC8
100
AcDbEntity
  8
OBJECT
100
AcDbLine
 10
58.850981
 20
81.277546
 30
0.0
 11
58.850981
 21
82.887546
 31
0.0
  0
LINE
  5
AC9
100
AcDbEntity
  8
OBJECT
100
AcDbLine
 10
58.650981
 20
81.277546
 30
0.0
 11
58.650981
 21
82.887546
 31
0.0
  0
LINE
  5
ACA
100
AcDbEntity
  8
OBJECT
100
AcDbLine
 10
59.750981
 20
81.097546
 30
0.0
 11
60.970981
 21
81.097546
 31
0.0
  0
LINE
  5
ACB
100
AcDbEntity
  8
OBJECT
100
AcDbLine
 10
59.750981
 20
83.067546
 30
0.0
 11
60.970981
 21
83.067546
 31
0.0
  0
LINE
  5
ACC
100
AcDbEntity
  8
OBJECT
100
AcDbLine
 10
59.750981
 20
82.507888
 30
0.0
 11
59.550981
 21
82.507888
 31
0.0
  0
LINE
  5
ACD
100
AcDbEntity
  8
OBJECT
100
AcDbLine
 10
59.750981
 20
82.804339
 30
0.0
 11
59.550981
 21
82.804339
 31
0.0
  0
LINE
  5
ACE
100
AcDbEntity
  8
OBJECT
100
AcDbLine
 10
59.750981
 20
81.360753
 30
0.0
 11
59.550981
 21
81.360753
 31
0.0
  0
LINE
  5
ACF
100
AcDbEntity
  8
OBJECT
100
AcDbLine
 10
59.750981
 20
81.657203
 30
0.0
 11
59.550981
 21
81.657203
 31
0.0
  0
LINE
  5
AD0
100
AcDbEntity
  8
OBJECT
100
AcDbLine
 10
59.750981
 20
82.082546
 30
0.0
 11
59.550981
 21
82.082546
 31
0.0
  0
LINE
  5
AD1
100
AcDbEntity
  8
OBJECT
100
AcDbLine
 10
59.750981
 20
83.117546
 30
0.0
 11
59.550981
 21
83.117546
 31
0.0
  0
LINE
  5
AD2
100
AcDbEntity
  8
OBJECT
100
AcDbLine
 10
59.750981
 20
81.047546
 30
0.0
 11
59.550981
 21
81.047546
 31
0.0
  0
LINE
  5
AD3
100
AcDbEntity
  8
OBJECT
100
AcDbLine
 10
59.450981
 20
81.277546
 30
0.0
 11
59.450981
 21
82.887546
 31
0.0
  0
LINE
  5
AD4
100
AcDbEntity
  8
OBJECT
100
AcDbLine
 10
59.250981
 20
81.277546
 30
0.0
 11
59.250981
 21
82.887546
 31
0.0
  0
LINE
  5
AD5
100
AcDbEntity
  8
OBJECT
100
AcDbLine
 10
59.050981
 20
81.277546
 30
0.0
 11
59.050981
 21
82.887546
 31
0.0
  0
LINE
  5
AD6
100
AcDbEntity
  8
OBJECT
100
AcDbLine
 10
59.550981
 20
81.047546
 30
0.0
 11
59.550981
 21
83.117546
 31
0.0
  0
LINE
  5
AD7
100
AcDbEntity
  8
OBJECT
100
AcDbLine
 10
59.750981
 20
81.047546
 30
0.0
 11
59.750981
 21
83.117546
 31
0.0
  0
LINE
  5
AD8
100
AcDbEntity
  8
OBJECT
100
AcDbLine
 10
60.970981
 20
83.067546
 30
0.0
 11
60.970981
 21
81.097546
 31
0.0
  0
LINE
  5
AD9
100
AcDbEntity
  8
OBJECT
100
AcDbLine
 10
65.369604
 20
82.912546
 30
0.0
 11
65.857758
 21
82.912546
 31
0.0
  0
LINE
  5
ADA
100
AcDbEntity
  8
OBJECT
100
AcDbLine
 10
65.369604
 20
81.252546
 30
0.0
 11
65.857758
 21
81.252546
 31
0.0
  0
LINE
  5
ADB
100
AcDbEntity
  8
OBJECT
100
AcDbLine
 10
66.657758
 20
81.252546
 30
0.0
 11
69.210912
 21
81.252546
 31
0.0
  0
LINE
  5
ADC
100
AcDbEntity
  8
OBJECT
100
AcDbLine
 10
66.657758
 20
82.912546
 30
0.0
 11
69.210912
 21
82.912546
 31
0.0
  0
LINE
  5
ADD
100
AcDbEntity
  8
OBJECT
100
AcDbLine
 10
69.210912
 20
82.912546
 30
0.0
 11
69.210912
 21
81.252546
 31
0.0
  0
ARC
  5
ADF
100
AcDbEntity
  8
ELEV
 62
     3
100
AcDbCircle
 39
11.25
 10
91.656866
 20
53.816482
 30
0.0
 40
1.545225
100
AcDbArc
 50
270.0
 51
0.0
  0
ARC
  5
AE0
100
AcDbEntity
  8
ELEV
 62
     3
100
AcDbCircle
 39
11.25
 10
91.656866
 20
53.816482
 30
0.0
 40
1.545225
100
AcDbArc
 50
180.0
 51
270.0
  0
ARC
  5
AE1
100
AcDbEntity
  8
ELEV
 62
     3
100
AcDbCircle
 39
11.25
 10
91.656866
 20
76.745939
 30
0.0
 40
1.545225
100
AcDbArc
 50
270.0
 51
0.0
  0
ARC
  5
AE2
100
AcDbEntity
  8
ELEV
 62
     3
100
AcDbCircle
 39
11.25
 10
91.656866
 20
76.745939
 30
0.0
 40
1.545225
100
AcDbArc
 50
0.0
 51
90.0
  0
ARC
  5
AE3
100
AcDbEntity
  8
ELEV
 62
     3
100
AcDbCircle
 39
11.25
 10
91.656866
 20
76.745939
 30
0.0
 40
1.545225
100
AcDbArc
 50
90.0
 51
180.0
  0
ARC
  5
AE4
100
AcDbEntity
  8
ELEV
 62
     3
100
AcDbCircle
 39
11.25
 10
91.656866
 20
76.745939
 30
0.0
 40
1.545225
100
AcDbArc
 50
180.0
 51
270.0
  0
ARC
  5
AE5
100
AcDbEntity
  8
ELEV
 62
     3
100
AcDbCircle
 39
11.25
 10
91.656866
 20
65.62089
 30
0.0
 40
1.545225
100
AcDbArc
 50
270.0
 51
0.0
  0
ARC
  5
AE6
100
AcDbEntity
  8
ELEV
 62
     3
100
AcDbCircle
 39
11.25
 10
91.656866
 20
65.62089
 30
0.0
 40
1.545225
100
AcDbArc
 50
0.0
 51
90.0
  0
ARC
  5
AE7
100
AcDbEntity
  8
ELEV
 62
     3
100
AcDbCircle
 39
11.25
 10
91.656866
 20
65.62089
 30
0.0
 40
1.545225
100
AcDbArc
 50
90.0
 51
180.0
  0
ARC
  5
AE8
100
AcDbEntity
  8
ELEV
 62
     3
100
AcDbCircle
 39
11.25
 10
91.656866
 20
65.62089
 30
0.0
 40
1.545225
100
AcDbArc
 50
180.0
 51
270.0
  0
ARC
  5
AE9
100
AcDbEntity
  8
ELEV
 62
     3
100
AcDbCircle
 39
11.25
 10
91.656866
 20
53.816482
 30
0.0
 40
1.545225
100
AcDbArc
 50
0.0
 51
90.0
  0
ARC
  5
AEA
100
AcDbEntity
  8
ELEV
 62
     3
100
AcDbCircle
 39
11.25
 10
91.656866
 20
53.816482
 30
0.0
 40
1.545225
100
AcDbArc
 50
90.0
 51
180.0
  0
LINE
  5
AEF
100
AcDbEntity
  8
OBJECT
  6
CONTINUOUS
 62
     2
100
AcDbLine
 39
50.0
 10
53.272838
 20
78.287601
 30
0.0
 11
53.241347
 21
78.297407
 31
0.0
  0
LINE
  5
AF1
100
AcDbEntity
  8
OBJECT
  6
CONTINUOUS
 62
     2
100
AcDbLine
 39
50.0
 10
53.241347
 20
78.297407
 30
0.0
 11
53.23462
 21
78.275805
 31
0.0
  0
LINE
  5
AFD
100
AcDbEntity
  8
OBJECT
  6
CONTINUOUS
 62
     2
100
AcDbLine
 39
50.0
 10
53.352712
 20
51.90107
 30
0.0
 11
53.352702
 21
51.901059
 31
0.0
  0
LINE
  5
B03
100
AcDbEntity
  8
ELEV
 62
     3
100
AcDbLine
 10
90.111641
 20
76.745939
 30
0.0
 11
54.282758
 21
76.745939
 31
0.0
  0
LINE
  5
B04
100
AcDbEntity
  8
ELEV
 62
     3
100
AcDbLine
 10
90.111641
 20
65.62089
 30
0.0
 11
54.282758
 21
65.62089
 31
0.0
  0
LINE
  5
B05
100
AcDbEntity
  8
ELEV
 62
     3
100
AcDbLine
 10
90.111641
 20
53.816482
 30
0.0
 11
54.282758
 21
53.816482
 31
0.0
  0
TEXT
  5
B06
100
AcDbEntity
  8
ELEV
 62
     3
100
AcDbText
 10
74.474082
 20
52.397776
 30
0.0
 40
1.125
  1
Pump Off
  7
ROMAND
100
AcDbText
  0
TEXT
  5
B07
100
AcDbEntity
  8
ELEV
 62
     3
100
AcDbText
 10
74.474082
 20
75.327233
 30
0.0
 40
1.125
  1
High Level Alarm
  7
ROMAND
100
AcDbText
  0
TEXT
  5
B08
100
AcDbEntity
  8
ELEV
 62
     3
100
AcDbText
 10
74.474082
 20
64.202184
 30
0.0
 40
1.125
  1
Pump On
  7
ROMAND
100
AcDbText
  0
LINE
  5
B09
100
AcDbEntity
  8
ELEV
 62
     3
100
AcDbLine
 10
91.656866
 20
65.62089
 30
0.0
 11
91.656866
 21
63.513165
 31
0.0
  0
LINE
  5
B0A
100
AcDbEntity
  8
ELEV
 62
     3
100
AcDbLine
 10
91.656866
 20
53.816482
 30
0.0
 11
93.764592
 21
53.816482
 31
0.0
  0
INSERT
  5
B0B
100
AcDbEntity
  8
ELEV
 62
     3
100
AcDbBlockReference
  2
*X1
 10
154.768792
 20
2.031317
 30
0.0
 41
-0.5625
 42
0.5625
 43
0.5625
1001
ACAD
1000
HATCH
1002
{
1070
    16
1000
ANSI37
1040
0.75
1040
0.0
1002
}
  0
TEXT
  5
B0C
100
AcDbEntity
  8
ELEV
 62
     3
100
AcDbText
 10
74.474082
 20
54.219205
 30
0.0
 40
1.125
  1
Elev
  7
ROMAND
100
AcDbText
  0
INSERT
  5
B0D
100
AcDbEntity
  8
ELEV
 62
     3
100
AcDbBlockReference
  2
*X0
 10
154.768792
 20
2.031317
 30
0.0
 41
-0.5625
 42
0.5625
 43
0.5625
1001
ACAD
1000
HATCH
1002
{
1070
    16
1000
ANSI37
1040
0.75
1040
0.0
1002
}
  0
LINE
  5
B0E
100
AcDbEntity
  8
ELEV
 62
     3
100
AcDbLine
 10
91.656866
 20
53.816482
 30
0.0
 11
91.656866
 21
51.708757
 31
0.0
  0
LINE
  5
B0F
100
AcDbEntity
  8
ELEV
 62
     3
100
AcDbLine
 10
91.656866
 20
53.816482
 30
0.0
 11
90.111641
 21
53.816482
 31
0.0
  0
LINE
  5
B10
100
AcDbEntity
  8
ELEV
 62
     3
100
AcDbLine
 10
91.656866
 20
53.816482
 30
0.0
 11
91.656866
 21
55.924208
 31
0.0
  0
INSERT
  5
B11
100
AcDbEntity
  8
ELEV
 62
     3
100
AcDbBlockReference
  2
*X1
 10
154.768792
 20
13.835725
 30
0.0
 41
-0.5625
 42
0.5625
 43
0.5625
1001
ACAD
1000
HATCH
1002
{
1070
    16
1000
ANSI37
1040
0.75
1040
0.0
1002
}
  0
LINE
  5
B12
100
AcDbEntity
  8
ELEV
 62
     3
100
AcDbLine
 10
91.656866
 20
65.62089
 30
0.0
 11
93.764592
 21
65.62089
 31
0.0
  0
LINE
  5
B13
100
AcDbEntity
  8
ELEV
 62
     3
100
AcDbLine
 10
91.656866
 20
76.745939
 30
0.0
 11
93.764592
 21
76.745939
 31
0.0
  0
INSERT
  5
B14
100
AcDbEntity
  8
ELEV
 62
     3
100
AcDbBlockReference
  2
*X1
 10
154.768792
 20
24.960774
 30
0.0
 41
-0.5625
 42
0.5625
 43
0.5625
1001
ACAD
1000
HATCH
1002
{
1070
    16
1000
ANSI37
1040
0.75
1040
0.0
1002
}
  0
LINE
  5
B15
100
AcDbEntity
  8
ELEV
 62
     3
100
AcDbLine
 10
91.656866
 20
76.745939
 30
0.0
 11
91.656866
 21
78.853664
 31
0.0
  0
TEXT
  5
B16
100
AcDbEntity
  8
ELEV
 62
     3
100
AcDbText
 10
74.474082
 20
66.023612
 30
0.0
 40
1.125
  1
Elev
  7
ROMAND
100
AcDbText
  0
LINE
  5
B17
100
AcDbEntity
  8
ELEV
 62
     3
100
AcDbLine
 10
91.656866
 20
65.62089
 30
0.0
 11
91.656866
 21
67.728615
 31
0.0
  0
INSERT
  5
B18
100
AcDbEntity
  8
ELEV
 62
     3
100
AcDbBlockReference
  2
*X0
 10
154.768792
 20
13.835725
 30
0.0
 41
-0.5625
 42
0.5625
 43
0.5625
1001
ACAD
1000
HATCH
1002
{
1070
    16
1000
ANSI37
1040
0.75
1040
0.0
1002
}
  0
LINE
  5
B19
100
AcDbEntity
  8
ELEV
 62
     3
100
AcDbLine
 10
91.656866
 20
65.62089
 30
0.0
 11
90.111641
 21
65.62089
 31
0.0
  0
LINE
  5
B1A
100
AcDbEntity
  8
ELEV
 62
     3
100
AcDbLine
 10
91.656866
 20
76.745939
 30
0.0
 11
90.111641
 21
76.745939
 31
0.0
  0
INSERT
  5
B1B
100
AcDbEntity
  8
ELEV
 62
     3
100
AcDbBlockReference
  2
*X0
 10
154.768792
 20
24.960774
 30
0.0
 41
-0.5625
 42
0.5625
 43
0.5625
1001
ACAD
1000
HATCH
1002
{
1070
    16
1000
ANSI37
1040
0.75
1040
0.0
1002
}
  0
LINE
  5
B1C
100
AcDbEntity
  8
ELEV
 62
     3
100
AcDbLine
 10
91.656866
 20
76.745939
 30
0.0
 11
91.656866
 21
74.638214
 31
0.0
  0
TEXT
  5
B1D
100
AcDbEntity
  8
ELEV
 62
     3
100
AcDbText
 10
74.474082
 20
77.148661
 30
0.0
 40
1.125
  1
Elev
  7
ROMAND
100
AcDbText
  0
LINE
  5
B26
100
AcDbEntity
  8
OBJECT
100
AcDbLine
 10
54.282758
 20
78.423233
 30
0.0
 11
54.201866
 21
78.163457
 31
0.0
  0
LINE
  5
B28
100
AcDbEntity
  8
DIM
100
AcDbLine
 10
29.57378
 20
81.114741
 30
0.0
 11
28.37378
 21
81.114741
 31
0.0
  0
LINE
  5
B2A
100
AcDbEntity
  8
DIM
100
AcDbLine
 10
29.57378
 20
81.114741
 30
0.0
 11
28.37378
 21
81.114741
 31
0.0
  0
TEXT
  5
B2B
100
AcDbEntity
  8
DIM
100
AcDbText
 10
-0.770029
 20
80.504741
 30
0.0
 40
1.22
  1
1 1/4" Sch40 304 Stainless
  7
ROMAND
 72
     2
 11
27.17378
 21
81.114741
 31
0.0
100
AcDbText
 73
     2
  0
TEXT
  5
B2C
100
AcDbEntity
  8
DIM
100
AcDbText
 10
7.479494
 20
78.484002
 30
0.0
 40
1.22
  1
Steel Discharge Pipe
  7
ROMAND
 72
     2
 11
27.17378
 21
79.094002
 31
0.0
100
AcDbText
 73
     2
  0
TEXT
  5
B2D
100
AcDbEntity
  8
DIM
100
AcDbText
 10
11.139494
 20
87.893073
 30
0.0
 40
1.22
  1
Ball Check Valve
  7
ROMAND
 72
     2
 11
27.17378
 21
88.503073
 31
0.0
100
AcDbText
 73
     2
  0
TEXT
  5
B2E
100
AcDbEntity
  8
DIM
100
AcDbText
 10
5.620447
 20
89.913813
 30
0.0
 40
1.22
  1
1 1/4" NPT Cast Iron
  7
ROMAND
 72
     2
 11
27.17378
 21
90.523813
 31
0.0
100
AcDbText
 73
     2
  0
LINE
  5
B2F
100
AcDbEntity
  8
DIM
100
AcDbLine
 10
29.57378
 20
90.523813
 30
0.0
 11
28.37378
 21
90.523813
 31
0.0
  0
LINE
  5
B30
100
AcDbEntity
  8
DIM
100
AcDbLine
 10
29.57378
 20
90.523813
 30
0.0
 11
28.37378
 21
90.523813
 31
0.0
  0
TEXT
  5
B31
100
AcDbEntity
  8
DIM
100
AcDbText
 10
11.023304
 20
97.886458
 30
0.0
 40
1.22
  1
Quick Disconnect
  7
ROMAND
 72
     2
 11
27.17378
 21
98.496458
 31
0.0
100
AcDbText
 73
     2
  0
TEXT
  5
B32
100
AcDbEntity
  8
DIM
100
AcDbText
 10
9.280447
 20
99.907197
 30
0.0
 40
1.22
  1
1 1/4" NPT Brass
  7
ROMAND
 72
     2
 11
27.17378
 21
100.517197
 31
0.0
100
AcDbText
 73
     2
  0
LINE
  5
B33
100
AcDbEntity
  8
DIM
100
AcDbLine
 10
29.57378
 20
100.517197
 30
0.0
 11
28.37378
 21
100.517197
 31
0.0
  0
LINE
  5
B34
100
AcDbEntity
  8
DIM
100
AcDbLine
 10
29.57378
 20
100.517197
 30
0.0
 11
28.37378
 21
100.517197
 31
0.0
  0
LWPOLYLINE
  5
B35
100
AcDbEntity
  8
DIM
100
AcDbPolyline
 90
       17
 70
     0
 43
0.0
 10
58.965506
 20
79.45124
 10
60.179955
 20
80.45037
 10
61.180088
 20
81.021303
 10
61.537279
 20
83.09093
 10
61.322964
 20
84.30416
 10
61.465841
 20
85.446024
 10
61.180088
 20
86.73062
 10
60.037078
 20
88.15795
 10
58.179686
 20
88.229317
 10
56.393732
 20
87.301553
 10
54.679217
 20
87.301553
 10
52.893263
 20
86.73062
 10
52.393197
 20
84.375527
 10
54.250588
 20
81.592234
 10
54.250588
 20
80.521737
 10
55.536475
 20
79.45124
 10
58.965506
 20
79.45124
  0
ARC
  5
B48
100
AcDbEntity
  8
ELEV
 62
     3
100
AcDbCircle
 39
11.25
 10
16.52821
 20
46.082546
 30
0.0
 40
1.545225
100
AcDbArc
 50
90.0
 51
180.0
  0
ARC
  5
B49
100
AcDbEntity
  8
ELEV
 62
     3
100
AcDbCircle
 39
11.25
 10
16.52821
 20
46.082546
 30
0.0
 40
1.545225
100
AcDbArc
 50
180.0
 51
270.0
  0
ARC
  5
B4A
100
AcDbEntity
  8
ELEV
 62
     3
100
AcDbCircle
 39
11.25
 10
16.52821
 20
46.082546
 30
0.0
 40
1.545225
100
AcDbArc
 50
270.0
 51
0.0
  0
ARC
  5
B4B
100
AcDbEntity
  8
ELEV
 62
     3
100
AcDbCircle
 39
11.25
 10
16.52821
 20
46.082546
 30
0.0
 40
1.545225
100
AcDbArc
 50
0.0
 51
90.0
  0
LINE
  5
B4C
100
AcDbEntity
  8
ELEV
 62
     3
100
AcDbLine
 10
19.291086
 20
46.082546
 30
0.0
 11
44.255865
 21
46.082546
 31
0.0
  0
LINE
  5
B4D
100
AcDbEntity
  8
ELEV
 62
     3
100
AcDbLine
 10
16.52821
 20
46.082546
 30
0.0
 11
16.52821
 21
44.53732
 31
0.0
  0
TEXT
  5
B4E
100
AcDbEntity
  8
ELEV
 62
     3
100
AcDbText
 10
18.662087
 20
46.485268
 30
0.0
 40
1.125
  1
Elev
  7
ROMAND
100
AcDbText
  0
LINE
  5
B4F
100
AcDbEntity
  8
ELEV
 62
     3
100
AcDbLine
 10
16.52821
 20
46.082546
 30
0.0
 11
16.52821
 21
47.627771
 31
0.0
  0
TEXT
  5
B50
100
AcDbEntity
  8
ELEV
 62
     3
100
AcDbText
 10
18.662087
 20
72.353779
 30
0.0
 40
1.125
  1
Inv. Elev
  7
ROMAND
100
AcDbText
  0
TEXT
  5
B51
100
AcDbEntity
  8
ELEV
 62
     3
100
AcDbText
 10
18.662087
 20
130.485268
 30
0.0
 40
1.125
  1
Elev
  7
ROMAND
100
AcDbText
  0
TEXT
  5
B52
100
AcDbEntity
  8
ELEV
 62
     3
100
AcDbText
 10
88.231131
 20
81.943833
 30
0.0
 40
1.125
  1
Inv. Elev
  7
ROMAND
100
AcDbText
  0
INSERT
  5
B53
100
AcDbEntity
  8
ELEV
100
AcDbBlockReference
  2
*X2
 10
-68.405433
 20
-9.996956
 30
0.0
 41
0.75
 42
0.75
 43
0.75
1001
ACAD
1000
HATCH
1002
{
1070
    16
1000
ANSI37
1040
1.0
1040
0.0
1002
}
  0
INSERT
  5
B54
100
AcDbEntity
  8
ELEV
100
AcDbBlockReference
  2
*X3
 10
-68.405433
 20
-9.996956
 30
0.0
 41
0.75
 42
0.75
 43
0.75
1001
ACAD
1000
HATCH
1002
{
1070
    16
1000
ANSI37
1040
1.0
1040
0.0
1002
}
  0
LINE
  5
B55
100
AcDbEntity
  8
ELEV
100
AcDbLine
 10
16.52821
 20
48.190271
 30
0.0
 11
16.52821
 21
43.97482
 31
0.0
  0
LINE
  5
B56
100
AcDbEntity
  8
ELEV
100
AcDbLine
 10
44.255865
 20
46.082546
 30
0.0
 11
14.420485
 21
46.082546
 31
0.0
  0
ARC
  5
B57
100
AcDbEntity
  8
ELEV
 62
     3
100
AcDbCircle
 39
11.25
 10
16.52821
 20
71.951057
 30
0.0
 40
1.545225
100
AcDbArc
 50
0.0
 51
90.0
  0
ARC
  5
B58
100
AcDbEntity
  8
ELEV
 62
     3
100
AcDbCircle
 39
11.25
 10
16.52821
 20
71.951057
 30
0.0
 40
1.545225
100
AcDbArc
 50
270.0
 51
0.0
  0
ARC
  5
B59
100
AcDbEntity
  8
ELEV
 62
     3
100
AcDbCircle
 39
11.25
 10
16.52821
 20
71.951057
 30
0.0
 40
1.545225
100
AcDbArc
 50
180.0
 51
270.0
  0
ARC
  5
B5A
100
AcDbEntity
  8
ELEV
 62
     3
100
AcDbCircle
 39
11.25
 10
16.52821
 20
71.951057
 30
0.0
 40
1.545225
100
AcDbArc
 50
90.0
 51
180.0
  0
LINE
  5
B5B
100
AcDbEntity
  8
ELEV
100
AcDbLine
 10
16.52821
 20
74.058782
 30
0.0
 11
16.52821
 21
69.843331
 31
0.0
  0
INSERT
  5
B5C
100
AcDbEntity
  8
ELEV
100
AcDbBlockReference
  2
*X3
 10
-68.405433
 20
15.871555
 30
0.0
 41
0.75
 42
0.75
 43
0.75
1001
ACAD
1000
HATCH
1002
{
1070
    16
1000
ANSI37
1040
1.0
1040
0.0
1002
}
  0
LINE
  5
B5D
100
AcDbEntity
  8
ELEV
 62
     3
100
AcDbLine
 10
16.52821
 20
71.951057
 30
0.0
 11
16.52821
 21
73.496282
 31
0.0
  0
INSERT
  5
B5E
100
AcDbEntity
  8
ELEV
100
AcDbBlockReference
  2
*X2
 10
-68.405433
 20
15.871555
 30
0.0
 41
0.75
 42
0.75
 43
0.75
1001
ACAD
1000
HATCH
1002
{
1070
    16
1000
ANSI37
1040
1.0
1040
0.0
1002
}
  0
LINE
  5
B5F
100
AcDbEntity
  8
ELEV
 62
     3
100
AcDbLine
 10
16.52821
 20
71.951057
 30
0.0
 11
16.52821
 21
70.405831
 31
0.0
  0
LINE
  5
B60
100
AcDbEntity
  8
ELEV
100
AcDbLine
 10
41.657758
 20
71.951057
 30
0.0
 11
14.420485
 21
71.951057
 31
0.0
  0
ARC
  5
B61
100
AcDbEntity
  8
ELEV
 62
     3
100
AcDbCircle
 39
11.25
 10
16.52821
 20
130.082546
 30
0.0
 40
1.545225
100
AcDbArc
 50
0.0
 51
90.0
  0
ARC
  5
B62
100
AcDbEntity
  8
ELEV
 62
     3
100
AcDbCircle
 39
11.25
 10
16.52821
 20
130.082546
 30
0.0
 40
1.545225
100
AcDbArc
 50
270.0
 51
0.0
  0
ARC
  5
B63
100
AcDbEntity
  8
ELEV
 62
     3
100
AcDbCircle
 39
11.25
 10
16.52821
 20
130.082546
 30
0.0
 40
1.545225
100
AcDbArc
 50
180.0
 51
270.0
  0
ARC
  5
B64
100
AcDbEntity
  8
ELEV
 62
     3
100
AcDbCircle
 39
11.25
 10
16.52821
 20
130.082546
 30
0.0
 40
1.545225
100
AcDbArc
 50
90.0
 51
180.0
  0
LINE
  5
B65
100
AcDbEntity
  8
ELEV
100
AcDbLine
 10
16.52821
 20
132.190271
 30
0.0
 11
16.52821
 21
127.97482
 31
0.0
  0
INSERT
  5
B66
100
AcDbEntity
  8
ELEV
100
AcDbBlockReference
  2
*X3
 10
-68.405433
 20
74.003044
 30
0.0
 41
0.75
 42
0.75
 43
0.75
1001
ACAD
1000
HATCH
1002
{
1070
    16
1000
ANSI37
1040
1.0
1040
0.0
1002
}
  0
LINE
  5
B67
100
AcDbEntity
  8
ELEV
 62
     3
100
AcDbLine
 10
16.52821
 20
130.082546
 30
0.0
 11
16.52821
 21
131.627771
 31
0.0
  0
INSERT
  5
B68
100
AcDbEntity
  8
ELEV
100
AcDbBlockReference
  2
*X2
 10
-68.405433
 20
74.003044
 30
0.0
 41
0.75
 42
0.75
 43
0.75
1001
ACAD
1000
HATCH
1002
{
1070
    16
1000
ANSI37
1040
1.0
1040
0.0
1002
}
  0
LINE
  5
B69
100
AcDbEntity
  8
ELEV
 62
     3
100
AcDbLine
 10
16.52821
 20
130.082546
 30
0.0
 11
16.52821
 21
128.53732
 31
0.0
  0
LINE
  5
B6A
100
AcDbEntity
  8
ELEV
100
AcDbLine
 10
44.255865
 20
130.082546
 30
0.0
 11
14.420485
 21
130.082546
 31
0.0
  0
LINE
  5
B6B
100
AcDbEntity
  8
ELEV
 62
     3
100
AcDbLine
 10
19.291086
 20
130.082546
 30
0.0
 11
36.883678
 21
130.082546
 31
0.0
  0
LINE
  5
B6C
100
AcDbEntity
  8
ELEV
 62
     3
100
AcDbLine
 10
97.642639
 20
81.399628
 30
0.0
 11
97.642639
 21
82.944854
 31
0.0
  0
INSERT
  5
B6D
100
AcDbEntity
  8
ELEV
100
AcDbBlockReference
  2
*X3
 10
182.576282
 20
25.320126
 30
0.0
 41
-0.75
 42
0.75
 43
0.75
1001
ACAD
1000
HATCH
1002
{
1070
    16
1000
ANSI37
1040
1.0
1040
0.0
1002
}
  0
LINE
  5
B6E
100
AcDbEntity
  8
ELEV
100
AcDbLine
 10
97.642639
 20
83.507354
 30
0.0
 11
97.642639
 21
79.291903
 31
0.0
  0
ARC
  5
B6F
100
AcDbEntity
  8
ELEV
 62
     3
100
AcDbCircle
 39
11.25
 10
97.642639
 20
81.399628
 30
0.0
 40
1.545225
100
AcDbArc
 50
0.0
 51
90.0
  0
ARC
  5
B70
100
AcDbEntity
  8
ELEV
 62
     3
100
AcDbCircle
 39
11.25
 10
97.642639
 20
81.399628
 30
0.0
 40
1.545225
100
AcDbArc
 50
90.0
 51
180.0
  0
ARC
  5
B71
100
AcDbEntity
  8
ELEV
 62
     3
100
AcDbCircle
 39
11.25
 10
97.642639
 20
81.399628
 30
0.0
 40
1.545225
100
AcDbArc
 50
270.0
 51
0.0
  0
ARC
  5
B72
100
AcDbEntity
  8
ELEV
 62
     3
100
AcDbCircle
 39
11.25
 10
97.642639
 20
81.399628
 30
0.0
 40
1.545225
100
AcDbArc
 50
180.0
 51
270.0
  0
LINE
  5
B73
100
AcDbEntity
  8
ELEV
 62
     3
100
AcDbLine
 10
94.879764
 20
81.399628
 30
0.0
 11
69.914985
 21
81.399628
 31
0.0
  0
LINE
  5
B74
100
AcDbEntity
  8
ELEV
100
AcDbLine
 10
69.210912
 20
81.399628
 30
0.0
 11
99.750365
 21
81.399628
 31
0.0
  0
INSERT
  5
B75
100
AcDbEntity
  8
ELEV
100
AcDbBlockReference
  2
*X2
 10
182.576282
 20
25.320126
 30
0.0
 41
-0.75
 42
0.75
 43
0.75
1001
ACAD
1000
HATCH
1002
{
1070
    16
1000
ANSI37
1040
1.0
1040
0.0
1002
}
  0
LINE
  5
B76
100
AcDbEntity
  8
ELEV
 62
     3
100
AcDbLine
 10
97.642639
 20
81.399628
 30
0.0
 11
97.642639
 21
79.854403
 31
0.0
  0
LINE
  5
B77
100
AcDbEntity
  8
DIM
100
AcDbLine
 10
41.907758
 20
130.082546
 30
0.0
 11
35.112032
 21
130.082546
 31
0.0
  0
LINE
  5
B78
100
AcDbEntity
  8
DIM
100
AcDbLine
 10
42.657758
 20
46.082546
 30
0.0
 11
35.112032
 21
46.082546
 31
0.0
  0
LINE
  5
B79
100
AcDbEntity
  8
DIM
 62
     2
100
AcDbLine
 39
20.0
 10
42.157758
 20
75.884342
 30
0.0
 11
41.657758
 21
75.884342
 31
0.0
  0
LINE
  5
B7A
100
AcDbEntity
  8
DIM
 62
     2
100
AcDbLine
 39
20.0
 10
42.157758
 20
71.338921
 30
0.0
 11
42.157758
 21
75.884342
 31
0.0
  0
LINE
  5
B7B
100
AcDbEntity
  8
DIM
 62
     2
100
AcDbLine
 39
20.0
 10
42.157758
 20
71.338921
 30
0.0
 11
41.657758
 21
71.338921
 31
0.0
  0
LINE
  5
B7C
100
AcDbEntity
  8
DIM
 62
     2
100
AcDbLine
 39
20.0
 10
41.357758
 20
71.163921
 30
0.0
 11
41.357758
 21
76.059342
 31
0.0
  0
LINE
  5
B7D
100
AcDbEntity
  8
DIM
 62
     2
100
AcDbLine
 39
20.0
 10
41.657758
 20
76.259342
 30
0.0
 11
41.557758
 21
76.259342
 31
0.0
  0
LINE
  5
B7E
100
AcDbEntity
  8
DIM
 62
     2
100
AcDbLine
 39
20.0
 10
41.657758
 20
70.963921
 30
0.0
 11
41.557758
 21
70.963921
 31
0.0
  0
LINE
  5
B7F
100
AcDbEntity
  8
DIM
 62
     2
100
AcDbLine
 39
20.0
 10
41.557758
 20
70.963921
 30
0.0
 11
41.557758
 21
76.259342
 31
0.0
  0
LINE
  5
B80
100
AcDbEntity
  8
DIM
 62
     2
100
AcDbLine
 39
20.0
 10
41.657758
 20
70.963921
 30
0.0
 11
41.657758
 21
76.259342
 31
0.0
  0
LINE
  5
B81
100
AcDbEntity
  8
CENTER
 62
     3
100
AcDbLine
 39
20.0
 10
42.407758
 20
73.611632
 30
0.0
 11
41.157758
 21
73.611632
 31
0.0
  0
LINE
  5
B82
100
AcDbEntity
  8
OBJECT
100
AcDbLine
 10
41.557758
 20
70.963921
 30
0.0
 11
41.357758
 21
71.163921
 31
0.0
  0
LINE
  5
B83
100
AcDbEntity
  8
OBJECT
100
AcDbLine
 10
41.557758
 20
76.259342
 30
0.0
 11
41.357758
 21
76.059342
 31
0.0
  0
DIMENSION
  5
C02
100
AcDbEntity
  8
DIM
100
AcDbDimension
  2
*D6
 10
72.108443
 20
82.082546
 30
0.0
 11
71.860722
 21
101.248225
 31
0.0
 70
   160
  1
  
  3
STANDARD
100
AcDbAlignedDimension
 13
68.01131
 23
130.082546
 33
0.0
 14
70.137131
 24
82.082546
 34
0.0
 50
90.0
100
AcDbRotatedDimension
1001
ACAD
1000
DSTYLE
1002
{
1070
   340
1005
28
1070
   147
1040
1.2
1070
   287
1070
     5
1070
    42
1040
0.3
1070
    44
1040
1.22
1070
    41
1040
1.2
1002
}
  0
DIMENSION
  5
C04
100
AcDbEntity
  8
DIM
100
AcDbDimension
  2
*D7
 10
37.528321
 20
119.711046
 30
0.0
 11
37.528321
 21
124.896796
 31
0.0
 70
    32
  1
  
  3
STANDARD
100
AcDbAlignedDimension
 13
41.607758
 23
130.082546
 33
0.0
 14
40.057908
 24
119.711046
 34
0.0
 50
90.0
100
AcDbRotatedDimension
1001
ACAD
1000
DSTYLE
1002
{
1070
   340
1005
28
1070
   147
1040
1.2
1070
   287
1070
     5
1070
    42
1040
0.3
1070
    44
1040
1.22
1070
    41
1040
1.2
1002
}
  0
DIMENSION
  5
C05
100
AcDbEntity
  8
DIM
100
AcDbDimension
  2
*D5
 10
33.347358
 20
46.082546
 30
0.0
 11
33.575219
 21
93.078211
 31
0.0
 70
   160
  1
  
  3
STANDARD
100
AcDbAlignedDimension
 13
42.237425
 23
130.082546
 33
0.0
 14
40.639318
 24
46.082546
 34
0.0
 50
90.0
100
AcDbRotatedDimension
1001
ACAD
1000
DSTYLE
1002
{
1070
   340
1005
28
1070
   147
1040
1.2
1070
   287
1070
     5
1070
    42
1040
0.3
1070
    44
1040
1.22
1070
    41
1040
1.2
1002
}
  0
TEXT
  5
C07
100
AcDbEntity
  8
DIM
100
AcDbText
 10
3.122351
 20
122.002267
 30
0.0
 40
1.22
  1
Enameled Steel Electrical
  7
ROMAND
 72
     2
 11
27.17378
 21
122.612267
 31
0.0
100
AcDbText
 73
     2
  0
TEXT
  5
C08
100
AcDbEntity
  8
DIM
100
AcDbText
 10
5.794732
 20
124.023007
 30
0.0
 40
1.22
  1
1 1/2" NPT Industrial
  7
ROMAND
 72
     2
 11
27.17378
 21
124.633007
 31
0.0
100
AcDbText
 73
     2
  0
LINE
  5
C09
100
AcDbEntity
  8
DIM
100
AcDbLine
 10
29.57378
 20
124.633007
 30
0.0
 11
28.37378
 21
124.633007
 31
0.0
  0
LINE
  5
C0A
100
AcDbEntity
  8
DIM
100
AcDbLine
 10
29.57378
 20
124.633007
 30
0.0
 11
28.37378
 21
124.633007
 31
0.0
  0
TEXT
  5
C0B
100
AcDbEntity
  8
DIM
100
AcDbText
 10
19.389018
 20
120.049798
 30
0.0
 40
1.22
  1
Coupling
  7
ROMAND
 72
     2
 11
27.17378
 21
120.659798
 31
0.0
100
AcDbText
 73
     2
  0
LINE
  5
C0C
100
AcDbEntity
  8
OBJECT
100
AcDbLine
 10
42.657758
 20
130.082546
 30
0.0
 11
65.657758
 21
130.082546
 31
0.0
  0
LINE
  5
C0F
100
AcDbEntity
  8
OBJECT
100
AcDbLine
 10
63.617104
 20
118.055
 30
0.0
 11
63.617104
 21
123.707546
 31
0.0
  0
LINE
  5
C10
100
AcDbEntity
  8
OBJECT
100
AcDbLine
 10
63.992104
 20
118.055
 30
0.0
 11
63.992104
 21
124.082546
 31
0.0
  0
ARC
  5
C15
100
AcDbEntity
  8
OBJECT
100
AcDbCircle
 10
56.134958
 20
155.690019
 30
0.0
 40
1.3125
100
AcDbArc
 50
61.21867
 51
298.78133
  0
ARC
  5
C16
100
AcDbEntity
  8
OBJECT
100
AcDbCircle
 10
50.447458
 20
155.690019
 30
0.0
 40
4.351181
100
AcDbArc
 50
349.757238
 51
25.183209
  0
LINE
  5
C17
100
AcDbEntity
  8
CENTER
100
AcDbLine
 10
50.447458
 20
149.994043
 30
0.0
 11
50.447458
 21
161.385996
 31
0.0
  0
ARC
  5
C18
100
AcDbEntity
  8
OBJECT
100
AcDbCircle
 10
55.037835
 20
153.97618
 30
0.0
 40
0.989451
100
AcDbArc
 50
89.84765
 51
124.830477
  0
LINE
  5
C19
100
AcDbEntity
  8
OBJECT
100
AcDbLine
 10
55.734928
 20
156.940072
 30
0.0
 11
54.056299
 21
157.687993
 31
0.0
  0
CIRCLE
  5
C1A
100
AcDbEntity
  8
OBJECT
100
AcDbCircle
 10
54.157758
 20
155.690019
 30
0.0
 40
12.0
  0
CIRCLE
  5
C1B
100
AcDbEntity
  8
OBJECT
100
AcDbCircle
 10
54.157758
 20
155.690019
 30
0.0
 40
15.0
  0
LINE
  5
C1C
100
AcDbEntity
  8
CENTER
100
AcDbLine
 10
36.059651
 20
155.690019
 30
0.0
 11
72.255865
 21
155.690019
 31
0.0
  0
LINE
  5
C1D
100
AcDbEntity
  8
CENTER
100
AcDbLine
 10
54.157758
 20
173.788126
 30
0.0
 11
54.157758
 21
137.591913
 31
0.0
  0
LINE
  5
C1F
100
AcDbEntity
  8
OBJECT
100
AcDbLine
 10
59.750981
 20
156.725019
 30
0.0
 11
59.550981
 21
156.725019
 31
0.0
  0
LINE
  5
C20
100
AcDbEntity
  8
OBJECT
100
AcDbLine
 10
59.750981
 20
155.264677
 30
0.0
 11
59.550981
 21
155.264677
 31
0.0
  0
LINE
  5
C22
100
AcDbEntity
  8
OBJECT
100
AcDbLine
 10
59.750981
 20
154.655019
 30
0.0
 11
59.550981
 21
154.655019
 31
0.0
  0
LINE
  5
C23
100
AcDbEntity
  8
OBJECT
100
AcDbLine
 10
59.750981
 20
154.968226
 30
0.0
 11
59.550981
 21
154.968226
 31
0.0
  0
LINE
  5
C24
100
AcDbEntity
  8
OBJECT
100
AcDbLine
 10
59.550981
 20
156.495019
 30
0.0
 11
58.887051
 21
156.495019
 31
0.0
  0
LINE
  5
C25
100
AcDbEntity
  8
OBJECT
100
AcDbLine
 10
59.550981
 20
154.885019
 30
0.0
 11
58.887051
 21
154.885019
 31
0.0
  0
LINE
  5
C26
100
AcDbEntity
  8
OBJECT
100
AcDbLine
 10
59.550981
 20
154.655019
 30
0.0
 11
59.550981
 21
155.597976
 31
0.0
  0
LINE
  5
C27
100
AcDbEntity
  8
OBJECT
100
AcDbLine
 10
59.050981
 20
154.885019
 30
0.0
 11
59.050981
 21
155.006972
 31
0.0
  0
LINE
  5
C28
100
AcDbEntity
  8
OBJECT
100
AcDbLine
 10
59.250981
 20
154.885019
 30
0.0
 11
59.250981
 21
155.169595
 31
0.0
  0
LINE
  5
C29
100
AcDbEntity
  8
OBJECT
100
AcDbLine
 10
59.450981
 20
154.885019
 30
0.0
 11
59.450981
 21
155.597976
 31
0.0
  0
LINE
  5
C2A
100
AcDbEntity
  8
OBJECT
100
AcDbLine
 10
59.750981
 20
154.655019
 30
0.0
 11
59.750981
 21
156.725019
 31
0.0
  0
LINE
  5
C2B
100
AcDbEntity
  8
OBJECT
100
AcDbLine
 10
59.750981
 20
156.675019
 30
0.0
 11
59.91517
 21
156.675019
 31
0.0
  0
LINE
  5
C2C
100
AcDbEntity
  8
OBJECT
100
AcDbLine
 10
59.750981
 20
154.705019
 30
0.0
 11
59.91517
 21
154.705019
 31
0.0
  0
ARC
  5
C2D
100
AcDbEntity
  8
OBJECT
 62
     2
100
AcDbCircle
 10
63.804604
 20
155.690019
 30
0.0
 40
1.5
100
AcDbArc
 50
243.896119
 51
296.103881
  0
ARC
  5
C2E
100
AcDbEntity
  8
OBJECT
 62
     2
100
AcDbCircle
 10
62.340972
 20
154.226387
 30
0.0
 40
0.812053
100
AcDbArc
 50
8.258034
 51
34.815754
  0
ARC
  5
C2F
100
AcDbEntity
  8
OBJECT
 62
     2
100
AcDbCircle
 10
62.340972
 20
157.153652
 30
0.0
 40
0.812053
100
AcDbArc
 50
325.184246
 51
351.741966
  0
ARC
  5
C30
100
AcDbEntity
  8
OBJECT
 62
     2
100
AcDbCircle
 10
65.268237
 20
154.226387
 30
0.0
 40
0.812053
100
AcDbArc
 50
145.184246
 51
171.741966
  0
ARC
  5
C31
100
AcDbEntity
  8
OBJECT
 62
     2
100
AcDbCircle
 10
65.268237
 20
157.153652
 30
0.0
 40
0.812053
100
AcDbArc
 50
188.258034
 51
214.815754
  0
ARC
  5
C32
100
AcDbEntity
  8
OBJECT
 62
     2
100
AcDbCircle
 10
63.804604
 20
155.690019
 30
0.0
 40
1.5
100
AcDbArc
 50
63.896119
 51
116.103881
  0
LINE
  5
C33
100
AcDbEntity
  8
OBJECT
 62
     2
100
AcDbLine
 10
62.239604
 20
154.515019
 30
0.0
 11
63.079604
 21
154.515019
 31
0.0
  0
LINE
  5
C34
100
AcDbEntity
  8
OBJECT
 62
     2
100
AcDbLine
 10
62.239604
 20
156.865019
 30
0.0
 11
63.079604
 21
156.865019
 31
0.0
  0
LINE
  5
C35
100
AcDbEntity
  8
OBJECT
 62
     2
100
AcDbLine
 10
64.529604
 20
154.515019
 30
0.0
 11
65.369604
 21
154.515019
 31
0.0
  0
LINE
  5
C36
100
AcDbEntity
  8
OBJECT
 62
     2
100
AcDbLine
 10
64.529604
 20
156.865019
 30
0.0
 11
65.369604
 21
156.865019
 31
0.0
  0
LINE
  5
C37
100
AcDbEntity
  8
OBJECT
 62
     2
100
AcDbLine
 10
65.369604
 20
154.515019
 30
0.0
 11
65.369604
 21
154.690019
 31
0.0
  0
LINE
  5
C38
100
AcDbEntity
  8
OBJECT
 62
     2
100
AcDbLine
 10
62.239604
 20
154.515019
 30
0.0
 11
62.239604
 21
154.690019
 31
0.0
  0
CIRCLE
  5
C39
100
AcDbEntity
  8
OBJECT
100
AcDbCircle
 10
67.657758
 20
155.690019
 30
0.0
 40
0.25
  0
CIRCLE
  5
C3A
100
AcDbEntity
  8
OBJECT
100
AcDbCircle
 10
58.6617
 20
155.690019
 30
0.0
 40
0.6575
  0
LINE
  5
C3B
100
AcDbEntity
  8
OBJECT
100
AcDbLine
 10
58.887051
 20
154.378381
 30
0.0
 11
58.887051
 21
154.936819
 31
0.0
  0
LINE
  5
C3C
100
AcDbEntity
  8
OBJECT
100
AcDbLine
 10
55.139353
 20
156.131181
 30
0.0
 11
58.21079
 21
157.46956
 31
0.0
  0
ARC
  5
C3D
100
AcDbEntity
  8
OBJECT
100
AcDbCircle
 10
58.387051
 20
157.001658
 30
0.0
 40
0.5
100
AcDbArc
 50
0.0
 51
110.64154
  0
LINE
  5
C3E
100
AcDbEntity
  8
OBJECT
100
AcDbLine
 10
55.139353
 20
155.248858
 30
0.0
 11
58.21079
 21
153.910479
 31
0.0
  0
ARC
  5
C3F
100
AcDbEntity
  8
OBJECT
100
AcDbCircle
 10
58.387051
 20
154.378381
 30
0.0
 40
0.5
100
AcDbArc
 50
249.35846
 51
0.0
  0
ARC
  5
C40
100
AcDbEntity
  8
OBJECT
100
AcDbCircle
 10
55.374676
 20
155.690019
 30
0.0
 40
0.5
100
AcDbArc
 50
118.076219
 51
241.923781
  0
ARC
  5
C41
100
AcDbEntity
  8
OBJECT
100
AcDbCircle
 10
58.6617
 20
155.690019
 30
0.0
 40
0.786189
100
AcDbArc
 50
6.723368
 51
353.276632
  0
LINE
  5
C42
100
AcDbEntity
  8
OBJECT
100
AcDbLine
 10
58.887051
 20
156.44322
 30
0.0
 11
58.887051
 21
157.001658
 31
0.0
  0
LINE
  5
C43
100
AcDbEntity
  8
OBJECT
100
AcDbLine
 10
59.312725
 20
155.782063
 30
0.0
 11
59.91517
 21
155.782063
 31
0.0
  0
LINE
  5
C44
100
AcDbEntity
  8
OBJECT
100
AcDbLine
 10
59.91517
 20
156.690019
 30
0.0
 11
59.91517
 21
154.690019
 31
0.0
  0
LINE
  5
C45
100
AcDbEntity
  8
OBJECT
100
AcDbLine
 10
59.312725
 20
155.597976
 30
0.0
 11
59.91517
 21
155.597976
 31
0.0
  0
LINE
  5
C46
100
AcDbEntity
  8
OBJECT
100
AcDbLine
 10
59.250981
 20
156.210444
 30
0.0
 11
59.250981
 21
156.495019
 31
0.0
  0
LINE
  5
C47
100
AcDbEntity
  8
OBJECT
100
AcDbLine
 10
59.050981
 20
156.373067
 30
0.0
 11
59.050981
 21
156.495019
 31
0.0
  0
LINE
  5
C48
100
AcDbEntity
  8
OBJECT
100
AcDbLine
 10
59.450981
 20
155.782063
 30
0.0
 11
59.450981
 21
156.495019
 31
0.0
  0
LINE
  5
C49
100
AcDbEntity
  8
OBJECT
100
AcDbLine
 10
59.550981
 20
155.782063
 30
0.0
 11
59.550981
 21
156.725019
 31
0.0
  0
LINE
  5
C4D
100
AcDbEntity
  8
OBJECT
 62
     2
100
AcDbLine
 10
62.239604
 20
156.690019
 30
0.0
 11
62.239604
 21
156.865019
 31
0.0
  0
LINE
  5
C4E
100
AcDbEntity
  8
OBJECT
 62
     2
100
AcDbLine
 10
65.369604
 20
156.690019
 30
0.0
 11
65.369604
 21
156.865019
 31
0.0
  0
ARC
  5
C4F
100
AcDbEntity
  8
OBJECT
100
AcDbCircle
 10
63.804604
 20
155.690019
 30
0.0
 40
0.1875
100
AcDbArc
 50
270.0
 51
90.0
  0
LINE
  5
C50
100
AcDbEntity
  8
OBJECT
100
AcDbLine
 10
61.650965
 20
155.877519
 30
0.0
 11
61.650965
 21
155.502519
 31
0.0
  0
LINE
  5
C51
100
AcDbEntity
  8
OBJECT
100
AcDbLine
 10
63.804604
 20
155.877519
 30
0.0
 11
61.650965
 21
155.877519
 31
0.0
  0
LINE
  5
C52
100
AcDbEntity
  8
OBJECT
100
AcDbLine
 10
63.804604
 20
155.502519
 30
0.0
 11
61.650965
 21
155.502519
 31
0.0
  0
CIRCLE
  5
C60
100
AcDbEntity
  8
OBJECT
100
AcDbCircle
 10
60.907758
 20
167.381362
 30
0.0
 40
0.25
  0
CIRCLE
  5
C61
100
AcDbEntity
  8
OBJECT
100
AcDbCircle
 10
47.407758
 20
167.381362
 30
0.0
 40
0.25
  0
CIRCLE
  5
C62
100
AcDbEntity
  8
OBJECT
100
AcDbCircle
 10
40.657758
 20
155.690019
 30
0.0
 40
0.25
  0
CIRCLE
  5
C63
100
AcDbEntity
  8
OBJECT
100
AcDbCircle
 10
47.407758
 20
143.998677
 30
0.0
 40
0.25
  0
CIRCLE
  5
C64
100
AcDbEntity
  8
OBJECT
100
AcDbCircle
 10
60.907758
 20
143.998677
 30
0.0
 40
0.25
  0
LINE
  5
C84
100
AcDbEntity
  8
CENTER
100
AcDbLine
 10
43.257608
 20
119.711046
 30
0.0
 11
40.057908
 21
119.711046
 31
0.0
  0
LINE
  5
C85
100
AcDbEntity
  8
OBJECT
100
AcDbLine
 10
59.85148
 20
118.055
 30
0.0
 11
60.824064
 21
118.055
 31
0.0
  0
LINE
  5
C86
100
AcDbEntity
  8
OBJECT
100
AcDbLine
 10
65.907758
 20
116.565176
 30
0.0
 11
65.907758
 21
117.805
 31
0.0
  0
LINE
  5
C87
100
AcDbEntity
  8
OBJECT
100
AcDbLine
 10
59.3192
 20
117.805
 30
0.0
 11
60.760534
 21
117.805
 31
0.0
  0
LINE
  5
C88
100
AcDbEntity
  8
OBJECT
100
AcDbLine
 10
60.094122
 20
117.805
 30
0.0
 11
60.094122
 21
116.805
 31
0.0
  0
LINE
  5
C89
100
AcDbEntity
  8
OBJECT
100
AcDbLine
 10
60.094122
 20
116.805
 30
0.0
 11
59.3192
 21
116.805
 31
0.0
  0
LINE
  5
C8A
100
AcDbEntity
  8
OBJECT
100
AcDbLine
 10
59.85148
 20
118.055
 30
0.0
 11
59.85148
 21
117.805
 31
0.0
  0
LINE
  5
C8B
100
AcDbEntity
  8
OBJECT
100
AcDbLine
 10
65.907758
 20
116.565176
 30
0.0
 11
66.157758
 21
116.565176
 31
0.0
  0
SOLID
  5
C91
100
AcDbEntity
  8
DIM
100
AcDbTrace
 10
67.781322
 20
84.02946
 30
0.0
 11
67.569299
 21
84.368644
 31
0.0
 12
66.657758
 22
83.562981
 32
0.0
 13
66.657758
 23
83.562981
 33
0.0
  0
LINE
  5
C92
100
AcDbEntity
  8
DIM
100
AcDbLine
 10
67.675311
 20
84.199052
 30
0.0
 11
75.209465
 21
88.90864
 31
0.0
  0
TEXT
  5
C93
100
AcDbEntity
  8
DIM
100
AcDbText
 10
13.579494
 20
105.575115
 30
0.0
 40
1.22
  1
Stainless Steel
  7
ROMAND
 72
     2
 11
27.17378
 21
106.185115
 31
0.0
100
AcDbText
 73
     2
  0
TEXT
  5
C94
100
AcDbEntity
  8
DIM
100
AcDbText
 10
9.338542
 20
103.554375
 30
0.0
 40
1.22
  1
Guiderail Assembly
  7
ROMAND
 72
     2
 11
27.17378
 21
104.164375
 31
0.0
100
AcDbText
 73
     2
  0
LINE
  5
C95
100
AcDbEntity
  8
DIM
100
AcDbLine
 10
29.57378
 20
106.185115
 30
0.0
 11
28.37378
 21
106.185115
 31
0.0
  0
LINE
  5
C96
100
AcDbEntity
  8
DIM
100
AcDbLine
 10
29.57378
 20
106.185115
 30
0.0
 11
28.37378
 21
106.185115
 31
0.0
  0
SOLID
  5
CDE
100
AcDbEntity
  8
DIM
100
AcDbTrace
 10
65.098892
 20
99.159209
 30
0.0
 11
64.875284
 21
99.490871
 31
0.0
 12
63.992104
 22
98.654214
 32
0.0
 13
63.992104
 23
98.654214
 33
0.0
  0
LINE
  5
CDF
100
AcDbEntity
  8
DIM
100
AcDbLine
 10
64.987088
 20
99.32504
 30
0.0
 11
75.209465
 21
106.217052
 31
0.0
  0
SOLID
  5
CE0
100
AcDbEntity
  8
DIM
100
AcDbTrace
 10
60.383778
 20
102.578195
 30
0.0
 11
60.135274
 21
102.891637
 31
0.0
 12
59.3192
 22
101.989405
 32
0.0
 13
59.3192
 23
101.989405
 33
0.0
  0
LINE
  5
CE1
100
AcDbEntity
  8
DIM
100
AcDbLine
 10
60.259526
 20
102.734916
 30
0.0
 11
75.209465
 21
114.587557
 31
0.0
  0
TEXT
  5
CE2
100
AcDbEntity
  8
DIM
100
AcDbText
 10
9.222351
 20
62.337427
 30
0.0
 40
1.22
  1
Shipped Loose For
  7
ROMAND
 72
     2
 11
27.17378
 21
62.947427
 31
0.0
100
AcDbText
 73
     2
  0
TEXT
  5
CE3
100
AcDbEntity
  8
DIM
100
AcDbText
 10
10.326161
 20
64.358167
 30
0.0
 40
1.22
  1
4" Inlet Grommet
  7
ROMAND
 72
     2
 11
27.17378
 21
64.968167
 31
0.0
100
AcDbText
 73
     2
  0
LINE
  5
CE4
100
AcDbEntity
  8
DIM
100
AcDbLine
 10
29.57378
 20
64.968167
 30
0.0
 11
28.37378
 21
64.968167
 31
0.0
  0
LINE
  5
CE5
100
AcDbEntity
  8
DIM
100
AcDbLine
 10
29.57378
 20
64.968167
 30
0.0
 11
28.37378
 21
64.968167
 31
0.0
  0
TEXT
  5
CE6
100
AcDbEntity
  8
DIM
100
AcDbText
 10
11.778542
 20
60.176075
 30
0.0
 40
1.22
  1
Field Installation
  7
ROMAND
 72
     2
 11
27.17378
 21
60.786075
 31
0.0
100
AcDbText
 73
     2
  0
SOLID
  5
CE7
100
AcDbEntity
  8
DIM
100
AcDbTrace
 10
40.204334
 20
70.84734
 30
0.0
 11
40.392131
 21
70.494165
 31
0.0
 12
41.357758
 22
71.234141
 32
0.0
 13
41.357758
 23
71.234141
 33
0.0
  0
LINE
  5
CE8
100
AcDbEntity
  8
DIM
100
AcDbLine
 10
40.298232
 20
70.670752
 30
0.0
 11
29.57378
 21
64.968167
 31
0.0
  0
SOLID
  5
CE9
100
AcDbEntity
  8
DIM
100
AcDbTrace
 10
53.893978
 20
70.95459
 30
0.0
 11
53.73699
 21
70.586684
 31
0.0
 12
54.919202
 22
70.299673
 32
0.0
 13
54.919202
 23
70.299673
 33
0.0
  0
LINE
  5
CEA
100
AcDbEntity
  8
DIM
100
AcDbLine
 10
53.815484
 20
70.770637
 30
0.0
 11
29.57378
 21
81.114741
 31
0.0
  0
SOLID
  5
CEB
100
AcDbEntity
  8
DIM
100
AcDbTrace
 10
51.84299
 20
77.366966
 30
0.0
 11
51.636868
 21
77.024163
 31
0.0
 12
52.768335
 22
76.577196
 32
0.0
 13
52.768335
 23
76.577196
 33
0.0
  0
LINE
  5
CEC
100
AcDbEntity
  8
DIM
100
AcDbLine
 10
51.739929
 20
77.195565
 30
0.0
 11
29.57378
 21
90.523813
 31
0.0
  0
SOLID
  5
CED
100
AcDbEntity
  8
DIM
100
AcDbTrace
 10
53.91758
 20
83.688296
 30
0.0
 11
53.687902
 21
83.360809
 31
0.0
 12
54.785202
 22
82.835517
 32
0.0
 13
54.785202
 23
82.835517
 33
0.0
  0
LINE
  5
CEE
100
AcDbEntity
  8
DIM
100
AcDbLine
 10
53.802741
 20
83.524553
 30
0.0
 11
29.57378
 21
100.517197
 31
0.0
  0
SOLID
  5
CEF
100
AcDbEntity
  8
DIM
100
AcDbTrace
 10
53.303822
 20
88.056201
 30
0.0
 11
53.035876
 21
87.759208
 31
0.0
 12
54.060829
 22
87.103867
 32
0.0
 13
54.060829
 23
87.103867
 33
0.0
  0
LINE
  5
CF0
100
AcDbEntity
  8
DIM
100
AcDbLine
 10
53.169849
 20
87.907705
 30
0.0
 11
29.57378
 21
106.185115
 31
0.0
  0
TEXT
  5
D0A
100
AcDbEntity
  8
DIM
100
AcDbText
 10
76.582631
 20
120.938565
 30
0.0
 40
1.22
  1
* Stainless Steel Chain
  7
ROMAND
 11
76.582631
 21
121.548565
 31
0.0
100
AcDbText
 73
     2
  0
TEXT
  5
D0C
100
AcDbEntity
  8
DIM
100
AcDbText
 10
80.156743
 20
118.909338
 30
0.0
 40
1.22
  1
is Available
  7
ROMAND
 11
80.156743
 21
119.519338
 31
0.0
100
AcDbText
 73
     2
  0
LINE
  5
D14
100
AcDbEntity
  8
OBJECT
100
AcDbLine
 10
59.91517
 20
154.690019
 30
0.0
 11
66.116018
 21
154.690019
 31
0.0
  0
LINE
  5
D16
100
AcDbEntity
  8
OBJECT
100
AcDbLine
 10
59.91517
 20
156.690019
 30
0.0
 11
66.116018
 21
156.690019
 31
0.0
  0
LINE
  5
D19
100
AcDbEntity
  8
OBJECT
100
AcDbLine
 10
59.907164
 20
155.782063
 30
0.0
 11
59.91517
 21
155.782063
 31
0.0
  0
DIMENSION
  5
D1A
100
AcDbEntity
  8
DIM
100
AcDbDimension
  2
*D4
 10
66.157758
 20
42.335671
 30
0.0
 11
54.157758
 21
42.335671
 31
0.0
  1
24"
100
AcDbAlignedDimension
 13
42.157758
 23
46.582546
 33
0.0
 14
66.157758
 24
46.582546
 34
0.0
100
AcDbRotatedDimension
  0
TEXT
  5
D1B
100
AcDbEntity
  8
DIM
100
AcDbText
 10
21.248066
 20
51.693401
 30
0.0
 40
1.22
  1
Flange
  7
ROMAND
 72
     2
 11
27.17378
 21
52.303401
 31
0.0
100
AcDbText
 73
     2
  0
TEXT
  5
D1C
100
AcDbEntity
  8
DIM
100
AcDbText
 10
2.77378
 20
53.714141
 30
0.0
 40
1.22
  1
Fiberglass Anti-Floatation
  7
ROMAND
 72
     2
 11
27.17378
 21
54.324141
 31
0.0
100
AcDbText
 73
     2
  0
LINE
  5
D1D
100
AcDbEntity
  8
DIM
100
AcDbLine
 10
29.57378
 20
54.324141
 30
0.0
 11
28.37378
 21
54.324141
 31
0.0
  0
LINE
  5
D1E
100
AcDbEntity
  8
DIM
100
AcDbLine
 10
29.57378
 20
54.324141
 30
0.0
 11
28.37378
 21
54.324141
 31
0.0
  0
SOLID
  5
D1F
100
AcDbEntity
  8
DIM
100
AcDbTrace
 10
39.335519
 20
46.739939
 30
0.0
 11
39.085031
 21
46.42808
 31
0.0
 12
40.145851
 22
45.832546
 32
0.0
 13
40.145851
 23
45.832546
 33
0.0
  0
LINE
  5
D20
100
AcDbEntity
  8
DIM
100
AcDbLine
 10
39.210275
 20
46.58401
 30
0.0
 11
29.57378
 21
54.324141
 31
0.0
  0
CIRCLE
  5
D21
100
AcDbEntity
  8
OBJECT
100
AcDbCircle
 10
94.034076
 20
160.739458
 30
0.0
 40
11.71875
  0
CIRCLE
  5
D22
100
AcDbEntity
  8
OBJECT
100
AcDbCircle
 10
99.307513
 20
151.605596
 30
0.0
 40
0.195313
  0
CIRCLE
  5
D23
100
AcDbEntity
  8
OBJECT
100
AcDbCircle
 10
88.760638
 20
151.605596
 30
0.0
 40
0.195313
  0
CIRCLE
  5
D24
100
AcDbEntity
  8
OBJECT
100
AcDbCircle
 10
83.487201
 20
160.739458
 30
0.0
 40
0.195313
  0
CIRCLE
  5
D25
100
AcDbEntity
  8
OBJECT
100
AcDbCircle
 10
88.760638
 20
169.87332
 30
0.0
 40
0.195313
  0
CIRCLE
  5
D26
100
AcDbEntity
  8
OBJECT
100
AcDbCircle
 10
99.307513
 20
169.87332
 30
0.0
 40
0.195313
  0
CIRCLE
  5
D27
100
AcDbEntity
  8
OBJECT
100
AcDbCircle
 10
104.580951
 20
160.739458
 30
0.0
 40
0.195313
  0
LINE
  5
D28
100
AcDbEntity
  8
CENTER
100
AcDbLine
 10
79.89493
 20
160.739458
 30
0.0
 11
108.173222
 21
160.739458
 31
0.0
  0
LINE
  5
D29
100
AcDbEntity
  8
CENTER
100
AcDbLine
 10
94.034076
 20
174.878604
 30
0.0
 11
94.034076
 21
146.600312
 31
0.0
  0
TEXT
  5
D2C
100
AcDbEntity
  8
DIM
100
AcDbText
 10
88.19663
 20
142.942667
 30
0.0
 40
1.5
  1
Solid Cover
  7
ROMAND
100
AcDbText
  0
LINE
  5
D2D
100
AcDbEntity
  8
DIM
100
AcDbLine
 10
88.049931
 20
142.356498
 30
0.0
 11
101.636753
 21
142.356498
 31
0.0
  0
LINE
  5
D2E
100
AcDbEntity
  8
LIMITS
100
AcDbLine
 10
114.464502
 20
15.494026
 30
0.0
 11
114.464502
 21
177.133513
 31
0.0
  0
LINE
  5
D2F
100
AcDbEntity
  8
BORDER
 62
     5
100
AcDbLine
 10
110.423515
 20
177.800035
 30
0.0
 11
-8.994511
 21
177.800035
 31
0.0
  0
LINE
  5
D31
100
AcDbEntity
  8
BORDER
100
AcDbLine
 10
18.282153
 20
20.54526
 30
0.0
 11
58.000982
 21
20.54526
 31
0.0
  0
LINE
  5
D32
100
AcDbEntity
  8
BORDER
100
AcDbLine
 10
18.282153
 20
20.54526
 30
0.0
 11
18.282153
 21
24.386971
 31
0.0
  0
ARC
  5
D33
100
AcDbEntity
  8
BORDER
100
AcDbCircle
 10
19.965897
 20
30.647728
 30
0.0
 40
1.683745
100
AcDbArc
 50
90.0
 51
180.0
  0
LWPOLYLINE
  5
D34
100
AcDbEntity
  8
BORDER
 62
     5
100
AcDbPolyline
 90
        2
 70
     0
 43
0.841872
 10
81.463107
 20
34.015218
 42
-0.414214
 10
84.830596
 20
30.647728
 42
0.560527
  0
LWPOLYLINE
  5
D38
100
AcDbEntity
  8
BORDER
 62
     5
100
AcDbPolyline
 90
        2
 70
     0
 43
0.841872
 10
84.830596
 20
20.54526
 10
84.830596
 20
30.647728
  0
LWPOLYLINE
  5
D3C
100
AcDbEntity
  8
BORDER
 62
     5
100
AcDbPolyline
 90
        2
 70
     0
 43
0.841872
 10
19.965897
 20
34.015218
 42
0.414214
 10
16.598408
 20
30.647728
 42
-0.560527
  0
LWPOLYLINE
  5
D40
100
AcDbEntity
  8
BORDER
 62
     5
100
AcDbPolyline
 90
        2
 70
     0
 43
0.841872
 10
16.598408
 20
30.647728
 10
16.598408
 20
20.54526
  0
LINE
  5
D44
100
AcDbEntity
  8
BORDER
100
AcDbLine
 10
19.965897
 20
32.331473
 30
0.0
 11
58.000982
 21
32.331473
 31
0.0
  0
LINE
  5
D45
100
AcDbEntity
  8
BORDER
100
AcDbLine
 10
83.146851
 20
30.647728
 30
0.0
 11
83.146851
 21
25.596494
 31
0.0
  0
ARC
  5
D46
100
AcDbEntity
  8
BORDER
100
AcDbCircle
 10
81.463107
 20
30.647728
 30
0.0
 40
1.683745
100
AcDbArc
 50
0.0
 51
90.0
  0
LWPOLYLINE
  5
D47
100
AcDbEntity
  8
BORDER
 62
     5
100
AcDbPolyline
 90
        2
 70
     0
 43
0.841872
 10
-6.974017
 20
18.861516
 42
-0.414214
 10
-10.341507
 20
22.229005
 42
0.560527
  0
LWPOLYLINE
  5
D4B
100
AcDbEntity
  8
BORDER
 62
     5
100
AcDbPolyline
 90
        2
 70
     0
 43
0.841872
 10
-6.974017
 20
34.015218
 42
0.414214
 10
-10.341507
 20
30.647728
 42
-0.560527
  0
LINE
  5
D4F
100
AcDbEntity
  8
BORDER
100
AcDbLine
 10
-8.657762
 20
22.229005
 30
0.0
 11
-8.657762
 21
30.647728
 31
0.0
  0
ARC
  5
D50
100
AcDbEntity
  8
BORDER
100
AcDbCircle
 10
-6.974017
 20
22.229005
 30
0.0
 40
1.683745
100
AcDbArc
 50
180.0
 51
270.0
  0
ARC
  5
D51
100
AcDbEntity
  8
BORDER
100
AcDbCircle
 10
-6.974017
 20
30.647728
 30
0.0
 40
1.683745
100
AcDbArc
 50
90.0
 51
180.0
  0
LWPOLYLINE
  5
D52
100
AcDbEntity
  8
BORDER
 62
     5
100
AcDbPolyline
 90
        2
 70
     0
 43
0.841872
 10
11.547174
 20
34.015218
 42
-0.414214
 10
14.914663
 20
30.647728
 42
0.560527
  0
LWPOLYLINE
  5
D56
100
AcDbEntity
  8
BORDER
 62
     5
100
AcDbPolyline
 90
        2
 70
     0
 43
0.841872
 10
14.914663
 20
20.54526
 10
14.914663
 20
30.647728
  0
LINE
  5
D5A
100
AcDbEntity
  8
BORDER
100
AcDbLine
 10
13.230919
 20
20.54526
 30
0.0
 11
13.230919
 21
30.647728
 31
0.0
  0
LINE
  5
D5B
100
AcDbEntity
  8
BORDER
100
AcDbLine
 10
-6.974017
 20
32.331473
 30
0.0
 11
11.547174
 21
32.331473
 31
0.0
  0
LINE
  5
D5C
100
AcDbEntity
  8
BORDER
100
AcDbLine
 10
-6.974017
 20
20.54526
 30
0.0
 11
13.230919
 21
20.54526
 31
0.0
  0
ARC
  5
D5D
100
AcDbEntity
  8
BORDER
100
AcDbCircle
 10
11.547174
 20
30.647728
 30
0.0
 40
1.683745
100
AcDbArc
 50
0.0
 51
90.0
  0
LWPOLYLINE
  5
D5E
100
AcDbEntity
  8
BORDER
 62
     5
100
AcDbPolyline
 90
        2
 70
     0
 43
0.841872
 10
-6.974017
 20
34.015218
 10
11.547174
 20
34.015218
  0
LWPOLYLINE
  5
D62
100
AcDbEntity
  8
BORDER
 62
     5
100
AcDbPolyline
 90
        2
 70
     0
 43
0.841872
 10
86.514341
 20
20.54526
 10
86.514341
 20
30.647728
  0
LINE
  5
D66
100
AcDbEntity
  8
BORDER
100
AcDbLine
 10
88.198085
 20
20.54526
 30
0.0
 11
88.198085
 21
30.647728
 31
0.0
  0
LINE
  5
D67
100
AcDbEntity
  8
BORDER
100
AcDbLine
 10
110.086766
 20
22.229005
 30
0.0
 11
110.086766
 21
30.647728
 31
0.0
  0
LWPOLYLINE
  5
D68
100
AcDbEntity
  8
BORDER
 62
     5
100
AcDbPolyline
 90
        2
 70
     0
 43
0.841872
 10
111.770511
 20
30.647728
 10
111.770511
 20
22.229005
  0
LINE
  5
D6C
100
AcDbEntity
  8
BORDER
100
AcDbLine
 10
108.403021
 20
20.54526
 30
0.0
 11
88.198085
 21
20.54526
 31
0.0
  0
ARC
  5
D6D
100
AcDbEntity
  8
BORDER
100
AcDbCircle
 10
108.403021
 20
22.229005
 30
0.0
 40
1.683745
100
AcDbArc
 50
270.0
 51
0.0
  0
LWPOLYLINE
  5
D6E
100
AcDbEntity
  8
BORDER
 62
     5
100
AcDbPolyline
 90
        2
 70
     0
 43
0.841872
 10
108.403021
 20
18.861516
 42
0.414214
 10
111.770511
 20
22.229005
 42
-0.560527
  0
LWPOLYLINE
  5
D72
100
AcDbEntity
  8
BORDER
 62
     5
100
AcDbPolyline
 90
        2
 70
     0
 43
0.841872
 10
108.403021
 20
34.015218
 10
89.88183
 20
34.015218
  0
LINE
  5
D76
100
AcDbEntity
  8
BORDER
100
AcDbLine
 10
108.403021
 20
32.331473
 30
0.0
 11
89.88183
 21
32.331473
 31
0.0
  0
ARC
  5
D77
100
AcDbEntity
  8
BORDER
100
AcDbCircle
 10
108.403021
 20
30.647728
 30
0.0
 40
1.683745
100
AcDbArc
 50
0.0
 51
90.0
  0
LWPOLYLINE
  5
D78
100
AcDbEntity
  8
BORDER
 62
     5
100
AcDbPolyline
 90
        2
 70
     0
 43
0.841872
 10
108.403021
 20
34.015218
 42
-0.414214
 10
111.770511
 20
30.647728
 42
0.560527
  0
ARC
  5
D7C
100
AcDbEntity
  8
BORDER
100
AcDbCircle
 10
89.88183
 20
30.647728
 30
0.0
 40
1.683745
100
AcDbArc
 50
90.0
 51
180.0
  0
LWPOLYLINE
  5
D7D
100
AcDbEntity
  8
BORDER
 62
     5
100
AcDbPolyline
 90
        2
 70
     0
 43
0.841872
 10
89.88183
 20
34.015218
 42
0.414214
 10
86.514341
 20
30.647728
 42
-0.560527
  0
LINE
  5
D81
100
AcDbEntity
  8
BORDER
100
AcDbLine
 10
108.403021
 20
29.326636
 30
0.0
 11
89.88183
 21
29.326636
 31
0.0
  0
LINE
  5
D82
100
AcDbEntity
  8
BORDER
100
AcDbLine
 10
108.403021
 20
27.642891
 30
0.0
 11
89.88183
 21
27.642891
 31
0.0
  0
LINE
  5
D83
100
AcDbEntity
  8
BORDER
100
AcDbLine
 10
108.403021
 20
25.959146
 30
0.0
 11
89.88183
 21
25.959146
 31
0.0
  0
LINE
  5
D84
100
AcDbEntity
  8
BORDER
100
AcDbLine
 10
108.403021
 20
24.275402
 30
0.0
 11
89.88183
 21
24.275402
 31
0.0
  0
LINE
  5
D85
100
AcDbEntity
  8
BORDER
100
AcDbLine
 10
108.403021
 20
22.591657
 30
0.0
 11
89.88183
 21
22.591657
 31
0.0
  0
LINE
  5
D86
100
AcDbEntity
  8
BORDER
100
AcDbLine
 10
89.88183
 20
29.326636
 30
0.0
 11
89.88183
 21
22.591657
 31
0.0
  0
LINE
  5
D87
100
AcDbEntity
  8
BORDER
100
AcDbLine
 10
108.403021
 20
29.326636
 30
0.0
 11
108.403021
 21
22.591657
 31
0.0
  0
LINE
  5
D88
100
AcDbEntity
  8
BORDER
100
AcDbLine
 10
91.565575
 20
29.326636
 30
0.0
 11
91.565575
 21
22.591657
 31
0.0
  0
TEXT
  5
D89
100
AcDbEntity
  8
BORDER
 62
     6
100
AcDbText
 10
90.323621
 20
28.065263
 30
0.0
 40
0.841872
  1
A
  7
ROMAND
100
AcDbText
  0
LWPOLYLINE
  5
D8A
100
AcDbEntity
  8
BORDER
100
AcDbPolyline
 90
        6
 70
     1
 43
0.0
 10
91.082168
 20
27.860431
 10
91.440891
 20
28.481756
 10
91.082168
 20
29.103082
 10
90.364723
 20
29.103082
 10
90.006001
 20
28.481756
 10
90.364723
 20
27.860431
  0
TEXT
  5
D92
100
AcDbEntity
  8
BORDER
 62
     6
100
AcDbText
 10
92.989122
 20
28.065263
 30
0.0
 40
0.841872
  1
First Released.
  7
ROMAND
100
AcDbText
  0
LINE
  5
D93
100
AcDbEntity
  8
BORDER
100
AcDbLine
 10
18.282153
 20
25.596494
 30
0.0
 11
58.000982
 21
25.596494
 31
0.0
  0
LINE
  5
D94
100
AcDbEntity
  8
BORDER
100
AcDbLine
 10
18.282153
 20
24.386971
 30
0.0
 11
58.000982
 21
24.386971
 31
0.0
  0
LINE
  5
D95
100
AcDbEntity
  8
BORDER
100
AcDbLine
 10
18.282153
 20
25.596494
 30
0.0
 11
18.282153
 21
30.647728
 31
0.0
  0
LINE
  5
D96
100
AcDbEntity
  8
BORDER
100
AcDbLine
 10
43.946503
 20
20.54526
 30
0.0
 11
43.946503
 21
24.386971
 31
0.0
  0
LINE
  5
D97
100
AcDbEntity
  8
BORDER
100
AcDbLine
 10
43.946503
 20
25.596494
 30
0.0
 11
43.946503
 21
32.331473
 31
0.0
  0
LINE
  5
D98
100
AcDbEntity
  8
BORDER
100
AcDbLine
 10
43.946503
 20
32.331473
 30
0.0
 11
81.463107
 21
32.331473
 31
0.0
  0
LINE
  5
D99
100
AcDbEntity
  8
BORDER
100
AcDbLine
 10
43.946503
 20
25.596494
 30
0.0
 11
83.146851
 21
25.596494
 31
0.0
  0
LINE
  5
D9A
100
AcDbEntity
  8
BORDER
100
AcDbLine
 10
64.151439
 20
24.386971
 30
0.0
 11
83.146851
 21
24.386971
 31
0.0
  0
LINE
  5
D9B
100
AcDbEntity
  8
BORDER
100
AcDbLine
 10
64.151439
 20
20.54526
 30
0.0
 11
83.146851
 21
20.54526
 31
0.0
  0
LINE
  5
D9C
100
AcDbEntity
  8
BORDER
100
AcDbLine
 10
83.146851
 20
24.386971
 30
0.0
 11
83.146851
 21
20.54526
 31
0.0
  0
LINE
  5
D9D
100
AcDbEntity
  8
BORDER
100
AcDbLine
 10
62.941916
 20
24.386971
 30
0.0
 11
62.941916
 21
20.54526
 31
0.0
  0
LINE
  5
D9E
100
AcDbEntity
  8
BORDER
100
AcDbLine
 10
64.151439
 20
24.386971
 30
0.0
 11
64.151439
 21
20.54526
 31
0.0
  0
LINE
  5
D9F
100
AcDbEntity
  8
BORDER
100
AcDbLine
 10
43.946503
 20
24.386971
 30
0.0
 11
62.941916
 21
24.386971
 31
0.0
  0
LINE
  5
DA0
100
AcDbEntity
  8
BORDER
100
AcDbLine
 10
43.946503
 20
20.54526
 30
0.0
 11
62.941916
 21
20.54526
 31
0.0
  0
TEXT
  5
DA1
100
AcDbEntity
  8
BORDER
 62
     6
100
AcDbText
 10
52.459115
 20
21.221748
 30
0.0
 40
0.968153
  1
05/16/03
  7
ROMAND
100
AcDbText
  0
LINE
  5
DA6
100
AcDbEntity
  8
LIMITS
100
AcDbLine
 10
114.464502
 20
177.133513
 30
0.0
 11
114.464502
 21
15.494026
 31
0.0
  0
LINE
  5
1229
100
AcDbEntity
  8
LIMITS
 62
     7
100
AcDbLine
 10
-13.035498
 20
15.494026
 30
0.0
 11
114.464502
 21
15.494026
 31
0.0
  0
LINE
  5
122A
100
AcDbEntity
  8
LIMITS
 62
     7
100
AcDbLine
 10
114.464502
 20
15.494026
 30
0.0
 11
114.464502
 21
180.494026
 31
0.0
  0
LINE
  5
122B
100
AcDbEntity
  8
LIMITS
 62
     7
100
AcDbLine
 10
114.464502
 20
180.494026
 30
0.0
 11
-13.035498
 21
180.494026
 31
0.0
  0
LINE
  5
122C
100
AcDbEntity
  8
LIMITS
 62
     7
100
AcDbLine
 10
-13.035498
 20
180.494026
 30
0.0
 11
-13.035498
 21
15.494026
 31
0.0
  0
LWPOLYLINE
  5
1232
100
AcDbEntity
  8
BORDER
 62
     5
100
AcDbPolyline
 90
        2
 70
     0
 43
0.336749
 10
110.423515
 20
177.800035
 10
-8.994511
 20
177.800035
  0
LWPOLYLINE
  5
1236
100
AcDbEntity
  8
BORDER
 62
     5
100
AcDbPolyline
 90
        2
 70
     0
 43
0.841872
 10
-10.341507
 20
30.647728
 10
-10.341507
 20
22.229005
  0
TEXT
  5
123A
100
AcDbEntity
  8
BORDER
 62
     6
100
AcDbText
 10
-8.545
 20
175.746303
 30
0.0
 40
1.01936
  1
PUMP INFORMATION
  7
ITALICT
100
AcDbText
  0
TEXT
  5
123C
100
AcDbEntity
  8
BORDER
 62
     6
100
AcDbText
 10
-9.118712
 20
172.803898
 30
0.0
 40
0.987009
  1
Type:
  7
ROMANT
100
AcDbText
  0
TEXT
  5
123E
100
AcDbEntity
  8
BORDER
 62
     6
100
AcDbText
 10
-2.260606
 20
172.803898
 30
0.0
 40
0.987009
  1
Sump Pump(s)
  7
ROMANT
100
AcDbText
  0
TEXT
  5
123F
100
AcDbEntity
  8
BORDER
 62
     6
100
AcDbText
 10
-2.260606
 20
170.060656
 30
0.0
 40
0.987009
  1
Grinder Pump(s)
  7
ROMANT
100
AcDbText
  0
TEXT
  5
1240
100
AcDbEntity
  8
BORDER
 62
     6
100
AcDbText
 10
-2.260606
 20
167.317414
 30
0.0
 40
0.987009
  1
Non-Clog Pump(s)
  7
ROMANT
100
AcDbText
  0
TEXT
  5
1241
100
AcDbEntity
  8
BORDER
 62
     6
100
AcDbText
 10
-9.118712
 20
163.202551
 30
0.0
 40
0.987009
  1
Model NO:
  7
ROMANT
100
AcDbText
  0
TEXT
  5
1242
100
AcDbEntity
  8
BORDER
 62
     6
100
AcDbText
 10
-9.118712
 20
160.459309
 30
0.0
 40
0.987009
  1
Rating:
  7
ROMANT
100
AcDbText
  0
TEXT
  5
1243
100
AcDbEntity
  8
BORDER
 62
     6
100
AcDbText
 10
1.854257
 20
160.459309
 30
0.0
 40
0.987009
  1
GPM
  7
ROMANT
100
AcDbText
  0
TEXT
  5
1244
100
AcDbEntity
  8
BORDER
 62
     6
100
AcDbText
 10
11.455605
 20
160.459309
 30
0.0
 40
0.987009
  1
TDH
  7
ROMANT
100
AcDbText
  0
TEXT
  5
1245
100
AcDbEntity
  8
BORDER
 62
     6
100
AcDbText
 10
-9.118712
 20
157.716066
 30
0.0
 40
0.987009
  1
Motor:
  7
ROMANT
100
AcDbText
  0
TEXT
  5
1246
100
AcDbEntity
  8
BORDER
 62
     6
100
AcDbText
 10
1.854257
 20
157.716066
 30
0.0
 40
0.987009
  1
HP
  7
ROMANT
100
AcDbText
  0
TEXT
  5
1247
100
AcDbEntity
  8
BORDER
 62
     6
100
AcDbText
 10
11.455605
 20
157.716066
 30
0.0
 40
0.987009
  1
RPM
  7
ROMANT
100
AcDbText
  0
TEXT
  5
1248
100
AcDbEntity
  8
BORDER
 62
     6
100
AcDbText
 10
-9.118712
 20
154.972824
 30
0.0
 40
0.987009
  1
Elec:
  7
ROMANT
100
AcDbText
  0
TEXT
  5
1249
100
AcDbEntity
  8
BORDER
 62
     6
100
AcDbText
 10
1.854257
 20
154.972824
 30
0.0
 40
0.987009
  1
PH
  7
ROMANT
100
AcDbText
  0
TEXT
  5
124A
100
AcDbEntity
  8
BORDER
 62
     6
100
AcDbText
 10
11.455605
 20
154.972824
 30
0.0
 40
0.987009
  1
HZ
  7
ROMANT
100
AcDbText
  0
TEXT
  5
124B
100
AcDbEntity
  8
BORDER
 62
     6
100
AcDbText
 10
18.31371
 20
154.972824
 30
0.0
 40
0.987009
  1
v
  7
ROMANT
100
AcDbText
  0
TEXT
  5
124C
100
AcDbEntity
  8
BORDER
 62
     6
100
AcDbText
 10
-9.118712
 20
152.229582
 30
0.0
 40
0.987009
  1
Elec:
  7
ROMANT
100
AcDbText
  0
TEXT
  5
124D
100
AcDbEntity
  8
BORDER
 62
     6
100
AcDbText
 10
1.854257
 20
152.229582
 30
0.0
 40
0.987009
  1
FL AMPS
  7
ROMANT
100
AcDbText
  0
LINE
  5
124E
100
AcDbEntity
  8
BORDER
 62
     6
100
AcDbLine
 10
-0.227475
 20
163.202551
 30
0.0
 11
13.938869
 21
163.202551
 31
0.0
  0
LINE
  5
124F
100
AcDbEntity
  8
BORDER
 62
     6
100
AcDbLine
 10
-3.021439
 20
160.459309
 30
0.0
 11
1.49708
 21
160.459309
 31
0.0
  0
LINE
  5
1250
100
AcDbEntity
  8
BORDER
 62
     6
100
AcDbLine
 10
-3.632227
 20
157.716066
 30
0.0
 11
1.395635
 21
157.716066
 31
0.0
  0
LINE
  5
1251
100
AcDbEntity
  8
BORDER
 62
     6
100
AcDbLine
 10
-4.849559
 20
154.972824
 30
0.0
 11
1.344913
 21
154.972824
 31
0.0
  0
LINE
  5
1252
100
AcDbEntity
  8
BORDER
 62
     6
100
AcDbLine
 10
-5.001727
 20
152.229582
 30
0.0
 11
1.547801
 21
152.229582
 31
0.0
  0
LINE
  5
1253
100
AcDbEntity
  8
BORDER
 62
     6
100
AcDbLine
 10
5.614065
 20
160.459309
 30
0.0
 11
11.199872
 21
160.459309
 31
0.0
  0
LINE
  5
1254
100
AcDbEntity
  8
BORDER
 62
     6
100
AcDbLine
 10
4.496054
 20
157.716066
 30
0.0
 11
10.844816
 21
157.716066
 31
0.0
  0
LINE
  5
1255
100
AcDbEntity
  8
BORDER
 62
     6
100
AcDbLine
 10
4.496055
 20
154.972824
 30
0.0
 11
10.895539
 21
154.972824
 31
0.0
  0
LINE
  5
1256
100
AcDbEntity
  8
BORDER
 62
     6
100
AcDbLine
 10
13.843792
 20
154.972824
 30
0.0
 11
18.31371
 21
154.972824
 31
0.0
  0
LINE
  5
1257
100
AcDbEntity
  8
BORDER
 62
     6
100
AcDbLine
 10
-8.576653
 20
175.444447
 30
0.0
 11
8.432283
 21
175.444447
 31
0.0
  0
LINE
  5
1258
100
AcDbEntity
  8
BORDER
 62
     6
100
AcDbLine
 10
-8.576653
 20
175.194567
 30
0.0
 11
8.432283
 21
175.194567
 31
0.0
  0
LWPOLYLINE
  5
1259
100
AcDbEntity
  8
BORDER
 62
     6
100
AcDbPolyline
 90
        4
 70
     1
 43
0.0
 10
-2.742706
 20
172.714858
 10
-2.742706
 20
173.856503
 10
-3.884352
 20
173.856503
 10
-3.884352
 20
172.714858
  0
LWPOLYLINE
  5
125F
100
AcDbEntity
  8
BORDER
 62
     6
100
AcDbPolyline
 90
        4
 70
     1
 43
0.0
 10
-2.742706
 20
170.105383
 10
-2.742706
 20
171.247028
 10
-3.884352
 20
171.247028
 10
-3.884352
 20
170.105383
  0
LWPOLYLINE
  5
1265
100
AcDbEntity
  8
BORDER
 62
     6
100
AcDbPolyline
 90
        4
 70
     1
 43
0.0
 10
-2.742706
 20
167.25127
 10
-2.742706
 20
168.392915
 10
-3.884352
 20
168.392915
 10
-3.884352
 20
167.25127
  0
LWPOLYLINE
  5
126B
100
AcDbEntity
  8
BORDER
 62
     5
100
AcDbPolyline
 90
        2
 70
     0
 43
0.841872
 10
19.965897
 20
34.015218
 10
81.463107
 20
34.015218
  0
LWPOLYLINE
  5
126F
100
AcDbEntity
  8
BORDER
 62
     5
100
AcDbPolyline
 90
        2
 70
     0
 43
0.841872
 10
108.403021
 20
18.861516
 10
-6.974017
 20
18.861516
  0
LWPOLYLINE
  5
1273
100
AcDbEntity
  8
BORDER
 62
     5
100
AcDbPolyline
 90
        2
 70
     0
 43
0.336749
 10
-10.341507
 20
34.657646
 10
-10.341507
 20
176.453039
  0
LWPOLYLINE
  5
1277
100
AcDbEntity
  8
BORDER
 62
     5
100
AcDbPolyline
 90
        2
 70
     0
 43
0.336749
 10
111.770511
 20
34.657646
 10
111.770511
 20
176.453039
  0
LWPOLYLINE
  5
127B
100
AcDbEntity
  8
BORDER
 62
     5
100
AcDbPolyline
 90
        6
 70
     0
 43
0.6
 10
-10.341507
 20
34.657646
 10
-10.341507
 20
176.453039
 42
-0.414214
 10
-8.994511
 20
177.800035
 10
110.423515
 20
177.800035
 42
-0.414214
 10
111.770511
 20
176.453039
 10
111.770511
 20
34.657646
  0
LINE
  5
1283
100
AcDbEntity
  8
BORDER
100
AcDbLine
 10
18.282153
 20
28.443055
 30
0.0
 11
43.946503
 21
28.443055
 31
0.0
  0
TEXT
  5
1284
100
AcDbEntity
  8
BORDER
 62
     6
100
AcDbText
 10
51.224607
 20
29.336517
 30
0.0
 40
1.030373
  1
RM
  7
COUNTRYBLUEPRINT
100
AcDbText
  0
TEXT
  5
1286
100
AcDbEntity
  8
BORDER
 62
     6
100
AcDbText
 10
56.652714
 20
31.174266
 30
0.0
 40
0.631962
  1
This print is and contains confidential proprietary information owned exclusively
 41
0.656934
  7
ROMANS
 72
     5
 11
82.688984
 21
31.174266
 31
0.0
100
AcDbText
  0
TEXT
  5
1287
100
AcDbEntity
  8
BORDER
 62
     6
100
AcDbText
 10
56.652714
 20
30.15109
 30
0.0
 40
0.631962
  1
by TOPP INDUSTRIES, INC. It is furnished on a strictly confidential basis.  This
 41
0.659437
  7
ROMANS
 72
     5
 11
82.688984
 21
30.15109
 31
0.0
100
AcDbText
  0
TEXT
  5
1288
100
AcDbEntity
  8
BORDER
 62
     6
100
AcDbText
 10
56.652714
 20
29.127914
 30
0.0
 40
0.631962
  1
restriction includes, but is not limited to the condition that this print will not only
 41
0.626489
  7
ROMANS
 72
     5
 11
82.688984
 21
29.127914
 31
0.0
100
AcDbText
  0
TEXT
  5
1289
100
AcDbEntity
  8
BORDER
 62
     6
100
AcDbText
 10
56.652714
 20
28.104739
 30
0.0
 40
0.631962
  1
be used as a record or to identify or inspect parts or for other information purposes
 41
0.596266
  7
ROMANS
 72
     5
 11
82.688984
 21
28.104739
 31
0.0
100
AcDbText
  0
TEXT
  5
128A
100
AcDbEntity
  8
BORDER
 62
     6
100
AcDbText
 10
56.652714
 20
27.081563
 30
0.0
 40
0.631962
  1
and will not be used to manufacture or procure the manufacture of the items shown
 41
0.600404
  7
ROMANS
 72
     5
 11
82.688984
 21
27.081563
 31
0.0
100
AcDbText
  0
TEXT
  5
128B
100
AcDbEntity
  8
BORDER
 62
     6
100
AcDbText
 10
56.652714
 20
26.058387
 30
0.0
 40
0.631962
  1
in this print by any other source than TOPP INDUSTRIES, INC.
 41
0.839168
  7
ROMANS
 72
     5
 11
82.688984
 21
26.058387
 31
0.0
100
AcDbText
  0
TEXT
  5
128C
100
AcDbEntity
  8
BORDER
 62
     6
100
AcDbText
 10
22.498281
 20
23.256812
 30
0.0
 40
0.642138
  1
Highway 25 North P.O. Box 420
  7
ROMANC
100
AcDbText
  0
TEXT
  5
128E
100
AcDbEntity
  8
BORDER
 62
     6
100
AcDbText
 10
25.263507
 20
22.116434
 30
0.0
 40
0.642138
  1
Rochester, IN  46975
  7
ROMANC
100
AcDbText
  0
TEXT
  5
128F
100
AcDbEntity
  8
BORDER
 62
     6
100
AcDbText
 10
19.46586
 20
20.824964
 30
0.0
 40
0.642138
  1
Phone: 800/354-4534  Fax: 574/223-6106
  7
ROMANC
100
AcDbText
  0
TEXT
  5
1290
100
AcDbEntity
  8
BORDER
 62
     6
100
AcDbText
 10
22.945963
 20
30.603611
 30
0.0
 40
0.868774
  1
Prefabricated Fiberglass
  7
ROMANC
100
AcDbText
  0
TEXT
  5
1291
100
AcDbEntity
  8
BORDER
 62
     6
100
AcDbText
 10
25.13138
 20
29.130073
 30
0.0
 40
0.868774
  1
Unirail Lift Station
  7
ROMANC
100
AcDbText
  0
TEXT
  5
1292
100
AcDbEntity
  8
BORDER
 62
     6
100
AcDbText
 10
18.526123
 20
27.321344
 30
0.0
 40
0.755456
  1
Reference:
  7
ROMANC
100
AcDbText
  0
TEXT
  5
1293
100
AcDbEntity
  8
BORDER
 62
     6
100
AcDbText
 10
29.909524
 20
26.637017
 30
0.0
 40
0.755456
  1
Unirail
  7
ROMANC
100
AcDbText
  0
TEXT
  5
1294
100
AcDbEntity
  8
BORDER
 62
     6
100
AcDbText
 10
44.291608
 20
31.216972
 30
0.0
 40
0.755456
  1
Scale: None
  7
ROMANC
100
AcDbText
  0
TEXT
  5
1295
100
AcDbEntity
  8
BORDER
 62
     6
100
AcDbText
 10
44.291608
 20
29.416972
 30
0.0
 40
0.755456
  1
Drawn By:
  7
ROMANC
100
AcDbText
  0
TEXT
  5
1296
100
AcDbEntity
  8
BORDER
 62
     6
100
AcDbText
 10
44.291608
 20
27.616972
 30
0.0
 40
0.755456
  1
Appv'd By:.
  7
ROMANC
100
AcDbText
  0
TEXT
  5
1297
100
AcDbEntity
  8
BORDER
 62
     6
100
AcDbText
 10
44.291608
 20
25.816972
 30
0.0
 40
0.755456
  1
Date: 05/16/03
  7
ROMANC
100
AcDbText
  0
TEXT
  5
1298
100
AcDbEntity
  8
BORDER
 62
     6
100
AcDbText
 10
44.334672
 20
23.07244
 30
0.0
 40
0.755456
  1
Supersedes Prints
  7
ROMANC
100
AcDbText
  0
TEXT
  5
1299
100
AcDbEntity
  8
BORDER
 62
     6
100
AcDbText
 10
44.334672
 20
21.84932
 30
0.0
 40
0.755456
  1
Prior To:
  7
ROMANC
100
AcDbText
  0
TEXT
  5
129A
100
AcDbEntity
  8
BORDER
 62
     6
100
AcDbText
 10
64.549019
 20
23.156154
 30
0.0
 40
0.755456
  1
Reference
  7
ROMANC
100
AcDbText
  0
TEXT
  5
129B
100
AcDbEntity
  8
BORDER
 62
     6
100
AcDbText
 10
64.549019
 20
21.933035
 30
0.0
 40
0.755456
  1
No:
  7
ROMANC
100
AcDbText
  0
TEXT
  5
129C
100
AcDbEntity
  8
BORDER
 62
     6
100
AcDbText
 10
71.0105
 20
21.404083
 30
0.0
 40
2.266368
  1
11119
  7
ROMANC
100
AcDbText
  0
TEXT
  5
129D
100
AcDbEntity
  8
BORDER
 62
     6
100
AcDbText
 10
94.651745
 20
30.080722
 30
0.0
 40
1.133184
  1
Revisions
  7
ROMANC
100
AcDbText
  0
LINE
  5
12A0
100
AcDbEntity
  8
OBJECT
100
AcDbLine
 10
61.455281
 20
81.252546
 30
0.0
 11
62.239604
 21
81.252546
 31
0.0
  0
LINE
  5
12A1
100
AcDbEntity
  8
OBJECT
100
AcDbLine
 10
61.455281
 20
82.912546
 30
0.0
 11
62.239604
 21
82.912546
 31
0.0
  0
LINE
  5
12A4
100
AcDbEntity
  8
OBJECT
 62
     2
100
AcDbLine
 39
38.939996
 10
53.352702
 20
52.098749
 30
0.0
 11
53.352702
 21
49.448785
 31
0.0
  0
LINE
  5
12A5
100
AcDbEntity
  8
OBJECT
 62
     2
100
AcDbLine
 39
38.939996
 10
53.352702
 20
52.833295
 30
0.0
 11
53.352702
 21
52.527229
 31
0.0
  0
LINE
  5
12A6
100
AcDbEntity
  8
OBJECT
 62
     2
100
AcDbLine
 39
38.939996
 10
53.352702
 20
55.036973
 30
0.0
 11
53.352702
 21
53.996321
 31
0.0
  0
LINE
  5
12A7
100
AcDbEntity
  8
OBJECT
 62
     2
100
AcDbLine
 39
38.939996
 10
53.352702
 20
53.567841
 30
0.0
 11
53.352702
 21
53.261775
 31
0.0
  0
LINE
  5
12A8
100
AcDbEntity
  8
OBJECT
 62
     2
100
AcDbLine
 39
38.939996
 10
47.731306
 20
52.098749
 30
0.0
 11
47.731306
 21
49.448785
 31
0.0
  0
LINE
  5
12A9
100
AcDbEntity
  8
OBJECT
 62
     2
100
AcDbLine
 39
38.939996
 10
47.731306
 20
53.567841
 30
0.0
 11
47.731306
 21
53.261775
 31
0.0
  0
LINE
  5
12AA
100
AcDbEntity
  8
OBJECT
 62
     2
100
AcDbLine
 39
38.939996
 10
47.731306
 20
55.036973
 30
0.0
 11
47.731306
 21
53.996321
 31
0.0
  0
LINE
  5
12AB
100
AcDbEntity
  8
OBJECT
 62
     2
100
AcDbLine
 39
38.939996
 10
47.731306
 20
52.833295
 30
0.0
 11
47.731306
 21
52.527229
 31
0.0
  0
LINE
  5
12AC
100
AcDbEntity
  8
OBJECT
 62
     2
100
AcDbLine
 39
38.939996
 10
47.731306
 20
47.549555
 30
0.0
 11
56.0381
 21
47.549555
 31
0.0
  0
LINE
  5
12AD
100
AcDbEntity
  8
OBJECT
100
AcDbLine
 10
51.263846
 20
61.631128
 30
0.0
 11
52.151604
 21
61.631128
 31
0.0
  0
LINE
  5
12B0
100
AcDbEntity
  8
OBJECT
100
AcDbLine
 10
47.731306
 20
55.036973
 30
0.0
 11
48.510106
 21
60.500896
 31
0.0
  0
LINE
  5
12B1
100
AcDbEntity
  8
OBJECT
100
AcDbLine
 10
47.244922
 20
53.996321
 30
0.0
 11
47.731306
 21
53.996321
 31
0.0
  0
LINE
  5
12B2
100
AcDbEntity
  8
OBJECT
100
AcDbLine
 10
47.244922
 20
53.567841
 30
0.0
 11
47.731306
 21
53.567841
 31
0.0
  0
LINE
  5
12B3
100
AcDbEntity
  8
OBJECT
100
AcDbLine
 10
47.244922
 20
52.833295
 30
0.0
 11
47.731306
 21
52.833295
 31
0.0
  0
LINE
  5
12B4
100
AcDbEntity
  8
OBJECT
100
AcDbLine
 10
47.244922
 20
53.261775
 30
0.0
 11
47.731306
 21
53.261775
 31
0.0
  0
LINE
  5
12B5
100
AcDbEntity
  8
OBJECT
100
AcDbLine
 10
47.244922
 20
52.527229
 30
0.0
 11
47.731306
 21
52.527229
 31
0.0
  0
LINE
  5
12B6
100
AcDbEntity
  8
OBJECT
100
AcDbLine
 10
47.244922
 20
52.098749
 30
0.0
 11
47.731306
 21
52.098749
 31
0.0
  0
ARC
  5
12B7
100
AcDbEntity
  8
OBJECT
100
AcDbCircle
 10
48.320608
 20
48.49917
 30
0.0
 40
1.117607
100
AcDbArc
 50
121.822467
 51
238.177533
  0
LINE
  5
12B8
100
AcDbEntity
  8
OBJECT
100
AcDbLine
 10
47.244922
 20
52.098749
 30
0.0
 11
47.244922
 21
52.527229
 31
0.0
  0
LINE
  5
12B9
100
AcDbEntity
  8
OBJECT
100
AcDbLine
 10
47.244922
 20
52.833295
 30
0.0
 11
47.244922
 21
53.261775
 31
0.0
  0
LINE
  5
12BA
100
AcDbEntity
  8
OBJECT
100
AcDbLine
 10
47.244922
 20
53.567841
 30
0.0
 11
47.244922
 21
53.996321
 31
0.0
  0
LINE
  5
12BB
100
AcDbEntity
  8
OBJECT
100
AcDbLine
 10
48.932404
 20
60.500896
 30
0.0
 11
48.932404
 21
61.631128
 31
0.0
  0
LINE
  5
12BC
100
AcDbEntity
  8
OBJECT
100
AcDbLine
 10
48.510106
 20
60.500896
 30
0.0
 11
48.932404
 21
60.500896
 31
0.0
  0
LINE
  5
12BD
100
AcDbEntity
  8
OBJECT
100
AcDbLine
 10
49.868462
 20
62.084637
 30
0.0
 11
49.708731
 21
62.463598
 31
0.0
  0
LINE
  5
12BE
100
AcDbEntity
  8
OBJECT
100
AcDbLine
 10
49.289343
 20
62.463598
 30
0.0
 11
49.708731
 21
62.463598
 31
0.0
  0
LINE
  5
12BF
100
AcDbEntity
  8
OBJECT
100
AcDbLine
 10
49.129612
 20
62.084637
 30
0.0
 11
49.289343
 21
62.463598
 31
0.0
  0
LINE
  5
12C0
100
AcDbEntity
  8
OBJECT
100
AcDbLine
 10
48.932404
 20
61.631128
 30
0.0
 11
49.129612
 21
61.631128
 31
0.0
  0
LINE
  5
12C1
100
AcDbEntity
  8
OBJECT
100
AcDbLine
 10
49.129612
 20
61.631128
 30
0.0
 11
49.129612
 21
62.084637
 31
0.0
  0
ARC
  5
12C2
100
AcDbEntity
  8
OBJECT
100
AcDbCircle
 10
51.166496
 20
62.663052
 30
0.0
 40
0.513818
100
AcDbArc
 50
294.342998
 51
245.657002
  0
LINE
  5
12C3
100
AcDbEntity
  8
OBJECT
100
AcDbLine
 10
49.868462
 20
61.631128
 30
0.0
 11
51.069146
 21
61.631128
 31
0.0
  0
LINE
  5
12C4
100
AcDbEntity
  8
OBJECT
100
AcDbLine
 10
49.868462
 20
61.631128
 30
0.0
 11
49.868462
 21
62.084637
 31
0.0
  0
ARC
  5
12C5
100
AcDbEntity
  8
OBJECT
100
AcDbCircle
 10
51.458546
 20
62.017525
 30
0.0
 40
0.1947
100
AcDbArc
 50
114.342998
 51
180.0
  0
ARC
  5
12C6
100
AcDbEntity
  8
OBJECT
100
AcDbCircle
 10
50.874446
 20
62.017525
 30
0.0
 40
0.1947
100
AcDbArc
 50
0.0
 51
65.657002
  0
CIRCLE
  5
12C7
100
AcDbEntity
  8
OBJECT
100
AcDbCircle
 10
51.166496
 20
62.663052
 30
0.0
 40
0.319118
  0
LINE
  5
12C8
100
AcDbEntity
  8
OBJECT
100
AcDbLine
 10
51.069146
 20
62.017525
 30
0.0
 11
51.069146
 21
61.631128
 31
0.0
  0
LINE
  5
12C9
100
AcDbEntity
  8
OBJECT
100
AcDbLine
 10
51.263846
 20
62.017525
 30
0.0
 11
51.263846
 21
61.631128
 31
0.0
  0
LINE
  5
12CA
100
AcDbEntity
  8
OBJECT
100
AcDbLine
 10
53.352702
 20
55.036973
 30
0.0
 11
52.573903
 21
60.500896
 31
0.0
  0
LINE
  5
12CB
100
AcDbEntity
  8
15
 62
     2
100
AcDbLine
 39
15.575999
 10
54.472599
 20
50.300145
 30
0.0
 11
54.472599
 21
49.793777
 31
0.0
  0
LINE
  5
12CC
100
AcDbEntity
  8
OBJECT
100
AcDbLine
 10
54.571402
 20
51.357519
 30
0.0
 11
56.927002
 21
51.357519
 31
0.0
  0
ARC
  5
12CD
100
AcDbEntity
  8
OBJECT
100
AcDbCircle
 10
56.0381
 20
48.328355
 30
0.0
 40
0.7788
100
AcDbArc
 50
270.0
 51
0.0
  0
LINE
  5
12CE
100
AcDbEntity
  8
OBJECT
100
AcDbLine
 10
54.472599
 20
49.793777
 30
0.0
 11
53.473421
 21
49.467969
 31
0.0
  0
ARC
  5
12CF
100
AcDbEntity
  8
OBJECT
100
AcDbCircle
 10
53.352702
 20
49.838185
 30
0.0
 40
0.3894
100
AcDbArc
 50
270.0
 51
288.059913
  0
LINE
  5
12D0
100
AcDbEntity
  8
OBJECT
100
AcDbLine
 10
53.839087
 20
52.098749
 30
0.0
 11
53.839087
 21
52.527229
 31
0.0
  0
LINE
  5
12D1
100
AcDbEntity
  8
OBJECT
100
AcDbLine
 10
53.839087
 20
52.098749
 30
0.0
 11
53.352702
 21
52.098749
 31
0.0
  0
LINE
  5
12D2
100
AcDbEntity
  8
OBJECT
100
AcDbLine
 10
53.839087
 20
52.527229
 30
0.0
 11
53.352702
 21
52.527229
 31
0.0
  0
LINE
  5
12D3
100
AcDbEntity
  8
OBJECT
100
AcDbLine
 10
53.839087
 20
53.996321
 30
0.0
 11
53.352702
 21
53.996321
 31
0.0
  0
LINE
  5
12D4
100
AcDbEntity
  8
OBJECT
100
AcDbLine
 10
53.839087
 20
52.833295
 30
0.0
 11
53.839087
 21
53.261775
 31
0.0
  0
LINE
  5
12D5
100
AcDbEntity
  8
OBJECT
100
AcDbLine
 10
53.839087
 20
53.261775
 30
0.0
 11
53.352702
 21
53.261775
 31
0.0
  0
LINE
  5
12D6
100
AcDbEntity
  8
OBJECT
100
AcDbLine
 10
53.839087
 20
52.833295
 30
0.0
 11
53.352702
 21
52.833295
 31
0.0
  0
LINE
  5
12D7
100
AcDbEntity
  8
OBJECT
100
AcDbLine
 10
53.839087
 20
53.567841
 30
0.0
 11
53.352702
 21
53.567841
 31
0.0
  0
LINE
  5
12D8
100
AcDbEntity
  8
OBJECT
100
AcDbLine
 10
53.839087
 20
53.567841
 30
0.0
 11
53.839087
 21
53.996321
 31
0.0
  0
LINE
  5
12D9
100
AcDbEntity
  8
OBJECT
100
AcDbLine
 10
54.376702
 20
51.162819
 30
0.0
 11
54.376702
 21
50.450092
 31
0.0
  0
ARC
  5
12DA
100
AcDbEntity
  8
OBJECT
100
AcDbCircle
 10
54.571402
 20
50.450092
 30
0.0
 40
0.1947
100
AcDbArc
 50
180.0
 51
239.50498
  0
ARC
  5
12DB
100
AcDbEntity
  8
OBJECT
100
AcDbCircle
 10
54.571402
 20
51.162819
 30
0.0
 40
0.1947
100
AcDbArc
 50
90.0
 51
180.0
  0
LINE
  5
12DC
100
AcDbEntity
  8
OBJECT
100
AcDbLine
 10
56.8169
 20
50.255392
 30
0.0
 11
56.8169
 21
48.328355
 31
0.0
  0
ARC
  5
12DD
100
AcDbEntity
  8
OBJECT
100
AcDbCircle
 10
56.927002
 20
51.162819
 30
0.0
 40
0.1947
100
AcDbArc
 50
0.0
 51
90.0
  0
LINE
  5
12DE
100
AcDbEntity
  8
OBJECT
100
AcDbLine
 10
57.121702
 20
51.162819
 30
0.0
 11
57.121702
 21
50.450092
 31
0.0
  0
ARC
  5
12DF
100
AcDbEntity
  8
OBJECT
100
AcDbCircle
 10
56.927002
 20
50.450092
 30
0.0
 40
0.1947
100
AcDbArc
 50
270.0
 51
0.0
  0
LINE
  5
12E0
100
AcDbEntity
  8
OBJECT
100
AcDbLine
 10
56.927002
 20
50.255392
 30
0.0
 11
56.8169
 21
50.255392
 31
0.0
  0
LINE
  5
12E1
100
AcDbEntity
  8
OBJECT
100
AcDbLine
 10
52.151604
 20
60.500896
 30
0.0
 11
52.151604
 21
61.631128
 31
0.0
  0
LINE
  5
12E2
100
AcDbEntity
  8
OBJECT
100
AcDbLine
 10
52.573903
 20
60.500896
 30
0.0
 11
52.151604
 21
60.500896
 31
0.0
  0
CIRCLE
  5
12E3
100
AcDbEntity
  8
OBJECT
100
AcDbCircle
 10
50.447458
 20
155.690019
 30
0.0
 40
4.125
  0
LWPOLYLINE
  5
1301
100
AcDbEntity
  8
OBJECT
100
AcDbPolyline
 90
        5
 70
     0
 43
0.0
 10
49.374083
 20
62.460215
 10
49.202363
 20
68.802547
 10
49.202363
 20
72.18859
 10
49.363691
 20
78.474622
 10
49.469923
 20
80.225846
  0
LWPOLYLINE
  5
1302
100
AcDbEntity
  8
OBJECT
100
AcDbPolyline
 90
        5
 70
     0
 43
0.0
 10
49.623991
 20
62.466981
 10
49.452363
 20
68.805931
 10
49.452363
 20
72.185383
 10
49.613497
 20
78.463843
 10
49.720383
 20
80.225846
  0
LINE
  5
1417
100
AcDbEntity
  8
BORDER
100
AcDbLine
 10
9.639926
 20
30.582421
 30
0.0
 11
10.012762
 21
30.582421
 31
0.0
  0
LINE
  5
1418
100
AcDbEntity
  8
BORDER
100
AcDbLine
 10
9.639926
 20
29.371474
 30
0.0
 11
10.012762
 21
29.371474
 31
0.0
  0
LINE
  5
1419
102
{ACAD_REACTORS
330
141B
102
}
100
AcDbEntity
  8
BORDER
100
AcDbLine
 10
8.912156
 20
28.292768
 30
0.0
 11
10.903226
 21
28.292768
 31
0.0
  0
LINE
  5
141A
102
{ACAD_REACTORS
330
141B
102
}
100
AcDbEntity
  8
BORDER
100
AcDbLine
 10
8.908961
 20
23.972016
 30
0.0
 11
10.753327
 21
23.972016
 31
0.0
  0
HATCH
  5
141B
100
AcDbEntity
  8
BORDER
100
AcDbHatch
 10
0.0
 20
0.0
 30
0.0
210
0.0
220
0.0
230
1.0
  2
ANSI37
 70
     0
 71
     1
 91
        2
 92
        7
 72
     1
 73
     1
 93
       16
 10
9.530542884093691
 20
24.50895513247898
 42
-0.414213562372941
 10
9.105607884093689
 20
24.08402013247921
 42
0.0
 10
8.908960719863117
 20
24.08402013247921
 42
0.0
 10
8.908960719863117
 20
23.97201571363239
 42
0.0
 10
10.75332702340169
 20
23.97201571363238
 42
0.0
 10
10.75332702340169
 20
24.08402013247921
 42
0.0
 10
10.55667985917175
 20
24.08402013247921
 42
-0.4142135623735273
 10
10.13174485917112
 20
24.50895513247921
 42
0.0
 10
10.13174485917112
 20
25.99827302685995
 42
0.0609117558027711
 10
10.87560543733764
 20
25.90663351172461
 42
0.4291497434353558
 10
12.19009838708899
 20
27.08776858397625
 42
0.3916311771496757
 10
10.9032261463617
 20
28.2927676083011
 42
0.0
 10
8.912155838302808
 20
28.2927676083011
 42
0.0
 10
8.912155838302808
 20
28.17416611395911
 42
0.0
 10
9.105607884093913
 20
28.17416611395911
 42
-0.4142135623729418
 10
9.530542884093691
 20
27.74923111395911
 42
0.0
 97
       16
330
147E
330
1419
330
1477
330
1476
330
1475
330
1447
330
145B
330
145A
330
1459
330
141A
330
1489
330
1488
330
1487
330
1486
330
1485
330
1484
 92
       22
 72
     1
 73
     1
 93
        3
 10
10.13174485917112
 20
27.97361955541412
 42
-0.5287425889419929
 10
11.46661731783378
 20
27.03685760049778
 42
-0.5439228899271226
 10
10.13174485917112
 20
26.1611884292022
 42
0.0
 97
        3
330
147D
330
148A
330
147F
 75
     0
 76
     1
 52
0.0
 41
0.03125
 77
     0
 78
     2
 53
45.0
 43
-14.058491
 44
-88.881356
 45
-0.00276213586401
 46
0.00276213586401
 79
     0
 53
135.0
 43
-14.058491
 44
-88.881356
 45
-0.00276213586401
 46
-0.00276213586401
 79
     0
 47
0.027301
 98
        2
 10
9.781032
 20
26.833715
 10
9.781032
 20
26.833715
  0
LINE
  5
141C
100
AcDbEntity
  8
BORDER
100
AcDbLine
 10
9.184911
 20
22.294815
 30
0.0
 11
9.896663
 21
22.294815
 31
0.0
  0
LINE
  5
141D
100
AcDbEntity
  8
BORDER
100
AcDbLine
 10
10.255197
 20
21.465355
 30
0.0
 11
9.184911
 21
21.465355
 31
0.0
  0
LINE
  5
141E
100
AcDbEntity
  8
BORDER
100
AcDbLine
 10
9.184911
 20
23.124275
 30
0.0
 11
10.255197
 21
23.124275
 31
0.0
  0
LINE
  5
141F
100
AcDbEntity
  8
BORDER
100
AcDbLine
 10
-7.793962
 20
23.657955
 30
0.0
 11
12.480355
 21
23.657955
 31
0.0
  0
LINE
  5
1420
100
AcDbEntity
  8
BORDER
100
AcDbLine
 10
1.666988
 20
28.813624
 30
0.0
 11
12.003322
 21
28.813624
 31
0.0
  0
LINE
  5
1421
100
AcDbEntity
  8
BORDER
100
AcDbLine
 10
-7.793962
 20
23.657955
 30
0.0
 11
12.480355
 21
23.657955
 31
0.0
  0
LINE
  5
1422
102
{ACAD_REACTORS
330
1426
102
}
100
AcDbEntity
  8
BORDER
100
AcDbLine
 10
-6.739491
 20
31.372386
 30
0.0
 11
1.390678
 21
31.372386
 31
0.0
  0
LINE
  5
1423
100
AcDbEntity
  8
BORDER
100
AcDbLine
 10
1.394881
 20
23.124275
 30
0.0
 11
0.964317
 21
23.124275
 31
0.0
  0
LINE
  5
1424
100
AcDbEntity
  8
BORDER
100
AcDbLine
 10
0.964317
 20
22.273668
 30
0.0
 11
1.394881
 21
22.273668
 31
0.0
  0
ARC
  5
1425
102
{ACAD_REACTORS
330
1426
102
}
100
AcDbEntity
  8
BORDER
100
AcDbCircle
 10
-0.878772
 20
28.792941
 30
0.0
 40
2.054565
100
AcDbArc
 50
0.076996
 51
90.0
  0
HATCH
  5
1426
100
AcDbEntity
  8
BORDER
100
AcDbHatch
 10
0.0
 20
0.0
 30
0.0
210
0.0
220
0.0
230
1.0
  2
ANSI37
 70
     0
 71
     1
 91
        1
 92
        7
 72
     1
 73
     1
 93
       18
 10
-3.563962487509044
 20
25.18196883295927
 42
-0.4142135623730509
 10
-4.593382487509045
 20
24.15254883295942
 42
0.0
 10
-4.924903357676909
 20
24.15254883295942
 42
0.0
 10
-4.92490335767691
 20
23.93782514619316
 42
0.0
 10
-0.4239101768751397
 20
23.93782514619316
 42
0.0
 10
-0.4239101768751397
 20
24.15254883295942
 42
0.0
 10
-0.7554310470435858
 20
24.15254883295942
 42
-0.4142135623730515
 10
-1.784851047043432
 20
25.18196883295942
 42
0.0
 10
-1.784851047043432
 20
30.84750559752448
 42
0.0
 10
-0.8787724999194079
 20
30.84750559752448
 42
-0.4138200196737713
 10
1.175790644944644
 20
28.79570157404258
 42
0.0
 10
1.390677650015916
 20
28.79570157404257
 42
0.0
 10
1.390677650016343
 20
31.37238581523261
 42
0.0
 10
-6.739491184568394
 20
31.37238581523261
 42
0.0
 10
-6.739491184568392
 20
28.79570157404258
 42
0.0
 10
-6.524604179496696
 20
28.79570157404258
 42
-0.4138200196737714
 10
-4.470041034632643
 20
30.84750559752448
 42
0.0
 10
-3.563962487509044
 20
30.84750559752448
 42
0.0
 97
       18
330
1446
330
1425
330
1462
330
145D
330
1422
330
1443
330
1444
330
1442
330
1445
330
142A
330
142C
330
1437
330
1436
330
142B
330
1441
330
1440
330
143F
330
1429
 75
     0
 76
     1
 52
0.0
 41
0.03125
 77
     0
 78
     2
 53
45.0
 43
-14.058491
 44
-88.881356
 45
-0.00276213586401
 46
0.00276213586401
 79
     0
 53
135.0
 43
-14.058491
 44
-88.881356
 45
-0.00276213586401
 46
-0.00276213586401
 79
     0
 47
0.049862
 98
        1
 10
-2.892741
 20
27.90483
  0
ELLIPSE
  5
1427
102
{ACAD_REACTORS
330
1428
102
}
100
AcDbEntity
  8
BORDER
100
AcDbEllipse
 10
2.814579
 20
26.138548
 30
0.0
 11
0.0000000000000152
 21
2.252946571655129
 31
0.0
210
0.0
220
0.0
230
1.0
 40
0.93822
 41
0.0
 42
6.283185307179586
  0
HATCH
  5
1428
100
AcDbEntity
  8
BORDER
100
AcDbHatch
 10
0.0
 20
0.0
 30
0.0
210
0.0
220
0.0
230
1.0
  2
ANSI37
 70
     0
 71
     1
 91
        2
 92
        5
 93
        1
 72
     3
 10
2.814579
 20
26.138548
 11
0.0
 21
2.252947
 40
0.93822
 50
0.0
 51
360.0
 73
     1
 97
        1
330
1427
 92
       20
 93
        1
 72
     3
 10
2.814579
 20
26.151385
 11
0.0
 21
2.021875
 40
0.683214
 50
0.0
 51
360.0
 73
     1
 97
        1
330
144B
 75
     0
 76
     1
 52
0.0
 41
0.03125
 77
     0
 78
     2
 53
45.0
 43
-14.058491
 44
-88.881356
 45
-0.00276213586401
 46
0.00276213586401
 79
     0
 53
135.0
 43
-14.058491
 44
-88.881356
 45
-0.00276213586401
 46
-0.00276213586401
 79
     0
 47
0.027301
 98
        2
 10
1.294313
 20
27.055536
 10
1.294313
 20
27.055536
  0
LINE
  5
1429
102
{ACAD_REACTORS
330
1426
102
}
100
AcDbEntity
  8
BORDER
100
AcDbLine
 10
-1.784851
 20
25.181969
 30
0.0
 11
-1.784851
 21
30.847506
 31
0.0
  0
LINE
  5
142A
102
{ACAD_REACTORS
330
1426
102
}
100
AcDbEntity
  8
BORDER
100
AcDbLine
 10
-3.563962
 20
25.181969
 30
0.0
 11
-3.563962
 21
30.847506
 31
0.0
  0
LINE
  5
142B
102
{ACAD_REACTORS
330
1426
102
}
100
AcDbEntity
  8
BORDER
100
AcDbLine
 10
-4.924903
 20
23.937825
 30
0.0
 11
-0.42391
 21
23.937825
 31
0.0
  0
ARC
  5
142C
102
{ACAD_REACTORS
330
1426
102
}
100
AcDbEntity
  8
BORDER
100
AcDbCircle
 10
-4.593382
 20
25.181969
 30
0.0
 40
1.02942
100
AcDbArc
 50
270.0
 51
0.0
  0
ARC
  5
142D
100
AcDbEntity
  8
BORDER
100
AcDbCircle
 10
-3.760354
 20
22.225042
 30
0.0
 40
0.760762
100
AcDbArc
 50
174.737783
 51
327.723969
  0
ARC
  5
142E
100
AcDbEntity
  8
BORDER
100
AcDbCircle
 10
-3.701385
 20
22.307857
 30
0.0
 40
0.816629
100
AcDbArc
 50
44.321228
 51
180.91508
  0
LINE
  5
142F
100
AcDbEntity
  8
BORDER
100
AcDbLine
 10
-4.907011
 20
21.465355
 30
0.0
 11
-6.178079
 21
23.124275
 31
0.0
  0
LINE
  5
1430
100
AcDbEntity
  8
BORDER
100
AcDbLine
 10
-6.178079
 20
23.124275
 30
0.0
 11
-6.178079
 21
21.465355
 31
0.0
  0
LINE
  5
1431
100
AcDbEntity
  8
BORDER
100
AcDbLine
 10
-6.322685
 20
19.948025
 30
0.0
 11
-6.322685
 21
19.948025
 31
0.0
  0
LINE
  5
1432
100
AcDbEntity
  8
BORDER
100
AcDbLine
 10
-7.244092
 20
23.124275
 30
0.0
 11
-6.564714
 21
23.124275
 31
0.0
  0
LINE
  5
1433
100
AcDbEntity
  8
BORDER
100
AcDbLine
 10
-7.244092
 20
21.465355
 30
0.0
 11
-6.564714
 21
21.465355
 31
0.0
  0
LINE
  5
1434
100
AcDbEntity
  8
BORDER
100
AcDbLine
 10
-6.904403
 20
23.124275
 30
0.0
 11
-6.904403
 21
21.465355
 31
0.0
  0
LINE
  5
1435
100
AcDbEntity
  8
BORDER
100
AcDbLine
 10
-4.907011
 20
23.124275
 30
0.0
 11
-4.907011
 21
21.465355
 31
0.0
  0
LINE
  5
1436
102
{ACAD_REACTORS
330
1426
102
}
100
AcDbEntity
  8
BORDER
100
AcDbLine
 10
-4.924903
 20
24.152549
 30
0.0
 11
-4.924903
 21
23.937825
 31
0.0
  0
LINE
  5
1437
102
{ACAD_REACTORS
330
1426
102
}
100
AcDbEntity
  8
BORDER
100
AcDbLine
 10
-4.924903
 20
24.152549
 30
0.0
 11
-4.593382
 21
24.152549
 31
0.0
  0
SPLINE
  5
1438
100
AcDbEntity
  8
BORDER
100
AcDbSpline
210
0.0
220
0.0
230
1.0
 70
    11
 71
     3
 72
    24
 73
    20
 74
     0
 42
0.0000001
 43
0.0000001
 40
0.0
 40
0.0
 40
0.0
 40
0.0
 40
0.474866629778075
 40
0.474866629778075
 40
1.277791044886493
 40
1.277791044886493
 40
2.080715459994911
 40
2.080715459994911
 40
2.883639875103329
 40
2.883639875103329
 40
3.686564290211747
 40
3.686564290211747
 40
4.489488705320165
 40
4.489488705320165
 40
5.292413120428583
 40
5.292413120428583
 40
6.095337535537001
 40
6.095337535537001
 40
6.283185307179586
 40
6.283185307179586
 40
6.283185307179586
 40
6.283185307179586
 10
-2.029295315840968
 20
23.14677479656551
 30
0.0
 10
-2.163747567222671
 20
23.14677479656551
 30
0.0
 10
-2.298086562940753
 20
23.1141611450502
 30
0.0
 10
-2.619828631894662
 20
22.94822817935794
 30
0.0
 10
-2.776794664160107
 20
22.75915623160555
 30
0.0
 10
-2.908088535740702
 20
22.32258030721281
 30
0.0
 10
-2.881543517305189
 20
22.0780013185461
 30
0.0
 10
-2.659656135906018
 20
21.67998680323704
 30
0.0
 10
-2.465792389555403
 20
21.52922424651733
 30
0.0
 10
-2.026167876051587
 20
21.41287022410635
 30
0.0
 10
-1.783368715490567
 20
21.44806876168131
 30
0.0
 10
-1.394583404030456
 20
21.68450047180128
 30
0.0
 10
-1.251207943634611
 20
21.88413355303224
 30
0.0
 10
-1.150721918231099
 20
22.32885923001019
 30
0.0
 10
-1.194279047132127
 20
22.57097380526458
 30
0.0
 10
-1.443417143052059
 20
22.95242464586407
 30
0.0
 10
-1.647336318825338
 20
23.08919672342567
 30
0.0
 10
-1.922923162976601
 20
23.14174876304461
 30
0.0
 10
-1.97610868567871
 20
23.14677479656551
 30
0.0
 10
-2.029295315840968
 20
23.14677479656551
 30
0.0
  0
LINE
  5
1439
100
AcDbEntity
  8
BORDER
100
AcDbLine
 10
-0.334061
 20
22.273668
 30
0.0
 11
0.32453
 21
21.465355
 31
0.0
  0
LINE
  5
143A
100
AcDbEntity
  8
BORDER
100
AcDbLine
 10
0.964317
 20
23.124275
 30
0.0
 11
0.964317
 21
21.465355
 31
0.0
  0
ARC
  5
143B
100
AcDbEntity
  8
BORDER
100
AcDbCircle
 10
-0.214628
 20
22.698971
 30
0.0
 40
0.425303
100
AcDbArc
 50
270.0
 51
90.0
  0
LINE
  5
143C
100
AcDbEntity
  8
BORDER
100
AcDbLine
 10
-0.214628
 20
23.124275
 30
0.0
 11
-0.788124
 21
23.124275
 31
0.0
  0
LINE
  5
143D
100
AcDbEntity
  8
BORDER
100
AcDbLine
 10
-0.788124
 20
23.124275
 30
0.0
 11
-0.788124
 21
21.465355
 31
0.0
  0
LINE
  5
143E
100
AcDbEntity
  8
BORDER
100
AcDbLine
 10
-0.788124
 20
22.273668
 30
0.0
 11
-0.214628
 21
22.273668
 31
0.0
  0
ARC
  5
143F
102
{ACAD_REACTORS
330
1426
102
}
100
AcDbEntity
  8
BORDER
100
AcDbCircle
 10
-0.755431
 20
25.181969
 30
0.0
 40
1.02942
100
AcDbArc
 50
180.0
 51
270.0
  0
LINE
  5
1440
102
{ACAD_REACTORS
330
1426
102
}
100
AcDbEntity
  8
BORDER
100
AcDbLine
 10
-0.42391
 20
24.152549
 30
0.0
 11
-0.755431
 21
24.152549
 31
0.0
  0
LINE
  5
1441
102
{ACAD_REACTORS
330
1426
102
}
100
AcDbEntity
  8
BORDER
100
AcDbLine
 10
-0.42391
 20
24.152549
 30
0.0
 11
-0.42391
 21
23.937825
 31
0.0
  0
ARC
  5
1442
102
{ACAD_REACTORS
330
1426
102
}
100
AcDbEntity
  8
BORDER
100
AcDbCircle
 10
-4.470041
 20
28.792941
 30
0.0
 40
2.054565
100
AcDbArc
 50
90.0
 51
179.923004
  0
LINE
  5
1443
102
{ACAD_REACTORS
330
1426
102
}
100
AcDbEntity
  8
BORDER
100
AcDbLine
 10
-6.739491
 20
28.795702
 30
0.0
 11
-6.739491
 21
31.372386
 31
0.0
  0
LINE
  5
1444
102
{ACAD_REACTORS
330
1426
102
}
100
AcDbEntity
  8
BORDER
100
AcDbLine
 10
-6.739491
 20
28.795702
 30
0.0
 11
-6.524606
 21
28.795702
 31
0.0
  0
LINE
  5
1445
102
{ACAD_REACTORS
330
1426
102
}
100
AcDbEntity
  8
BORDER
100
AcDbLine
 10
-4.470041
 20
30.847506
 30
0.0
 11
-3.563962
 21
30.847506
 31
0.0
  0
LINE
  5
1446
102
{ACAD_REACTORS
330
1426
102
}
100
AcDbEntity
  8
BORDER
100
AcDbLine
 10
-0.878772
 20
30.847506
 30
0.0
 11
-1.784851
 21
30.847506
 31
0.0
  0
LINE
  5
1447
102
{ACAD_REACTORS
330
141B
102
}
100
AcDbEntity
  8
BORDER
100
AcDbLine
 10
9.530543
 20
24.508955
 30
0.0
 11
9.530543
 21
27.749231
 31
0.0
  0
LWPOLYLINE
  5
1448
102
{ACAD_REACTORS
330
144A
102
}
100
AcDbEntity
  8
BORDER
100
AcDbPolyline
 90
        3
 70
     1
 43
0.0
 10
6.503775
 20
26.177557
 42
0.543923
 10
7.838647
 20
27.053226
 42
0.528743
 10
6.503775
 20
27.989988
  0
LWPOLYLINE
  5
1449
102
{ACAD_REACTORS
330
144A
102
}
100
AcDbEntity
  8
BORDER
100
AcDbPolyline
 90
       17
 70
     0
 43
0.0
 10
7.247635
 20
25.923002
 42
-0.060912
 10
6.503775
 20
26.014642
 10
6.503775
 20
24.525324
 42
0.414214
 10
6.92871
 20
24.100389
 10
7.125357
 20
24.100389
 10
7.125357
 20
23.988384
 10
5.28099
 20
23.988384
 10
5.28099
 20
24.100389
 10
5.477638
 20
24.100389
 42
0.414214
 10
5.902573
 20
24.525324
 10
5.902573
 20
27.7656
 42
0.414214
 10
5.477638
 20
28.190535
 10
5.284186
 20
28.190535
 10
5.284186
 20
28.309136
 10
7.25965
 20
28.309136
 42
-0.395102
 10
8.562128
 20
27.104137
 42
-0.42915
 10
7.247635
 20
25.923002
  0
HATCH
  5
144A
100
AcDbEntity
  8
BORDER
100
AcDbHatch
 10
0.0
 20
0.0
 30
0.0
210
0.0
220
0.0
230
1.0
  2
ANSI37
 70
     0
 71
     1
 91
        2
 92
        7
 72
     1
 73
     1
 93
       16
 10
5.902572627346467
 20
24.52532385760376
 42
-0.4142135623730946
 10
5.477637627346688
 20
24.10038885760398
 42
0.0
 10
5.280990463115893
 20
24.10038885760399
 42
0.0
 10
5.280990463115893
 20
23.98838443875631
 42
0.0
 10
7.125356766654898
 20
23.98838443875631
 42
0.0
 10
7.125356766654896
 20
24.10038885760398
 42
0.0
 10
6.928709602424101
 20
24.10038885760398
 42
-0.4142135623730951
 10
6.503774602424323
 20
24.52532385760376
 42
0.0
 10
6.503774602424323
 20
26.014641751984
 42
0.0609117558023514
 10
7.247635180585771
 20
25.92300223684871
 42
0.4291497434370834
 10
8.562128130341557
 20
27.10413730910288
 42
0.3951020987304022
 10
7.259649696634542
 20
28.30913633342503
 42
0.0
 10
5.284185581555585
 20
28.30913633342503
 42
0.0
 10
5.284185581555585
 20
28.1905348390839
 42
0.0
 10
5.477637627346697
 20
28.1905348390839
 42
-0.4142135623730895
 10
5.902572627346467
 20
27.76559983908412
 42
0.0
 97
        1
330
1449
 92
       22
 72
     1
 73
     1
 93
        3
 10
6.503774602424323
 20
27.98998828053782
 42
-0.5287425889467327
 10
7.838647061086811
 20
27.05322632560691
 42
-0.5439228899217185
 10
6.503774602424323
 20
26.17755715432678
 42
0.0
 97
        1
330
1448
 75
     0
 76
     1
 52
0.0
 41
0.03125
 77
     0
 78
     2
 53
45.0
 43
-14.058491
 44
-88.881356
 45
-0.00276213586401
 46
0.00276213586401
 79
     0
 53
135.0
 43
-14.058491
 44
-88.881356
 45
-0.00276213586401
 46
-0.00276213586401
 79
     0
 47
0.027301
 98
        2
 10
6.143866
 20
27.209105
 10
6.143866
 20
27.209105
  0
ELLIPSE
  5
144B
102
{ACAD_REACTORS
330
1428
102
}
100
AcDbEntity
  8
BORDER
100
AcDbEllipse
 10
2.814579
 20
26.151385
 30
0.0
 11
0.0000000000000152
 21
2.02187521018945
 31
0.0
210
0.0
220
0.0
230
1.0
 40
0.683214
 41
0.0
 42
6.283185307179586
  0
SPLINE
  5
144C
100
AcDbEntity
  8
BORDER
100
AcDbSpline
210
0.0
220
0.0
230
1.0
 70
    11
 71
     3
 72
    24
 73
    20
 74
     0
 42
0.0000001
 43
0.0000001
 40
0.0
 40
0.0
 40
0.0
 40
0.0
 40
0.474866629778075
 40
0.474866629778075
 40
1.277791044886493
 40
1.277791044886493
 40
2.080715459994911
 40
2.080715459994911
 40
2.883639875103329
 40
2.883639875103329
 40
3.686564290211747
 40
3.686564290211747
 40
4.489488705320165
 40
4.489488705320165
 40
5.292413120428583
 40
5.292413120428583
 40
6.095337535537001
 40
6.095337535537001
 40
6.283185307179586
 40
6.283185307179586
 40
6.283185307179586
 40
6.283185307179586
 10
2.906740824556734
 20
23.14677479656551
 30
0.0
 10
2.772288573174606
 20
23.14677479656551
 30
0.0
 10
2.637949577456524
 20
23.1141611450502
 30
0.0
 10
2.316207508502614
 20
22.94822817935794
 30
0.0
 10
2.159241476237596
 20
22.75915623160555
 30
0.0
 10
2.027947604657001
 20
22.32258030721281
 30
0.0
 10
2.054492623092514
 20
22.0780013185461
 30
0.0
 10
2.276380004491258
 20
21.67998680323704
 30
0.0
 10
2.470243750841873
 20
21.52922424651733
 30
0.0
 10
2.909868264345689
 20
21.41287022410635
 30
0.0
 10
3.152667424906709
 20
21.44806876168131
 30
0.0
 10
3.54145273636683
 20
21.68450047180128
 30
0.0
 10
3.684828196762675
 20
21.88413355303224
 30
0.0
 10
3.785314222166613
 20
22.32885923001019
 30
0.0
 10
3.741757093265585
 20
22.57097380526458
 30
0.0
 10
3.492618997345653
 20
22.95242464586407
 30
0.0
 10
3.288699821571947
 20
23.08919672342567
 30
0.0
 10
3.013112977420675
 20
23.14174876304461
 30
0.0
 10
2.959927454718993
 20
23.14677479656551
 30
0.0
 10
2.906740824556734
 20
23.14677479656551
 30
0.0
  0
ARC
  5
144D
100
AcDbEntity
  8
BORDER
100
AcDbCircle
 10
1.394881
 20
22.698971
 30
0.0
 40
0.425303
100
AcDbArc
 50
270.0
 51
90.0
  0
LINE
  5
144E
100
AcDbEntity
  8
BORDER
100
AcDbLine
 10
4.667925
 20
22.273668
 30
0.0
 11
5.326516
 21
21.465355
 31
0.0
  0
ARC
  5
144F
100
AcDbEntity
  8
BORDER
100
AcDbCircle
 10
4.787358
 20
22.698971
 30
0.0
 40
0.425303
100
AcDbArc
 50
270.0
 51
90.0
  0
LINE
  5
1450
100
AcDbEntity
  8
BORDER
100
AcDbLine
 10
4.213862
 20
23.124275
 30
0.0
 11
4.213862
 21
21.465355
 31
0.0
  0
LINE
  5
1451
100
AcDbEntity
  8
BORDER
100
AcDbLine
 10
4.213862
 20
22.273668
 30
0.0
 11
4.787358
 21
22.273668
 31
0.0
  0
LINE
  5
1452
100
AcDbEntity
  8
BORDER
100
AcDbLine
 10
4.787358
 20
23.124275
 30
0.0
 11
4.213862
 21
23.124275
 31
0.0
  0
LINE
  5
1453
100
AcDbEntity
  8
BORDER
100
AcDbLine
 10
7.412517
 20
23.124275
 30
0.0
 11
8.818209
 21
23.124275
 31
0.0
  0
LINE
  5
1454
100
AcDbEntity
  8
BORDER
100
AcDbLine
 10
6.417219
 20
23.124275
 30
0.0
 11
5.781828
 21
21.465355
 31
0.0
  0
LINE
  5
1455
100
AcDbEntity
  8
BORDER
100
AcDbLine
 10
6.013507
 20
22.070238
 30
0.0
 11
6.835247
 21
22.070238
 31
0.0
  0
LINE
  5
1456
100
AcDbEntity
  8
BORDER
100
AcDbLine
 10
7.075143
 20
21.465355
 30
0.0
 11
6.417219
 21
23.124275
 31
0.0
  0
LINE
  5
1457
100
AcDbEntity
  8
BORDER
100
AcDbLine
 10
9.184911
 20
21.465355
 30
0.0
 11
9.184911
 21
23.124275
 31
0.0
  0
LINE
  5
1458
100
AcDbEntity
  8
BORDER
100
AcDbLine
 10
8.115363
 20
23.124275
 30
0.0
 11
8.115363
 21
21.465355
 31
0.0
  0
LINE
  5
1459
102
{ACAD_REACTORS
330
141B
102
}
100
AcDbEntity
  8
BORDER
100
AcDbLine
 10
8.908961
 20
24.08402
 30
0.0
 11
8.908961
 21
23.972016
 31
0.0
  0
LINE
  5
145A
102
{ACAD_REACTORS
330
141B
102
}
100
AcDbEntity
  8
BORDER
100
AcDbLine
 10
8.908961
 20
24.08402
 30
0.0
 11
9.105608
 21
24.08402
 31
0.0
  0
ARC
  5
145B
102
{ACAD_REACTORS
330
141B
102
}
100
AcDbEntity
  8
BORDER
100
AcDbCircle
 10
9.105608
 20
24.508955
 30
0.0
 40
0.424935
100
AcDbArc
 50
270.0
 51
360.0
  0
ARC
  5
145C
100
AcDbEntity
  8
BORDER
100
AcDbCircle
 10
5.547557
 20
29.778194
 30
0.0
 40
0.40672
100
AcDbArc
 50
180.0
 51
0.0
  0
LINE
  5
145D
102
{ACAD_REACTORS
330
1426
102
}
100
AcDbEntity
  8
BORDER
100
AcDbLine
 10
1.390678
 20
28.795702
 30
0.0
 11
1.390678
 21
31.372386
 31
0.0
  0
LINE
  5
145E
100
AcDbEntity
  8
BORDER
100
AcDbLine
 10
3.331349
 20
29.371474
 30
0.0
 11
2.501309
 21
30.607738
 31
0.0
  0
LINE
  5
145F
100
AcDbEntity
  8
BORDER
100
AcDbLine
 10
1.953482
 20
30.582421
 30
0.0
 11
2.139901
 21
30.582421
 31
0.0
  0
LINE
  5
1460
100
AcDbEntity
  8
BORDER
100
AcDbLine
 10
2.501309
 20
30.607738
 30
0.0
 11
2.501309
 21
29.371474
 31
0.0
  0
LINE
  5
1461
100
AcDbEntity
  8
BORDER
100
AcDbLine
 10
1.953482
 20
30.582421
 30
0.0
 11
1.953482
 21
29.371474
 31
0.0
  0
LINE
  5
1462
102
{ACAD_REACTORS
330
1426
102
}
100
AcDbEntity
  8
BORDER
100
AcDbLine
 10
1.390678
 20
28.795702
 30
0.0
 11
1.175793
 21
28.795702
 31
0.0
  0
LINE
  5
1463
100
AcDbEntity
  8
BORDER
100
AcDbLine
 10
1.767064
 20
30.582421
 30
0.0
 11
1.953482
 21
30.582421
 31
0.0
  0
LINE
  5
1464
100
AcDbEntity
  8
BORDER
100
AcDbLine
 10
1.767064
 20
29.371474
 30
0.0
 11
2.139901
 21
29.371474
 31
0.0
  0
LINE
  5
1465
100
AcDbEntity
  8
BORDER
100
AcDbLine
 10
4.103743
 20
30.582421
 30
0.0
 11
3.845974
 21
30.582421
 31
0.0
  0
LINE
  5
1466
100
AcDbEntity
  8
BORDER
100
AcDbLine
 10
3.845974
 20
29.371474
 30
0.0
 11
4.103743
 21
29.371474
 31
0.0
  0
LINE
  5
1467
100
AcDbEntity
  8
BORDER
100
AcDbLine
 10
3.331349
 20
30.582421
 30
0.0
 11
3.331349
 21
29.371474
 31
0.0
  0
LINE
  5
1468
100
AcDbEntity
  8
BORDER
100
AcDbLine
 10
5.140837
 20
29.778194
 30
0.0
 11
5.140837
 21
30.582421
 31
0.0
  0
ARC
  5
1469
100
AcDbEntity
  8
BORDER
100
AcDbCircle
 10
4.103743
 20
29.976948
 30
0.0
 40
0.605473
100
AcDbArc
 50
270.0
 51
90.0
  0
LINE
  5
146A
100
AcDbEntity
  8
BORDER
100
AcDbLine
 10
3.845974
 20
30.582421
 30
0.0
 11
3.845974
 21
29.371474
 31
0.0
  0
LINE
  5
146B
100
AcDbEntity
  8
BORDER
100
AcDbLine
 10
7.269408
 20
30.582421
 30
0.0
 11
8.264396
 21
30.582421
 31
0.0
  0
ARC
  5
146C
100
AcDbEntity
  8
BORDER
100
AcDbCircle
 10
6.491788
 20
30.324266
 30
0.0
 40
0.171
100
AcDbArc
 50
140.101426
 51
236.383068
  0
ARC
  5
146D
100
AcDbEntity
  8
BORDER
100
AcDbCircle
 10
12.001686
 20
38.612014
 30
0.0
 40
10.123173
100
AcDbArc
 50
236.383068
 51
240.315223
  0
ARC
  5
146E
100
AcDbEntity
  8
BORDER
100
AcDbCircle
 10
6.903725
 20
29.668817
 30
0.0
 40
0.171
100
AcDbArc
 50
331.630608
 51
60.315223
  0
ARC
  5
146F
100
AcDbEntity
  8
BORDER
100
AcDbCircle
 10
6.709514
 20
29.755479
 30
0.0
 40
0.3834
100
AcDbArc
 50
200.502447
 51
334.026213
  0
LINE
  5
1470
100
AcDbEntity
  8
BORDER
100
AcDbLine
 10
5.954277
 20
30.582421
 30
0.0
 11
5.954277
 21
29.778194
 31
0.0
  0
ARC
  5
1471
100
AcDbEntity
  8
BORDER
100
AcDbCircle
 10
6.660766
 20
30.208152
 30
0.0
 40
0.375612
100
AcDbArc
 50
25.379638
 51
143.047804
  0
LINE
  5
1472
100
AcDbEntity
  8
BORDER
100
AcDbLine
 10
8.961904
 20
30.582421
 30
0.0
 11
8.521434
 21
30.582421
 31
0.0
  0
LINE
  5
1473
100
AcDbEntity
  8
BORDER
100
AcDbLine
 10
8.87747
 20
29.971113
 30
0.0
 11
9.261528
 21
29.371474
 31
0.0
  0
LINE
  5
1474
100
AcDbEntity
  8
BORDER
100
AcDbLine
 10
8.521434
 20
29.971113
 30
0.0
 11
8.961904
 21
29.971113
 31
0.0
  0
ARC
  5
1475
102
{ACAD_REACTORS
330
141B
102
}
100
AcDbEntity
  8
BORDER
100
AcDbCircle
 10
9.105608
 20
27.749231
 30
0.0
 40
0.424935
100
AcDbArc
 50
0.0
 51
90.0
  0
LINE
  5
1476
102
{ACAD_REACTORS
330
141B
102
}
100
AcDbEntity
  8
BORDER
100
AcDbLine
 10
8.912156
 20
28.174166
 30
0.0
 11
9.105608
 21
28.174166
 31
0.0
  0
LINE
  5
1477
102
{ACAD_REACTORS
330
141B
102
}
100
AcDbEntity
  8
BORDER
100
AcDbLine
 10
8.912156
 20
28.292768
 30
0.0
 11
8.912156
 21
28.174166
 31
0.0
  0
LINE
  5
1478
100
AcDbEntity
  8
BORDER
100
AcDbLine
 10
9.826344
 20
30.582421
 30
0.0
 11
9.826344
 21
29.371474
 31
0.0
  0
LINE
  5
1479
100
AcDbEntity
  8
BORDER
100
AcDbLine
 10
7.766902
 20
30.582421
 30
0.0
 11
7.766902
 21
29.371474
 31
0.0
  0
LINE
  5
147A
100
AcDbEntity
  8
BORDER
100
AcDbLine
 10
8.521434
 20
30.582421
 30
0.0
 11
8.521434
 21
29.371474
 31
0.0
  0
ARC
  5
147B
100
AcDbEntity
  8
BORDER
100
AcDbCircle
 10
8.961904
 20
30.276767
 30
0.0
 40
0.305654
100
AcDbArc
 50
270.0
 51
90.0
  0
ARC
  5
147D
102
{ACAD_REACTORS
330
141B
102
}
100
AcDbEntity
  8
BORDER
100
AcDbCircle
 10
10.480088
 20
27.050535
 30
0.0
 40
0.986624
100
AcDbArc
 50
359.205673
 51
110.674935
  0
ARC
  5
147E
102
{ACAD_REACTORS
330
141B
102
}
100
AcDbEntity
  8
BORDER
100
AcDbCircle
 10
10.895423
 20
26.994781
 30
0.0
 40
1.29801
100
AcDbArc
 50
4.10812
 51
90.34444
  0
LINE
  5
147F
102
{ACAD_REACTORS
330
141B
102
}
100
AcDbEntity
  8
BORDER
100
AcDbLine
 10
10.131745
 20
27.97362
 30
0.0
 11
10.131745
 21
26.161188
 31
0.0
  0
ARC
  5
1480
100
AcDbEntity
  8
BORDER
100
AcDbCircle
 10
11.343619
 20
22.294815
 30
0.0
 40
0.82946
100
AcDbArc
 50
270.0
 51
90.0
  0
LINE
  5
1481
100
AcDbEntity
  8
BORDER
100
AcDbLine
 10
10.717518
 20
23.124275
 30
0.0
 11
10.717518
 21
21.465355
 31
0.0
  0
LINE
  5
1482
100
AcDbEntity
  8
BORDER
100
AcDbLine
 10
10.717518
 20
21.465355
 30
0.0
 11
11.343619
 21
21.465355
 31
0.0
  0
LINE
  5
1483
100
AcDbEntity
  8
BORDER
100
AcDbLine
 10
11.343619
 20
23.124275
 30
0.0
 11
10.717518
 21
23.124275
 31
0.0
  0
ARC
  5
1484
102
{ACAD_REACTORS
330
141B
102
}
100
AcDbEntity
  8
BORDER
100
AcDbCircle
 10
10.971506
 20
27.121927
 30
0.0
 40
1.219071
100
AcDbArc
 50
265.488062
 51
358.394374
  0
ARC
  5
1485
102
{ACAD_REACTORS
330
141B
102
}
100
AcDbEntity
  8
BORDER
100
AcDbCircle
 10
10.878396
 20
28.994151
 30
0.0
 40
3.087519
100
AcDbArc
 50
256.005504
 51
269.948223
  0
LINE
  5
1486
102
{ACAD_REACTORS
330
141B
102
}
100
AcDbEntity
  8
BORDER
100
AcDbLine
 10
10.131745
 20
25.998273
 30
0.0
 11
10.131745
 21
24.508955
 31
0.0
  0
ARC
  5
1487
102
{ACAD_REACTORS
330
141B
102
}
100
AcDbEntity
  8
BORDER
100
AcDbCircle
 10
10.55668
 20
24.508955
 30
0.0
 40
0.424935
100
AcDbArc
 50
180.0
 51
270.0
  0
LINE
  5
1488
102
{ACAD_REACTORS
330
141B
102
}
100
AcDbEntity
  8
BORDER
100
AcDbLine
 10
10.55668
 20
24.08402
 30
0.0
 11
10.753327
 21
24.08402
 31
0.0
  0
LINE
  5
1489
102
{ACAD_REACTORS
330
141B
102
}
100
AcDbEntity
  8
BORDER
100
AcDbLine
 10
10.753327
 20
24.08402
 30
0.0
 11
10.753327
 21
23.972016
 31
0.0
  0
ARC
  5
148A
102
{ACAD_REACTORS
330
141B
102
}
100
AcDbEntity
  8
BORDER
100
AcDbCircle
 10
10.515777
 20
27.031045
 30
0.0
 40
0.950858
100
AcDbArc
 50
246.179097
 51
0.350223
  0
ARC
  5
148C
100
AcDbEntity
  8
BORDER
100
AcDbCircle
 10
11.940807
 20
29.668817
 30
0.0
 40
0.171
100
AcDbArc
 50
331.630608
 51
60.315223
  0
ARC
  5
148D
100
AcDbEntity
  8
BORDER
100
AcDbCircle
 10
11.746596
 20
29.755479
 30
0.0
 40
0.3834
100
AcDbArc
 50
200.502447
 51
334.026213
  0
LINE
  5
148E
100
AcDbEntity
  8
BORDER
100
AcDbLine
 10
10.387576
 20
30.582421
 30
0.0
 11
11.116496
 21
30.582421
 31
0.0
  0
ARC
  5
148F
100
AcDbEntity
  8
BORDER
100
AcDbCircle
 10
11.52887
 20
30.324266
 30
0.0
 40
0.171
100
AcDbArc
 50
140.101426
 51
236.383068
  0
ARC
  5
1490
100
AcDbEntity
  8
BORDER
100
AcDbCircle
 10
17.038768
 20
38.612014
 30
0.0
 40
10.123173
100
AcDbArc
 50
236.383068
 51
240.315223
  0
LINE
  5
1491
100
AcDbEntity
  8
BORDER
100
AcDbLine
 10
10.387576
 20
29.976948
 30
0.0
 11
10.957558
 21
29.976948
 31
0.0
  0
LINE
  5
1492
100
AcDbEntity
  8
BORDER
100
AcDbLine
 10
11.116496
 20
29.371474
 30
0.0
 11
10.387576
 21
29.371474
 31
0.0
  0
ARC
  5
1493
100
AcDbEntity
  8
BORDER
100
AcDbCircle
 10
11.697848
 20
30.208152
 30
0.0
 40
0.375612
100
AcDbArc
 50
25.379638
 51
143.047804
  0
LINE
  5
1494
100
AcDbEntity
  8
BORDER
100
AcDbLine
 10
10.387576
 20
29.371474
 30
0.0
 11
10.387576
 21
30.582421
 31
0.0
  0
LINE
  5
2262
100
AcDbEntity
  8
OBJECT
100
AcDbLine
 10
42.219273
 20
156.903519
 30
0.0
 11
43.099989
 21
156.903519
 31
0.0
  0
LINE
  5
2263
100
AcDbEntity
  8
OBJECT
100
AcDbLine
 10
42.219273
 20
154.476519
 30
0.0
 11
43.099989
 21
154.476519
 31
0.0
  0
LINE
  5
2264
100
AcDbEntity
  8
OBJECT
100
AcDbLine
 10
43.099989
 20
156.869519
 30
0.0
 11
43.099989
 21
154.510519
 31
0.0
  0
LINE
  5
2265
100
AcDbEntity
  8
OBJECT
100
AcDbLine
 10
43.099989
 20
156.903519
 30
0.0
 11
43.099989
 21
154.476519
 31
0.0
  0
LINE
  5
2288
100
AcDbEntity
  8
OBJECT
100
AcDbLine
 10
41.407758
 20
123.711046
 30
0.0
 11
41.407758
 21
115.711046
 31
0.0
  0
LINE
  5
2289
100
AcDbEntity
  8
OBJECT
100
AcDbLine
 10
42.657758
 20
120.924546
 30
0.0
 11
42.657758
 21
118.497546
 31
0.0
  0
LINE
  5
228A
100
AcDbEntity
  8
OBJECT
100
AcDbLine
 10
40.657758
 20
120.924546
 30
0.0
 11
40.657758
 21
118.497546
 31
0.0
  0
LINE
  5
228B
100
AcDbEntity
  8
OBJECT
100
AcDbLine
 10
42.657758
 20
120.890546
 30
0.0
 11
42.657758
 21
118.531546
 31
0.0
  0
LINE
  5
228C
100
AcDbEntity
  8
OBJECT
100
AcDbLine
 10
41.657758
 20
115.711046
 30
0.0
 11
41.407758
 21
115.711046
 31
0.0
  0
LINE
  5
228D
100
AcDbEntity
  8
OBJECT
100
AcDbLine
 10
40.657758
 20
118.497546
 30
0.0
 11
41.407758
 21
118.497546
 31
0.0
  0
LINE
  5
228E
100
AcDbEntity
  8
OBJECT
100
AcDbLine
 10
42.157758
 20
118.497546
 30
0.0
 11
42.657758
 21
118.497546
 31
0.0
  0
LINE
  5
228F
100
AcDbEntity
  8
OBJECT
100
AcDbLine
 10
40.657758
 20
120.924546
 30
0.0
 11
41.407758
 21
120.924546
 31
0.0
  0
LINE
  5
2290
100
AcDbEntity
  8
OBJECT
100
AcDbLine
 10
42.157758
 20
120.924546
 30
0.0
 11
42.657758
 21
120.924546
 31
0.0
  0
LINE
  5
2291
100
AcDbEntity
  8
OBJECT
100
AcDbLine
 10
41.657758
 20
123.711046
 30
0.0
 11
41.407758
 21
123.711046
 31
0.0
  0
LWPOLYLINE
  5
2292
100
AcDbEntity
  8
OBJECT
100
AcDbPolyline
 90
       14
 70
     0
 43
0.0
 10
49.469923
 20
80.225846
 10
49.561557
 20
83.162366
 10
49.431771
 20
86.533634
 10
48.910643
 20
90.568704
 10
48.649135
 20
93.442603
 10
48.649135
 20
96.179444
 10
48.388799
 20
99.820934
 10
47.99827
 20
103.852627
 10
47.086771
 20
108.92638
 10
46.435087
 20
112.051605
 10
45.78634
 20
115.29238
 10
44.495892
 20
117.870915
 10
43.477515
 20
119.142708
 10
42.657758
 20
119.570078
  0
LWPOLYLINE
  5
2293
100
AcDbEntity
  8
OBJECT
100
AcDbPolyline
 90
       14
 70
     0
 43
0.0
 10
49.720383
 20
80.225846
 10
49.812148
 20
83.151813
 10
49.681153
 20
86.554495
 10
49.159188
 20
90.596052
 10
48.899135
 20
93.453954
 10
48.899135
 20
96.188369
 10
48.637938
 20
99.841903
 10
48.246126
 20
103.886837
 10
47.332217
 20
108.974008
 10
46.680027
 20
112.101658
 10
46.0249
 20
115.374304
 10
44.7076
 20
118.006495
 10
43.639761
 20
119.340057
 10
42.657758
 20
119.852013
  0
TEXT
  5
2403
100
AcDbEntity
  8
DIM
100
AcDbText
 10
89.790879
 20
139.96583
 30
0.0
 40
1.22
  1
Fiberglass
  7
ROMAND
100
AcDbText
  0
TEXT
  5
2404
100
AcDbEntity
  8
DIM
100
AcDbText
 10
89.790879
 20
138.315774
 30
0.0
 40
1.22
  1
Steel
  7
ROMAND
100
AcDbText
  0
LWPOLYLINE
  5
2405
100
AcDbEntity
  8
BORDER
 62
     6
100
AcDbPolyline
 90
        4
 70
     1
 43
0.0
 10
89.213831
 20
139.38155
 10
88.097661
 20
139.38155
 10
88.097661
 20
138.26538
 10
89.213831
 20
138.26538
  0
LWPOLYLINE
  5
2406
100
AcDbEntity
  8
BORDER
 62
     6
100
AcDbPolyline
 90
        4
 70
     1
 43
0.0
 10
89.213831
 20
141.057769
 10
88.097661
 20
141.057769
 10
88.097661
 20
139.9416
 10
89.213831
 20
139.9416
  0
LINE
  5
2408
100
AcDbEntity
  8
OBJECT
100
AcDbLine
 10
64.089104
 20
87.081833
 30
0.0
 11
64.089104
 21
88.378131
 31
0.0
  0
LINE
  5
2409
100
AcDbEntity
  8
OBJECT
100
AcDbLine
 10
63.520104
 20
88.378131
 30
0.0
 11
64.089104
 21
88.378131
 31
0.0
  0
LINE
  5
240A
100
AcDbEntity
  8
OBJECT
100
AcDbLine
 10
63.520104
 20
87.081833
 30
0.0
 11
63.520104
 21
88.378131
 31
0.0
  0
LINE
  5
240B
100
AcDbEntity
  8
OBJECT
100
AcDbLine
 10
63.520104
 20
87.081833
 30
0.0
 11
64.089104
 21
87.081833
 31
0.0
  0
LINE
  5
240C
100
AcDbEntity
  8
OBJECT
100
AcDbLine
 10
63.617104
 20
86.857546
 30
0.0
 11
63.617104
 21
87.081833
 31
0.0
  0
LINE
  5
240D
100
AcDbEntity
  8
OBJECT
100
AcDbLine
 10
63.992104
 20
86.857546
 30
0.0
 11
63.992104
 21
87.081833
 31
0.0
  0
LINE
  5
2449
100
AcDbEntity
  8
OBJECT
100
AcDbLine
 10
55.938205
 20
86.570113
 30
0.0
 11
56.333721
 21
86.570113
 31
0.0
  0
LINE
  5
24FA
100
AcDbEntity
  8
OBJECT
100
AcDbLine
 10
61.082076
 20
118.055
 30
0.0
 11
66.157758
 21
118.055
 31
0.0
  0
LINE
  5
24FB
100
AcDbEntity
  8
OBJECT
100
AcDbLine
 10
61.01844
 20
117.805
 30
0.0
 11
65.907758
 21
117.805
 31
0.0
  0
LEADER
  5
2506
100
AcDbEntity
  8
DIM
100
AcDbLeader
  3
STANDARD
 76
     2
 10
40.657758
 20
120.924546
 30
0.0
 10
29.57378
 20
124.633007
 30
0.0
 77
   256
1001
ACAD
1000
DSTYLE
1002
{
1070
   340
1005
28
1070
   147
1040
1.2
1070
   287
1070
     5
1070
    42
1040
0.3
1070
    44
1040
1.22
1070
    41
1040
1.2
1002
}
  0
LWPOLYLINE
  5
251B
100
AcDbEntity
  8
DIM
100
AcDbPolyline
 90
        4
 70
     1
 43
0.0
 10
19.45838
 20
108.671765
 10
19.45838
 20
109.933845
 10
18.1963
 20
109.933845
 10
18.1963
 20
108.671765
  0
TEXT
  5
251C
100
AcDbEntity
  8
DIM
100
AcDbText
 10
13.302704
 20
112.551699
 30
0.0
 40
1.1
  1
Float Bracket
  7
ROMAND
 72
     2
 11
24.61699
 21
113.101699
 31
0.0
100
AcDbText
 73
     2
  0
TEXT
  5
251D
100
AcDbEntity
  8
DIM
100
AcDbText
 10
8.11699
 20
114.495536
 30
0.0
 40
1.1
  1
304 Stainless Steel
  7
ROMAND
 72
     2
 11
24.61699
 21
115.045536
 31
0.0
100
AcDbText
 73
     2
  0
TEXT
  5
251E
100
AcDbEntity
  8
DIM
100
AcDbText
 10
8.378894
 20
110.750548
 30
0.0
 40
1.1
  1
w/ (3) Cord Grips
  7
ROMAND
 72
     2
 11
24.61699
 21
111.300548
 31
0.0
100
AcDbText
 73
     2
  0
TEXT
  5
251F
100
AcDbEntity
  8
DIM
100
AcDbText
 10
19.850323
 20
108.890933
 30
0.0
 40
1.1
  1
Floats
  7
ROMAND
 72
     2
 11
24.61699
 21
109.440933
 31
0.0
100
AcDbText
 73
     2
  0
LEADER
  5
2520
100
AcDbEntity
  8
DIM
100
AcDbLeader
  3
STANDARD
 76
     2
 10
50.032758
 20
119.804796
 30
0.0
 10
26.71699
 20
113.101699
 30
0.0
 77
   256
1001
ACAD
1000
DSTYLE
1002
{
1070
   340
1005
1378
1070
   147
1040
1.1
1070
   287
1070
     5
1070
    44
1040
1.0
1070
    41
1040
1.0
1002
}
  0
LINE
  5
2521
100
AcDbEntity
  8
DIM
100
AcDbLine
 10
26.71699
 20
113.101699
 30
0.0
 11
25.71699
 21
113.101699
 31
0.0
  0
LINE
  5
2522
100
AcDbEntity
  8
OBJECT
100
AcDbLine
 10
59.750981
 20
156.411812
 30
0.0
 11
59.550981
 21
156.411812
 31
0.0
  0
LINE
  5
2523
100
AcDbEntity
  8
OBJECT
100
AcDbLine
 10
59.750981
 20
156.115362
 30
0.0
 11
59.550981
 21
156.115362
 31
0.0
  0
LEADER
  5
2526
100
AcDbEntity
  8
DIM
100
AcDbLeader
  3
STANDARD
 76
     2
 10
64.729604
 20
86.857546
 30
0.0
 10
75.209465
 20
97.584228
 30
0.0
 77
   256
1001
ACAD
1000
DSTYLE
1002
{
1070
   340
1005
28
1070
   147
1040
1.2
1070
   287
1070
     5
1070
    42
1040
0.3
1070
    44
1040
1.22
1070
    41
1040
1.2
1002
}
  0
ARC
  5
2582
100
AcDbEntity
  8
OBJECT
100
AcDbCircle
 10
61.649594
 20
123.25644
 30
0.0
 40
1.374498
100
AcDbArc
 50
290.697067
 51
36.94322
  0
ARC
  5
2583
100
AcDbEntity
  8
OBJECT
100
AcDbCircle
 10
61.649594
 20
123.25644
 30
0.0
 40
1.624498
100
AcDbArc
 50
295.285874
 51
36.94322
  0
ARC
  5
2584
100
AcDbEntity
  8
OBJECT
100
AcDbCircle
 10
215.550401
 20
78.602791
 30
0.0
 40
159.676912
100
AcDbArc
 50
163.592017
 51
164.364033
  0
ARC
  5
2588
100
AcDbEntity
  8
OBJECT
100
AcDbCircle
 10
215.550401
 20
78.602791
 30
0.0
 40
159.426912
100
AcDbArc
 50
163.565558
 51
164.363619
  0
ARC
  5
2589
100
AcDbEntity
  8
OBJECT
100
AcDbCircle
 10
215.550401
 20
78.602791
 30
0.0
 40
159.176912
100
AcDbArc
 50
164.258323
 51
164.364925
  0
LINE
  5
258A
100
AcDbEntity
  8
OBJECT
100
AcDbLine
 10
61.940435
 20
120.331289
 30
0.0
 11
61.699178
 21
120.396827
 31
0.0
  0
LINE
  5
258B
100
AcDbEntity
  8
OBJECT
100
AcDbLine
 10
62.068247
 20
120.798969
 30
0.0
 11
61.586135
 21
120.931514
 31
0.0
  0
LINE
  5
258C
100
AcDbEntity
  8
OBJECT
100
AcDbLine
 10
62.134519
 20
121.040025
 30
0.0
 11
61.652407
 21
121.17257
 31
0.0
  0
ARC
  5
258D
100
AcDbEntity
  8
OBJECT
100
AcDbCircle
 10
61.739197
 20
121.019071
 30
0.0
 40
0.176336
100
AcDbArc
 50
119.484369
 51
209.771051
  0
ARC
  5
258E
100
AcDbEntity
  8
OBJECT
100
AcDbCircle
 10
61.94921
 20
120.961333
 30
0.0
 40
0.201326
100
AcDbArc
 50
306.246914
 51
23.008507
  0
ARC
  5
258F
100
AcDbEntity
  8
OBJECT
100
AcDbCircle
 10
62.07581
 20
121.429353
 30
0.0
 40
0.201326
100
AcDbArc
 50
306.246914
 51
23.008507
  0
ARC
  5
2590
100
AcDbEntity
  8
OBJECT
100
AcDbCircle
 10
61.865798
 20
121.487091
 30
0.0
 40
0.176336
100
AcDbArc
 50
119.484369
 51
209.771051
  0
LINE
  5
2591
100
AcDbEntity
  8
OBJECT
100
AcDbLine
 10
62.26112
 20
121.508045
 30
0.0
 11
61.779008
 21
121.64059
 31
0.0
  0
LINE
  5
2592
100
AcDbEntity
  8
OBJECT
100
AcDbLine
 10
62.194847
 20
121.266989
 30
0.0
 11
61.712735
 21
121.399534
 31
0.0
  0
ARC
  5
2593
100
AcDbEntity
  8
OBJECT
100
AcDbCircle
 10
215.550401
 20
78.602791
 30
0.0
 40
159.176912
100
AcDbArc
 50
164.62771
 51
164.802225
  0
ARC
  5
2594
100
AcDbEntity
  8
OBJECT
100
AcDbCircle
 10
215.550401
 20
78.602791
 30
0.0
 40
159.676912
100
AcDbArc
 50
164.62771
 51
168.075504
  0
ARC
  5
2595
100
AcDbEntity
  8
OBJECT
100
AcDbCircle
 10
215.550401
 20
78.602791
 30
0.0
 40
159.426912
100
AcDbArc
 50
164.62771
 51
168.508714
  0
ARC
  5
2596
100
AcDbEntity
  8
OBJECT
100
AcDbCircle
 10
215.550401
 20
78.602791
 30
0.0
 40
159.676912
100
AcDbArc
 50
164.453739
 51
164.538004
  0
ARC
  5
2597
100
AcDbEntity
  8
OBJECT
100
AcDbCircle
 10
215.550401
 20
78.602791
 30
0.0
 40
159.426912
100
AcDbArc
 50
164.453467
 51
164.537864
  0
ARC
  5
2598
100
AcDbEntity
  8
OBJECT
100
AcDbCircle
 10
215.550401
 20
78.602791
 30
0.0
 40
159.176912
100
AcDbArc
 50
164.451916
 51
164.537812
  0
ARC
  5
25A2
100
AcDbEntity
  8
OBJECT
100
AcDbCircle
 10
215.550401
 20
78.602791
 30
0.0
 40
159.676912
100
AcDbArc
 50
163.424997
 51
163.451695
  0
ARC
  5
25A3
100
AcDbEntity
  8
OBJECT
100
AcDbCircle
 10
62.748137
 20
124.082546
 30
0.0
 40
0.25
100
AcDbArc
 50
36.94322
 51
163.424997
  0
LINE
  5
25A9
100
AcDbEntity
  8
OBJECT
100
AcDbLine
 10
56.779036
 20
92.641216
 30
0.0
 11
58.0042
 21
98.032062
 31
0.0
  0
LINE
  5
25AA
100
AcDbEntity
  8
OBJECT
100
AcDbLine
 10
56.535252
 20
92.69662
 30
0.0
 11
58.0042
 21
99.160138
 31
0.0
  0
ARC
  5
25AE
100
AcDbEntity
  8
OBJECT
100
AcDbCircle
 10
214.230493
 20
67.621653
 30
0.0
 40
159.176912
100
AcDbArc
 50
170.970999
 51
171.350659
  0
LINE
  5
25AF
100
AcDbEntity
  8
OBJECT
100
AcDbLine
 10
56.779036
 20
92.641216
 30
0.0
 11
57.025938
 21
92.601983
 31
0.0
  0
ARC
  5
25B0
100
AcDbEntity
  8
OBJECT
100
AcDbCircle
 10
56.758629
 20
91.458396
 30
0.0
 40
0.146107
100
AcDbArc
 50
292.79668
 51
50.434767
  0
ARC
  5
25B1
100
AcDbEntity
  8
OBJECT
100
AcDbCircle
 10
56.469518
 20
91.501008
 30
0.0
 40
0.18188
100
AcDbArc
 50
128.201748
 51
215.0297
  0
LINE
  5
25B2
100
AcDbEntity
  8
OBJECT
100
AcDbLine
 10
56.851693
 20
91.57103
 30
0.0
 11
56.357037
 21
91.643936
 31
0.0
  0
LINE
  5
25B3
100
AcDbEntity
  8
OBJECT
100
AcDbLine
 10
56.779036
 20
92.641216
 30
0.0
 11
56.604365
 21
91.607483
 31
0.0
  0
LINE
  5
25B4
100
AcDbEntity
  8
OBJECT
100
AcDbLine
 10
56.535252
 20
92.69662
 30
0.0
 11
56.357037
 21
91.643936
 31
0.0
  0
ARC
  5
25B6
100
AcDbEntity
  8
OBJECT
100
AcDbCircle
 10
54.363032
 20
88.570583
 30
0.0
 40
2.625631
100
AcDbArc
 50
306.371173
 51
38.697896
  0
ARC
  5
25B7
100
AcDbEntity
  8
OBJECT
100
AcDbCircle
 10
54.363032
 20
88.570583
 30
0.0
 40
2.875631
100
AcDbArc
 50
306.371173
 51
307.41248
  0
ARC
  5
25B8
100
AcDbEntity
  8
OBJECT
100
AcDbCircle
 10
55.920068
 20
86.456445
 30
0.0
 40
0.25
100
AcDbArc
 50
173.215196
 51
306.371173
  0
ARC
  5
25BA
100
AcDbEntity
  8
OBJECT
100
AcDbCircle
 10
54.363032
 20
88.570583
 30
0.0
 40
2.875631
100
AcDbArc
 50
307.41248
 51
36.49904
  0
LINE
  5
25BB
100
AcDbEntity
  8
OBJECT
100
AcDbLine
 10
56.754803
 20
90.831483
 30
0.0
 11
56.260147
 21
90.904389
 31
0.0
  0
LINE
  5
25BC
100
AcDbEntity
  8
OBJECT
100
AcDbLine
 10
56.791256
 20
91.078811
 30
0.0
 11
56.2966
 21
91.151717
 31
0.0
  0
ARC
  5
25BD
100
AcDbEntity
  8
OBJECT
100
AcDbCircle
 10
56.409081
 20
91.008789
 30
0.0
 40
0.18188
100
AcDbArc
 50
128.201748
 51
215.0297
  0
ARC
  5
25BE
100
AcDbEntity
  8
OBJECT
100
AcDbCircle
 10
56.698192
 20
90.966177
 30
0.0
 40
0.146107
100
AcDbArc
 50
292.79668
 51
50.434767
  0
LINE
  5
25BF
100
AcDbEntity
  8
OBJECT
100
AcDbLine
 10
56.81524
 20
91.323702
 30
0.0
 11
56.320584
 21
91.396608
 31
0.0
  0
ARC
  5
25C0
100
AcDbEntity
  8
OBJECT
100
AcDbCircle
 10
214.230493
 20
67.621653
 30
0.0
 40
159.176912
100
AcDbArc
 50
171.615724
 51
171.815947
  0
ARC
  5
25C1
100
AcDbEntity
  8
OBJECT
100
AcDbCircle
 10
214.230493
 20
67.621653
 30
0.0
 40
159.426912
100
AcDbArc
 50
171.615724
 51
173.215196
  0
ARC
  5
25C2
100
AcDbEntity
  8
OBJECT
100
AcDbCircle
 10
214.230493
 20
67.621653
 30
0.0
 40
159.676912
100
AcDbArc
 50
171.615724
 51
173.215196
  0
ARC
  5
25C3
100
AcDbEntity
  8
OBJECT
100
AcDbCircle
 10
214.230493
 20
67.621653
 30
0.0
 40
159.676912
100
AcDbArc
 50
171.437829
 51
171.526018
  0
ARC
  5
25C4
100
AcDbEntity
  8
OBJECT
100
AcDbCircle
 10
214.230493
 20
67.621653
 30
0.0
 40
159.426912
100
AcDbArc
 50
171.43755
 51
171.525877
  0
ARC
  5
25C5
100
AcDbEntity
  8
OBJECT
100
AcDbCircle
 10
214.230493
 20
67.621653
 30
0.0
 40
159.176912
100
AcDbArc
 50
171.434143
 51
171.525779
  0
LINE
  5
25CC
100
AcDbEntity
  8
OBJECT
100
AcDbLine
 10
63.04836
 20
124.082546
 30
0.0
 11
63.992104
 21
124.082546
 31
0.0
  0
LINE
  5
25CD
100
AcDbEntity
  8
OBJECT
100
AcDbLine
 10
63.210203
 20
123.707546
 30
0.0
 11
63.617104
 21
123.707546
 31
0.0
  0
LEADER
  5
25D6
100
AcDbEntity
  8
DIM
100
AcDbLeader
  3
STANDARD
 76
     2
 10
61.865755
 20
121.33866
 30
0.0
 10
75.209465
 20
126.25214
 30
0.0
 77
   256
1001
ACAD
1000
DSTYLE
1002
{
1070
   340
1005
28
1070
   147
1040
1.2
1070
   287
1070
     5
1070
    42
1040
0.3
1070
    44
1040
1.22
1070
    41
1040
1.2
1002
}
  0
LINE
  5
296E
100
AcDbEntity
  8
OBJECT
 62
     2
100
AcDbLine
 39
20.0
 10
58.082758
 20
120.168546
 30
0.0
 11
58.082758
 21
120.211046
 31
0.0
  0
LINE
  5
296F
100
AcDbEntity
  8
OBJECT
 62
     2
100
AcDbLine
 39
20.0
 10
57.232758
 20
120.168546
 30
0.0
 11
57.232758
 21
120.211046
 31
0.0
  0
LINE
  5
2970
100
AcDbEntity
  8
OBJECT
 62
     2
100
AcDbLine
 39
20.0
 10
54.832758
 20
120.168546
 30
0.0
 11
54.832758
 21
120.211046
 31
0.0
  0
LINE
  5
2971
100
AcDbEntity
  8
OBJECT
 62
     2
100
AcDbLine
 39
20.0
 10
53.982758
 20
120.168546
 30
0.0
 11
53.982758
 21
120.211046
 31
0.0
  0
LINE
  5
2972
100
AcDbEntity
  8
OBJECT
 62
     2
100
AcDbLine
 39
20.0
 10
50.732758
 20
120.168546
 30
0.0
 11
50.732758
 21
120.211046
 31
0.0
  0
LINE
  5
2973
100
AcDbEntity
  8
OBJECT
 62
     2
100
AcDbLine
 39
20.0
 10
51.582758
 20
120.168546
 30
0.0
 11
51.582758
 21
120.211046
 31
0.0
  0
LINE
  5
298E
100
AcDbEntity
  8
OBJECT
  6
CONTINUOUS
 62
     2
100
AcDbLine
 39
50.0
 10
58.082758
 20
119.399007
 30
0.0
 11
57.232758
 21
119.399007
 31
0.0
  0
LINE
  5
298F
100
AcDbEntity
  8
OBJECT
  6
CONTINUOUS
 62
     2
100
AcDbLine
 39
50.0
 10
58.082758
 20
119.31623
 30
0.0
 11
57.232758
 21
119.31623
 31
0.0
  0
LINE
  5
2990
100
AcDbEntity
  8
OBJECT
  6
CONTINUOUS
 62
     2
100
AcDbLine
 39
50.0
 10
57.432758
 20
118.876046
 30
0.0
 11
57.332758
 21
118.876046
 31
0.0
  0
LINE
  5
2991
100
AcDbEntity
  8
OBJECT
  6
CONTINUOUS
 62
     2
100
AcDbLine
 39
50.0
 10
57.982758
 20
118.876046
 30
0.0
 11
57.882758
 21
118.876046
 31
0.0
  0
ARC
  5
2992
100
AcDbEntity
  8
OBJECT
 62
     2
100
AcDbCircle
 39
50.0
 10
57.970258
 20
118.809046
 30
0.0
 40
0.15
100
AcDbArc
 50
270.0
 51
0.0
  0
LINE
  5
2993
100
AcDbEntity
  8
OBJECT
  6
CONTINUOUS
 62
     2
100
AcDbLine
 39
50.0
 10
57.970258
 20
118.659046
 30
0.0
 11
57.345258
 21
118.659046
 31
0.0
  0
ARC
  5
2994
100
AcDbEntity
  8
OBJECT
 62
     2
100
AcDbCircle
 39
50.0
 10
57.345258
 20
118.809046
 30
0.0
 40
0.15
100
AcDbArc
 50
180.0
 51
270.0
  0
LINE
  5
2995
100
AcDbEntity
  8
OBJECT
  6
CONTINUOUS
 62
     2
100
AcDbLine
 39
50.0
 10
58.332758
 20
119.261046
 30
0.0
 11
56.982758
 21
119.261046
 31
0.0
  0
LINE
  5
2996
100
AcDbEntity
  8
OBJECT
  6
CONTINUOUS
 62
     2
100
AcDbLine
 39
50.0
 10
58.307758
 20
119.711046
 30
0.0
 11
57.007758
 21
119.711046
 31
0.0
  0
LINE
  5
2997
100
AcDbEntity
  8
OBJECT
  6
CONTINUOUS
 62
     2
100
AcDbLine
 39
50.0
 10
57.837758
 20
119.948546
 30
0.0
 11
57.477758
 21
119.948546
 31
0.0
  0
LINE
  5
2998
100
AcDbEntity
  8
OBJECT
  6
CONTINUOUS
 62
     2
100
AcDbLine
 39
50.0
 10
58.072758
 20
120.118546
 30
0.0
 11
57.837758
 21
120.118546
 31
0.0
  0
LINE
  5
2999
100
AcDbEntity
  8
OBJECT
  6
CONTINUOUS
 62
     2
100
AcDbLine
 39
50.0
 10
57.477758
 20
120.118546
 30
0.0
 11
57.242758
 21
120.118546
 31
0.0
  0
LINE
  5
299A
100
AcDbEntity
  8
OBJECT
  6
CONTINUOUS
 62
     2
100
AcDbLine
 39
50.0
 10
58.082758
 20
120.188669
 30
0.0
 11
57.232758
 21
120.188669
 31
0.0
  0
LINE
  5
299B
100
AcDbEntity
  8
OBJECT
  6
CONTINUOUS
 62
     2
100
AcDbLine
 39
50.0
 10
57.242758
 20
119.948546
 30
0.0
 11
57.097758
 21
119.948546
 31
0.0
  0
LINE
  5
299C
100
AcDbEntity
  8
OBJECT
  6
CONTINUOUS
 62
     2
100
AcDbLine
 39
50.0
 10
58.217758
 20
119.948546
 30
0.0
 11
58.072758
 21
119.948546
 31
0.0
  0
LINE
  5
299D
100
AcDbEntity
  8
OBJECT
 62
     2
100
AcDbLine
 39
50.0
 10
57.097758
 20
120.118546
 30
0.0
 11
57.147758
 21
120.168546
 31
0.0
  0
LINE
  5
299E
100
AcDbEntity
  8
OBJECT
  6
CONTINUOUS
 62
     2
100
AcDbLine
 39
50.0
 10
58.167758
 20
120.168546
 30
0.0
 11
57.147758
 21
120.168546
 31
0.0
  0
LINE
  5
299F
100
AcDbEntity
  8
OBJECT
 62
     2
100
AcDbLine
 39
50.0
 10
56.982758
 20
118.876046
 30
0.0
 11
57.032758
 21
118.826046
 31
0.0
  0
LINE
  5
29A0
100
AcDbEntity
  8
OBJECT
  6
CONTINUOUS
 62
     2
100
AcDbLine
 39
50.0
 10
58.282758
 20
118.826046
 30
0.0
 11
57.032758
 21
118.826046
 31
0.0
  0
LINE
  5
29A1
100
AcDbEntity
  8
OBJECT
 62
     2
100
AcDbLine
 39
50.0
 10
58.332758
 20
118.876046
 30
0.0
 11
58.282758
 21
118.826046
 31
0.0
  0
LINE
  5
29A2
100
AcDbEntity
  8
OBJECT
 62
     2
100
AcDbLine
 39
50.0
 10
57.007758
 20
119.486046
 30
0.0
 11
57.032758
 21
119.461046
 31
0.0
  0
LINE
  5
29A3
100
AcDbEntity
  8
OBJECT
  6
CONTINUOUS
 62
     2
100
AcDbLine
 39
50.0
 10
58.282758
 20
119.461046
 30
0.0
 11
57.032758
 21
119.461046
 31
0.0
  0
LINE
  5
29A4
100
AcDbEntity
  8
OBJECT
 62
     2
100
AcDbLine
 39
50.0
 10
58.307758
 20
119.486046
 30
0.0
 11
58.282758
 21
119.461046
 31
0.0
  0
LINE
  5
29A5
100
AcDbEntity
  8
OBJECT
  6
CONTINUOUS
 62
     2
100
AcDbLine
 39
50.0
 10
54.832758
 20
119.399007
 30
0.0
 11
53.982758
 21
119.399007
 31
0.0
  0
LINE
  5
29A6
100
AcDbEntity
  8
OBJECT
  6
CONTINUOUS
 62
     2
100
AcDbLine
 39
50.0
 10
54.832758
 20
119.31623
 30
0.0
 11
53.982758
 21
119.31623
 31
0.0
  0
LINE
  5
29A7
100
AcDbEntity
  8
OBJECT
  6
CONTINUOUS
 62
     2
100
AcDbLine
 39
50.0
 10
54.182758
 20
118.876046
 30
0.0
 11
54.082758
 21
118.876046
 31
0.0
  0
LINE
  5
29A8
100
AcDbEntity
  8
OBJECT
  6
CONTINUOUS
 62
     2
100
AcDbLine
 39
50.0
 10
54.732758
 20
118.876046
 30
0.0
 11
54.632758
 21
118.876046
 31
0.0
  0
ARC
  5
29A9
100
AcDbEntity
  8
OBJECT
 62
     2
100
AcDbCircle
 39
50.0
 10
54.720258
 20
118.809046
 30
0.0
 40
0.15
100
AcDbArc
 50
270.0
 51
0.0
  0
LINE
  5
29AA
100
AcDbEntity
  8
OBJECT
  6
CONTINUOUS
 62
     2
100
AcDbLine
 39
50.0
 10
54.720258
 20
118.659046
 30
0.0
 11
54.095258
 21
118.659046
 31
0.0
  0
ARC
  5
29AB
100
AcDbEntity
  8
OBJECT
 62
     2
100
AcDbCircle
 39
50.0
 10
54.095258
 20
118.809046
 30
0.0
 40
0.15
100
AcDbArc
 50
180.0
 51
270.0
  0
LINE
  5
29AC
100
AcDbEntity
  8
OBJECT
  6
CONTINUOUS
 62
     2
100
AcDbLine
 39
50.0
 10
55.082758
 20
119.261046
 30
0.0
 11
53.732758
 21
119.261046
 31
0.0
  0
LINE
  5
29AD
100
AcDbEntity
  8
OBJECT
  6
CONTINUOUS
 62
     2
100
AcDbLine
 39
50.0
 10
55.057758
 20
119.711046
 30
0.0
 11
53.757758
 21
119.711046
 31
0.0
  0
LINE
  5
29AE
100
AcDbEntity
  8
OBJECT
  6
CONTINUOUS
 62
     2
100
AcDbLine
 39
50.0
 10
54.587758
 20
119.948546
 30
0.0
 11
54.227758
 21
119.948546
 31
0.0
  0
LINE
  5
29AF
100
AcDbEntity
  8
OBJECT
  6
CONTINUOUS
 62
     2
100
AcDbLine
 39
50.0
 10
54.822758
 20
120.118546
 30
0.0
 11
54.587758
 21
120.118546
 31
0.0
  0
LINE
  5
29B0
100
AcDbEntity
  8
OBJECT
  6
CONTINUOUS
 62
     2
100
AcDbLine
 39
50.0
 10
54.227758
 20
120.118546
 30
0.0
 11
53.992758
 21
120.118546
 31
0.0
  0
LINE
  5
29B1
100
AcDbEntity
  8
OBJECT
  6
CONTINUOUS
 62
     2
100
AcDbLine
 39
50.0
 10
54.832758
 20
120.188669
 30
0.0
 11
53.982758
 21
120.188669
 31
0.0
  0
LINE
  5
29B2
100
AcDbEntity
  8
OBJECT
  6
CONTINUOUS
 62
     2
100
AcDbLine
 39
50.0
 10
53.992758
 20
119.948546
 30
0.0
 11
53.847758
 21
119.948546
 31
0.0
  0
LINE
  5
29B3
100
AcDbEntity
  8
OBJECT
  6
CONTINUOUS
 62
     2
100
AcDbLine
 39
50.0
 10
54.967758
 20
119.948546
 30
0.0
 11
54.822758
 21
119.948546
 31
0.0
  0
LINE
  5
29B4
100
AcDbEntity
  8
OBJECT
 62
     2
100
AcDbLine
 39
50.0
 10
53.847758
 20
120.118546
 30
0.0
 11
53.897758
 21
120.168546
 31
0.0
  0
LINE
  5
29B5
100
AcDbEntity
  8
OBJECT
  6
CONTINUOUS
 62
     2
100
AcDbLine
 39
50.0
 10
54.917758
 20
120.168546
 30
0.0
 11
53.897758
 21
120.168546
 31
0.0
  0
LINE
  5
29B6
100
AcDbEntity
  8
OBJECT
 62
     2
100
AcDbLine
 39
50.0
 10
53.732758
 20
118.876046
 30
0.0
 11
53.782758
 21
118.826046
 31
0.0
  0
LINE
  5
29B7
100
AcDbEntity
  8
OBJECT
  6
CONTINUOUS
 62
     2
100
AcDbLine
 39
50.0
 10
55.032758
 20
118.826046
 30
0.0
 11
53.782758
 21
118.826046
 31
0.0
  0
LINE
  5
29B8
100
AcDbEntity
  8
OBJECT
 62
     2
100
AcDbLine
 39
50.0
 10
55.082758
 20
118.876046
 30
0.0
 11
55.032758
 21
118.826046
 31
0.0
  0
LINE
  5
29B9
100
AcDbEntity
  8
OBJECT
 62
     2
100
AcDbLine
 39
50.0
 10
53.757758
 20
119.486046
 30
0.0
 11
53.782758
 21
119.461046
 31
0.0
  0
LINE
  5
29BA
100
AcDbEntity
  8
OBJECT
  6
CONTINUOUS
 62
     2
100
AcDbLine
 39
50.0
 10
55.032758
 20
119.461046
 30
0.0
 11
53.782758
 21
119.461046
 31
0.0
  0
LINE
  5
29BB
100
AcDbEntity
  8
OBJECT
 62
     2
100
AcDbLine
 39
50.0
 10
55.057758
 20
119.486046
 30
0.0
 11
55.032758
 21
119.461046
 31
0.0
  0
LINE
  5
29BC
100
AcDbEntity
  8
OBJECT
 62
     2
100
AcDbLine
 39
50.0
 10
51.807758
 20
119.486046
 30
0.0
 11
51.782758
 21
119.461046
 31
0.0
  0
LINE
  5
29BD
100
AcDbEntity
  8
OBJECT
  6
CONTINUOUS
 62
     2
100
AcDbLine
 39
50.0
 10
51.782758
 20
119.461046
 30
0.0
 11
50.532758
 21
119.461046
 31
0.0
  0
LINE
  5
29BE
100
AcDbEntity
  8
OBJECT
 62
     2
100
AcDbLine
 39
50.0
 10
50.507758
 20
119.486046
 30
0.0
 11
50.532758
 21
119.461046
 31
0.0
  0
LINE
  5
29BF
100
AcDbEntity
  8
OBJECT
 62
     2
100
AcDbLine
 39
50.0
 10
51.832758
 20
118.876046
 30
0.0
 11
51.782758
 21
118.826046
 31
0.0
  0
LINE
  5
29C0
100
AcDbEntity
  8
OBJECT
  6
CONTINUOUS
 62
     2
100
AcDbLine
 39
50.0
 10
51.782758
 20
118.826046
 30
0.0
 11
50.532758
 21
118.826046
 31
0.0
  0
LINE
  5
29C1
100
AcDbEntity
  8
OBJECT
 62
     2
100
AcDbLine
 39
50.0
 10
50.482758
 20
118.876046
 30
0.0
 11
50.532758
 21
118.826046
 31
0.0
  0
LINE
  5
29C2
100
AcDbEntity
  8
OBJECT
  6
CONTINUOUS
 62
     2
100
AcDbLine
 39
50.0
 10
51.667758
 20
120.168546
 30
0.0
 11
50.647758
 21
120.168546
 31
0.0
  0
LINE
  5
29C3
100
AcDbEntity
  8
OBJECT
 62
     2
100
AcDbLine
 39
50.0
 10
50.597758
 20
120.118546
 30
0.0
 11
50.647758
 21
120.168546
 31
0.0
  0
LINE
  5
29C4
100
AcDbEntity
  8
OBJECT
  6
CONTINUOUS
 62
     2
100
AcDbLine
 39
50.0
 10
51.717758
 20
119.948546
 30
0.0
 11
51.572758
 21
119.948546
 31
0.0
  0
LINE
  5
29C5
100
AcDbEntity
  8
OBJECT
  6
CONTINUOUS
 62
     2
100
AcDbLine
 39
50.0
 10
50.742758
 20
119.948546
 30
0.0
 11
50.597758
 21
119.948546
 31
0.0
  0
LINE
  5
29C6
100
AcDbEntity
  8
OBJECT
  6
CONTINUOUS
 62
     2
100
AcDbLine
 39
50.0
 10
51.582758
 20
120.188669
 30
0.0
 11
50.732758
 21
120.188669
 31
0.0
  0
LINE
  5
29C7
100
AcDbEntity
  8
OBJECT
  6
CONTINUOUS
 62
     2
100
AcDbLine
 39
50.0
 10
50.977758
 20
120.118546
 30
0.0
 11
50.742758
 21
120.118546
 31
0.0
  0
LINE
  5
29C8
100
AcDbEntity
  8
OBJECT
  6
CONTINUOUS
 62
     2
100
AcDbLine
 39
50.0
 10
51.572758
 20
120.118546
 30
0.0
 11
51.337758
 21
120.118546
 31
0.0
  0
LINE
  5
29C9
100
AcDbEntity
  8
OBJECT
  6
CONTINUOUS
 62
     2
100
AcDbLine
 39
50.0
 10
51.337758
 20
119.948546
 30
0.0
 11
50.977758
 21
119.948546
 31
0.0
  0
LINE
  5
29CA
100
AcDbEntity
  8
OBJECT
  6
CONTINUOUS
 62
     2
100
AcDbLine
 39
50.0
 10
51.807758
 20
119.711046
 30
0.0
 11
50.507758
 21
119.711046
 31
0.0
  0
LINE
  5
29CB
100
AcDbEntity
  8
OBJECT
  6
CONTINUOUS
 62
     2
100
AcDbLine
 39
50.0
 10
51.832758
 20
119.261046
 30
0.0
 11
50.482758
 21
119.261046
 31
0.0
  0
ARC
  5
29CC
100
AcDbEntity
  8
OBJECT
 62
     2
100
AcDbCircle
 39
50.0
 10
50.845258
 20
118.809046
 30
0.0
 40
0.15
100
AcDbArc
 50
180.0
 51
270.0
  0
LINE
  5
29CD
100
AcDbEntity
  8
OBJECT
  6
CONTINUOUS
 62
     2
100
AcDbLine
 39
50.0
 10
51.470258
 20
118.659046
 30
0.0
 11
50.845258
 21
118.659046
 31
0.0
  0
ARC
  5
29CE
100
AcDbEntity
  8
OBJECT
 62
     2
100
AcDbCircle
 39
50.0
 10
51.470258
 20
118.809046
 30
0.0
 40
0.15
100
AcDbArc
 50
270.0
 51
0.0
  0
LINE
  5
29CF
100
AcDbEntity
  8
OBJECT
  6
CONTINUOUS
 62
     2
100
AcDbLine
 39
50.0
 10
51.482758
 20
118.876046
 30
0.0
 11
51.382758
 21
118.876046
 31
0.0
  0
LINE
  5
29D0
100
AcDbEntity
  8
OBJECT
  6
CONTINUOUS
 62
     2
100
AcDbLine
 39
50.0
 10
50.932758
 20
118.876046
 30
0.0
 11
50.832758
 21
118.876046
 31
0.0
  0
LINE
  5
29D1
100
AcDbEntity
  8
OBJECT
  6
CONTINUOUS
 62
     2
100
AcDbLine
 39
50.0
 10
51.582758
 20
119.31623
 30
0.0
 11
50.732758
 21
119.31623
 31
0.0
  0
LINE
  5
29D2
100
AcDbEntity
  8
OBJECT
  6
CONTINUOUS
 62
     2
100
AcDbLine
 39
50.0
 10
51.582758
 20
119.399007
 30
0.0
 11
50.732758
 21
119.399007
 31
0.0
  0
LINE
  5
29D3
100
AcDbEntity
  8
OBJECT
 62
     2
100
AcDbLine
 39
20.0
 10
57.332758
 20
119.711046
 30
0.0
 11
57.332758
 21
119.461046
 31
0.0
  0
LINE
  5
29D4
100
AcDbEntity
  8
OBJECT
 62
     2
100
AcDbLine
 39
20.0
 10
57.432758
 20
119.711046
 30
0.0
 11
57.432758
 21
119.461046
 31
0.0
  0
LINE
  5
29D5
100
AcDbEntity
  8
OBJECT
 62
     2
100
AcDbLine
 39
20.0
 10
57.882758
 20
119.711046
 30
0.0
 11
57.882758
 21
119.461046
 31
0.0
  0
LINE
  5
29D6
100
AcDbEntity
  8
OBJECT
 62
     2
100
AcDbLine
 39
20.0
 10
57.982758
 20
119.711046
 30
0.0
 11
57.982758
 21
119.461046
 31
0.0
  0
LINE
  5
29D7
100
AcDbEntity
  8
OBJECT
 62
     2
100
AcDbLine
 39
20.0
 10
57.982758
 20
119.261046
 30
0.0
 11
57.982758
 21
118.876046
 31
0.0
  0
LINE
  5
29D8
100
AcDbEntity
  8
OBJECT
 62
     2
100
AcDbLine
 39
20.0
 10
57.882758
 20
119.261046
 30
0.0
 11
57.882758
 21
118.876046
 31
0.0
  0
LINE
  5
29D9
100
AcDbEntity
  8
OBJECT
 62
     2
100
AcDbLine
 39
20.0
 10
57.432758
 20
119.261046
 30
0.0
 11
57.432758
 21
118.876046
 31
0.0
  0
LINE
  5
29DA
100
AcDbEntity
  8
OBJECT
 62
     2
100
AcDbLine
 39
20.0
 10
57.332758
 20
119.261046
 30
0.0
 11
57.332758
 21
118.876046
 31
0.0
  0
ARC
  5
29DB
100
AcDbEntity
  8
OBJECT
 62
     2
100
AcDbCircle
 39
20.0
 10
57.657758
 20
119.532789
 30
0.0
 40
0.694216
100
AcDbArc
 50
251.088553
 51
288.911447
  0
LINE
  5
29DC
100
AcDbEntity
  8
OBJECT
 62
     2
100
AcDbLine
 39
20.0
 10
58.120258
 20
118.826046
 30
0.0
 11
58.120258
 21
118.809046
 31
0.0
  0
LINE
  5
29DD
100
AcDbEntity
  8
OBJECT
 62
     2
100
AcDbLine
 39
20.0
 10
57.195258
 20
118.826046
 30
0.0
 11
57.195258
 21
118.809046
 31
0.0
  0
LINE
  5
29DE
100
AcDbEntity
  8
OBJECT
 62
     2
100
AcDbLine
 39
20.0
 10
58.082758
 20
119.461046
 30
0.0
 11
58.082758
 21
119.261046
 31
0.0
  0
LINE
  5
29DF
100
AcDbEntity
  8
OBJECT
 62
     2
100
AcDbLine
 39
20.0
 10
57.232758
 20
119.461046
 30
0.0
 11
57.232758
 21
119.261046
 31
0.0
  0
ARC
  5
29E0
100
AcDbEntity
  8
OBJECT
 62
     2
100
AcDbCircle
 39
20.0
 10
57.657758
 20
119.775412
 30
0.0
 40
0.38748
100
AcDbArc
 50
62.319552
 51
117.680448
  0
LINE
  5
29E1
100
AcDbEntity
  8
OBJECT
 62
     2
100
AcDbLine
 39
20.0
 10
57.477758
 20
120.118546
 30
0.0
 11
57.477758
 21
119.948546
 31
0.0
  0
LINE
  5
29E2
100
AcDbEntity
  8
OBJECT
 62
     2
100
AcDbLine
 39
20.0
 10
57.242758
 20
120.118546
 30
0.0
 11
57.242758
 21
119.948546
 31
0.0
  0
LINE
  5
29E3
100
AcDbEntity
  8
OBJECT
 62
     2
100
AcDbLine
 39
20.0
 10
57.837758
 20
120.118546
 30
0.0
 11
57.837758
 21
119.948546
 31
0.0
  0
LINE
  5
29E4
100
AcDbEntity
  8
OBJECT
 62
     2
100
AcDbLine
 39
20.0
 10
58.072758
 20
120.118546
 30
0.0
 11
58.072758
 21
119.948546
 31
0.0
  0
LINE
  5
29E5
100
AcDbEntity
  8
OBJECT
 62
     2
100
AcDbLine
 39
20.0
 10
57.097758
 20
120.118546
 30
0.0
 11
57.097758
 21
119.898546
 31
0.0
  0
LINE
  5
29E6
100
AcDbEntity
  8
OBJECT
 62
     2
100
AcDbLine
 39
20.0
 10
58.217758
 20
120.118546
 30
0.0
 11
58.217758
 21
119.898546
 31
0.0
  0
LINE
  5
29E7
100
AcDbEntity
  8
OBJECT
 62
     2
100
AcDbLine
 39
20.0
 10
58.167758
 20
120.168546
 30
0.0
 11
58.217758
 21
120.118546
 31
0.0
  0
ARC
  5
29E8
100
AcDbEntity
  8
OBJECT
 62
     2
100
AcDbCircle
 39
20.0
 10
58.252758
 20
119.775412
 30
0.0
 40
0.38748
100
AcDbArc
 50
100.784369
 51
117.680448
  0
ARC
  5
29E9
100
AcDbEntity
  8
OBJECT
 62
     2
100
AcDbCircle
 39
20.0
 10
57.062758
 20
119.775412
 30
0.0
 40
0.38748
100
AcDbArc
 50
62.319552
 51
79.215631
  0
LINE
  5
29EA
100
AcDbEntity
  8
OBJECT
 62
     2
100
AcDbLine
 39
20.0
 10
56.982758
 20
119.261046
 30
0.0
 11
56.982758
 21
118.876046
 31
0.0
  0
LINE
  5
29EB
100
AcDbEntity
  8
OBJECT
 62
     2
100
AcDbLine
 39
20.0
 10
58.332758
 20
119.261046
 30
0.0
 11
58.332758
 21
118.876046
 31
0.0
  0
ARC
  5
29EC
100
AcDbEntity
  8
OBJECT
 62
     2
100
AcDbCircle
 39
20.0
 10
58.207758
 20
119.532789
 30
0.0
 40
0.694216
100
AcDbArc
 50
251.088553
 51
277.774298
  0
ARC
  5
29ED
100
AcDbEntity
  8
OBJECT
 62
     2
100
AcDbCircle
 39
20.0
 10
57.107758
 20
119.532789
 30
0.0
 40
0.694216
100
AcDbArc
 50
262.225702
 51
288.911447
  0
LINE
  5
29EE
100
AcDbEntity
  8
OBJECT
 62
     2
100
AcDbLine
 39
20.0
 10
57.007758
 20
119.711046
 30
0.0
 11
57.007758
 21
119.486046
 31
0.0
  0
LINE
  5
29EF
100
AcDbEntity
  8
OBJECT
 62
     2
100
AcDbLine
 39
20.0
 10
58.307758
 20
119.711046
 30
0.0
 11
58.307758
 21
119.486046
 31
0.0
  0
LINE
  5
29F0
100
AcDbEntity
  8
OBJECT
 62
     2
100
AcDbLine
 39
20.0
 10
54.082758
 20
119.711046
 30
0.0
 11
54.082758
 21
119.461046
 31
0.0
  0
LINE
  5
29F1
100
AcDbEntity
  8
OBJECT
 62
     2
100
AcDbLine
 39
20.0
 10
54.182758
 20
119.711046
 30
0.0
 11
54.182758
 21
119.461046
 31
0.0
  0
LINE
  5
29F2
100
AcDbEntity
  8
OBJECT
 62
     2
100
AcDbLine
 39
20.0
 10
54.632758
 20
119.711046
 30
0.0
 11
54.632758
 21
119.461046
 31
0.0
  0
LINE
  5
29F3
100
AcDbEntity
  8
OBJECT
 62
     2
100
AcDbLine
 39
20.0
 10
54.732758
 20
119.711046
 30
0.0
 11
54.732758
 21
119.461046
 31
0.0
  0
LINE
  5
29F4
100
AcDbEntity
  8
OBJECT
 62
     2
100
AcDbLine
 39
20.0
 10
54.732758
 20
119.261046
 30
0.0
 11
54.732758
 21
118.876046
 31
0.0
  0
LINE
  5
29F5
100
AcDbEntity
  8
OBJECT
 62
     2
100
AcDbLine
 39
20.0
 10
54.632758
 20
119.261046
 30
0.0
 11
54.632758
 21
118.876046
 31
0.0
  0
LINE
  5
29F6
100
AcDbEntity
  8
OBJECT
 62
     2
100
AcDbLine
 39
20.0
 10
54.182758
 20
119.261046
 30
0.0
 11
54.182758
 21
118.876046
 31
0.0
  0
LINE
  5
29F7
100
AcDbEntity
  8
OBJECT
 62
     2
100
AcDbLine
 39
20.0
 10
54.082758
 20
119.261046
 30
0.0
 11
54.082758
 21
118.876046
 31
0.0
  0
ARC
  5
29F8
100
AcDbEntity
  8
OBJECT
 62
     2
100
AcDbCircle
 39
20.0
 10
54.407758
 20
119.532789
 30
0.0
 40
0.694216
100
AcDbArc
 50
251.088553
 51
288.911447
  0
LINE
  5
29F9
100
AcDbEntity
  8
OBJECT
 62
     2
100
AcDbLine
 39
20.0
 10
54.870258
 20
118.826046
 30
0.0
 11
54.870258
 21
118.809046
 31
0.0
  0
LINE
  5
29FA
100
AcDbEntity
  8
OBJECT
 62
     2
100
AcDbLine
 39
20.0
 10
53.945258
 20
118.826046
 30
0.0
 11
53.945258
 21
118.809046
 31
0.0
  0
LINE
  5
29FB
100
AcDbEntity
  8
OBJECT
 62
     2
100
AcDbLine
 39
20.0
 10
54.832758
 20
119.461046
 30
0.0
 11
54.832758
 21
119.261046
 31
0.0
  0
LINE
  5
29FC
100
AcDbEntity
  8
OBJECT
 62
     2
100
AcDbLine
 39
20.0
 10
53.982758
 20
119.461046
 30
0.0
 11
53.982758
 21
119.261046
 31
0.0
  0
ARC
  5
29FD
100
AcDbEntity
  8
OBJECT
 62
     2
100
AcDbCircle
 39
20.0
 10
54.407758
 20
119.775412
 30
0.0
 40
0.38748
100
AcDbArc
 50
62.319552
 51
117.680448
  0
LINE
  5
29FE
100
AcDbEntity
  8
OBJECT
 62
     2
100
AcDbLine
 39
20.0
 10
54.227758
 20
120.118546
 30
0.0
 11
54.227758
 21
119.948546
 31
0.0
  0
LINE
  5
29FF
100
AcDbEntity
  8
OBJECT
 62
     2
100
AcDbLine
 39
20.0
 10
53.992758
 20
120.118546
 30
0.0
 11
53.992758
 21
119.948546
 31
0.0
  0
LINE
  5
2A00
100
AcDbEntity
  8
OBJECT
 62
     2
100
AcDbLine
 39
20.0
 10
54.587758
 20
120.118546
 30
0.0
 11
54.587758
 21
119.948546
 31
0.0
  0
LINE
  5
2A01
100
AcDbEntity
  8
OBJECT
 62
     2
100
AcDbLine
 39
20.0
 10
54.822758
 20
120.118546
 30
0.0
 11
54.822758
 21
119.948546
 31
0.0
  0
LINE
  5
2A02
100
AcDbEntity
  8
OBJECT
 62
     2
100
AcDbLine
 39
20.0
 10
53.847758
 20
120.118546
 30
0.0
 11
53.847758
 21
119.898546
 31
0.0
  0
LINE
  5
2A03
100
AcDbEntity
  8
OBJECT
 62
     2
100
AcDbLine
 39
20.0
 10
54.967758
 20
120.118546
 30
0.0
 11
54.967758
 21
119.898546
 31
0.0
  0
LINE
  5
2A04
100
AcDbEntity
  8
OBJECT
 62
     2
100
AcDbLine
 39
20.0
 10
54.917758
 20
120.168546
 30
0.0
 11
54.967758
 21
120.118546
 31
0.0
  0
ARC
  5
2A05
100
AcDbEntity
  8
OBJECT
 62
     2
100
AcDbCircle
 39
20.0
 10
55.002758
 20
119.775412
 30
0.0
 40
0.38748
100
AcDbArc
 50
100.784369
 51
117.680448
  0
ARC
  5
2A06
100
AcDbEntity
  8
OBJECT
 62
     2
100
AcDbCircle
 39
20.0
 10
53.812758
 20
119.775412
 30
0.0
 40
0.38748
100
AcDbArc
 50
62.319552
 51
79.215631
  0
LINE
  5
2A07
100
AcDbEntity
  8
OBJECT
 62
     2
100
AcDbLine
 39
20.0
 10
53.732758
 20
119.261046
 30
0.0
 11
53.732758
 21
118.876046
 31
0.0
  0
LINE
  5
2A08
100
AcDbEntity
  8
OBJECT
 62
     2
100
AcDbLine
 39
20.0
 10
55.082758
 20
119.261046
 30
0.0
 11
55.082758
 21
118.876046
 31
0.0
  0
ARC
  5
2A09
100
AcDbEntity
  8
OBJECT
 62
     2
100
AcDbCircle
 39
20.0
 10
54.957758
 20
119.532789
 30
0.0
 40
0.694216
100
AcDbArc
 50
251.088553
 51
277.774298
  0
ARC
  5
2A0A
100
AcDbEntity
  8
OBJECT
 62
     2
100
AcDbCircle
 39
20.0
 10
53.857758
 20
119.532789
 30
0.0
 40
0.694216
100
AcDbArc
 50
262.225702
 51
288.911447
  0
LINE
  5
2A0B
100
AcDbEntity
  8
OBJECT
 62
     2
100
AcDbLine
 39
20.0
 10
53.757758
 20
119.711046
 30
0.0
 11
53.757758
 21
119.486046
 31
0.0
  0
LINE
  5
2A0C
100
AcDbEntity
  8
OBJECT
 62
     2
100
AcDbLine
 39
20.0
 10
55.057758
 20
119.711046
 30
0.0
 11
55.057758
 21
119.486046
 31
0.0
  0
LINE
  5
2A0D
100
AcDbEntity
  8
OBJECT
 62
     2
100
AcDbLine
 39
20.0
 10
54.282758
 20
118.659046
 30
0.0
 11
54.532758
 21
118.659046
 31
0.0
  0
LINE
  5
2A0E
100
AcDbEntity
  8
OBJECT
 62
     2
100
AcDbLine
 39
20.0
 10
57.532758
 20
118.659046
 30
0.0
 11
57.782758
 21
118.659046
 31
0.0
  0
LINE
  5
2A0F
100
AcDbEntity
  8
OBJECT
 62
     2
100
AcDbLine
 39
20.0
 10
51.807758
 20
119.711046
 30
0.0
 11
51.807758
 21
119.486046
 31
0.0
  0
LINE
  5
2A10
100
AcDbEntity
  8
OBJECT
 62
     2
100
AcDbLine
 39
20.0
 10
50.507758
 20
119.711046
 30
0.0
 11
50.507758
 21
119.486046
 31
0.0
  0
ARC
  5
2A11
100
AcDbEntity
  8
OBJECT
 62
     2
100
AcDbCircle
 39
20.0
 10
50.607758
 20
119.532789
 30
0.0
 40
0.694216
100
AcDbArc
 50
262.225702
 51
288.911447
  0
ARC
  5
2A12
100
AcDbEntity
  8
OBJECT
 62
     2
100
AcDbCircle
 39
20.0
 10
51.707758
 20
119.532789
 30
0.0
 40
0.694216
100
AcDbArc
 50
251.088553
 51
277.774298
  0
LINE
  5
2A13
100
AcDbEntity
  8
OBJECT
 62
     2
100
AcDbLine
 39
20.0
 10
51.832758
 20
119.261046
 30
0.0
 11
51.832758
 21
118.876046
 31
0.0
  0
LINE
  5
2A14
100
AcDbEntity
  8
OBJECT
 62
     2
100
AcDbLine
 39
20.0
 10
50.482758
 20
119.261046
 30
0.0
 11
50.482758
 21
118.876046
 31
0.0
  0
ARC
  5
2A15
100
AcDbEntity
  8
OBJECT
 62
     2
100
AcDbCircle
 39
20.0
 10
50.562758
 20
119.775412
 30
0.0
 40
0.38748
100
AcDbArc
 50
62.319552
 51
79.215631
  0
ARC
  5
2A16
100
AcDbEntity
  8
OBJECT
 62
     2
100
AcDbCircle
 39
20.0
 10
51.752758
 20
119.775412
 30
0.0
 40
0.38748
100
AcDbArc
 50
100.784369
 51
117.680448
  0
LINE
  5
2A17
100
AcDbEntity
  8
OBJECT
 62
     2
100
AcDbLine
 39
20.0
 10
51.667758
 20
120.168546
 30
0.0
 11
51.717758
 21
120.118546
 31
0.0
  0
LINE
  5
2A18
100
AcDbEntity
  8
OBJECT
 62
     2
100
AcDbLine
 39
20.0
 10
51.717758
 20
120.118546
 30
0.0
 11
51.717758
 21
119.898546
 31
0.0
  0
LINE
  5
2A19
100
AcDbEntity
  8
OBJECT
 62
     2
100
AcDbLine
 39
20.0
 10
50.597758
 20
120.118546
 30
0.0
 11
50.597758
 21
119.898546
 31
0.0
  0
LINE
  5
2A1A
100
AcDbEntity
  8
OBJECT
 62
     2
100
AcDbLine
 39
20.0
 10
51.572758
 20
120.118546
 30
0.0
 11
51.572758
 21
119.948546
 31
0.0
  0
LINE
  5
2A1B
100
AcDbEntity
  8
OBJECT
 62
     2
100
AcDbLine
 39
20.0
 10
51.337758
 20
120.118546
 30
0.0
 11
51.337758
 21
119.948546
 31
0.0
  0
LINE
  5
2A1C
100
AcDbEntity
  8
OBJECT
 62
     2
100
AcDbLine
 39
20.0
 10
50.742758
 20
120.118546
 30
0.0
 11
50.742758
 21
119.948546
 31
0.0
  0
LINE
  5
2A1D
100
AcDbEntity
  8
OBJECT
 62
     2
100
AcDbLine
 39
20.0
 10
50.977758
 20
120.118546
 30
0.0
 11
50.977758
 21
119.948546
 31
0.0
  0
ARC
  5
2A1E
100
AcDbEntity
  8
OBJECT
 62
     2
100
AcDbCircle
 39
20.0
 10
51.157758
 20
119.775412
 30
0.0
 40
0.38748
100
AcDbArc
 50
62.319552
 51
117.680448
  0
LINE
  5
2A1F
100
AcDbEntity
  8
OBJECT
 62
     2
100
AcDbLine
 39
20.0
 10
50.732758
 20
119.461046
 30
0.0
 11
50.732758
 21
119.261046
 31
0.0
  0
LINE
  5
2A20
100
AcDbEntity
  8
OBJECT
 62
     2
100
AcDbLine
 39
20.0
 10
51.582758
 20
119.461046
 30
0.0
 11
51.582758
 21
119.261046
 31
0.0
  0
LINE
  5
2A21
100
AcDbEntity
  8
OBJECT
 62
     2
100
AcDbLine
 39
20.0
 10
50.695258
 20
118.826046
 30
0.0
 11
50.695258
 21
118.809046
 31
0.0
  0
LINE
  5
2A22
100
AcDbEntity
  8
OBJECT
 62
     2
100
AcDbLine
 39
20.0
 10
51.620258
 20
118.826046
 30
0.0
 11
51.620258
 21
118.809046
 31
0.0
  0
ARC
  5
2A23
100
AcDbEntity
  8
OBJECT
 62
     2
100
AcDbCircle
 39
20.0
 10
51.157758
 20
119.532789
 30
0.0
 40
0.694216
100
AcDbArc
 50
251.088553
 51
288.911447
  0
LINE
  5
2A24
100
AcDbEntity
  8
OBJECT
 62
     2
100
AcDbLine
 39
20.0
 10
50.832758
 20
119.261046
 30
0.0
 11
50.832758
 21
118.876046
 31
0.0
  0
LINE
  5
2A25
100
AcDbEntity
  8
OBJECT
 62
     2
100
AcDbLine
 39
20.0
 10
50.932758
 20
119.261046
 30
0.0
 11
50.932758
 21
118.876046
 31
0.0
  0
LINE
  5
2A26
100
AcDbEntity
  8
OBJECT
 62
     2
100
AcDbLine
 39
20.0
 10
51.382758
 20
119.261046
 30
0.0
 11
51.382758
 21
118.876046
 31
0.0
  0
LINE
  5
2A27
100
AcDbEntity
  8
OBJECT
 62
     2
100
AcDbLine
 39
20.0
 10
51.482758
 20
119.261046
 30
0.0
 11
51.482758
 21
118.876046
 31
0.0
  0
LINE
  5
2A28
100
AcDbEntity
  8
OBJECT
 62
     2
100
AcDbLine
 39
20.0
 10
51.482758
 20
119.711046
 30
0.0
 11
51.482758
 21
119.461046
 31
0.0
  0
LINE
  5
2A29
100
AcDbEntity
  8
OBJECT
 62
     2
100
AcDbLine
 39
20.0
 10
51.382758
 20
119.711046
 30
0.0
 11
51.382758
 21
119.461046
 31
0.0
  0
LINE
  5
2A2A
100
AcDbEntity
  8
OBJECT
 62
     2
100
AcDbLine
 39
20.0
 10
50.932758
 20
119.711046
 30
0.0
 11
50.932758
 21
119.461046
 31
0.0
  0
LINE
  5
2A2B
100
AcDbEntity
  8
OBJECT
 62
     2
100
AcDbLine
 39
20.0
 10
50.832758
 20
119.711046
 30
0.0
 11
50.832758
 21
119.461046
 31
0.0
  0
LINE
  5
2A4C
100
AcDbEntity
  8
OBJECT
  6
CONTINUOUS
 62
     2
100
AcDbLine
 39
50.0
 10
54.919202
 20
67.105997
 30
0.0
 11
52.922589
 21
67.105997
 31
0.0
  0
LINE
  5
2A4D
100
AcDbEntity
  8
OBJECT
  6
CONTINUOUS
 62
     2
100
AcDbLine
 39
50.0
 10
54.407758
 20
70.275492
 30
0.0
 11
52.91203
 21
67.083476
 31
0.0
  0
LINE
  5
2A4E
100
AcDbEntity
  8
OBJECT
  6
CONTINUOUS
 62
     2
100
AcDbLine
 39
50.0
 10
54.407758
 20
70.275492
 30
0.0
 11
54.919202
 21
69.18402
 31
0.0
  0
ARC
  5
2A4F
100
AcDbEntity
  8
OBJECT
  6
CONTINUOUS
 62
     2
100
AcDbCircle
 39
50.0
 10
54.407758
 20
67.106059
 30
0.0
 40
1.485168
100
AcDbArc
 50
180.002355
 51
290.143219
  0
LINE
  5
2A50
100
AcDbEntity
  8
OBJECT
  6
CONTINUOUS
 62
     2
100
AcDbLine
 39
50.0
 10
55.407758
 20
71.688517
 30
0.0
 11
53.407758
 21
71.688517
 31
0.0
  0
LINE
  5
2A51
100
AcDbEntity
  8
OBJECT
  6
CONTINUOUS
 62
     2
100
AcDbLine
 39
50.0
 10
53.407758
 20
70.752238
 30
0.0
 11
55.407758
 21
70.752238
 31
0.0
  0
LINE
  5
2A52
100
AcDbEntity
  8
OBJECT
  6
CONTINUOUS
 62
     2
100
AcDbLine
 39
50.0
 10
53.407758
 20
71.688517
 30
0.0
 11
53.407758
 21
70.752238
 31
0.0
  0
LINE
  5
2A53
100
AcDbEntity
  8
OBJECT
  6
CONTINUOUS
 62
     2
100
AcDbLine
 39
50.0
 10
55.407758
 20
70.752238
 30
0.0
 11
55.407758
 21
71.688517
 31
0.0
  0
LINE
  5
2A82
100
AcDbEntity
  8
OBJECT
100
AcDbLine
 10
54.532758
 20
118.659046
 30
0.0
 11
54.532758
 21
70.00873
 31
0.0
  0
LINE
  5
2A83
100
AcDbEntity
  8
OBJECT
100
AcDbLine
 10
54.282758
 20
118.659046
 30
0.0
 11
54.282758
 21
70.008731
 31
0.0
  0
LINE
  5
2A84
100
AcDbEntity
  8
OBJECT
100
AcDbLine
 10
51.282758
 20
118.659046
 30
0.0
 11
51.282758
 21
63.163544
 31
0.0
  0
LINE
  5
2A85
100
AcDbEntity
  8
OBJECT
100
AcDbLine
 10
51.032758
 20
118.659046
 30
0.0
 11
51.032758
 21
63.15916
 31
0.0
  0
INSERT
  5
2AAC
100
AcDbEntity
  8
HATCH
100
AcDbBlockReference
  2
*X8
 10
-110.770149
 20
-26.441626
 30
0.0
1001
ACAD
1000
HATCH
1002
{
1070
    16
1000
ANSI37
1040
0.5
1040
0.0
1002
}
  0
LINE
  5
2AC2
100
AcDbEntity
  8
OBJECT
100
AcDbLine
 10
50.032758
 20
119.898546
 30
0.0
 11
58.782758
 21
119.898546
 31
0.0
  0
LINE
  5
2AC3
100
AcDbEntity
  8
OBJECT
100
AcDbLine
 10
50.032758
 20
119.711046
 30
0.0
 11
58.782758
 21
119.711046
 31
0.0
  0
LINE
  5
2AC7
100
AcDbEntity
  8
OBJECT
100
AcDbLine
 10
50.032758
 20
119.711046
 30
0.0
 11
50.032758
 21
119.898546
 31
0.0
  0
LINE
  5
2ACA
100
AcDbEntity
  8
OBJECT
  6
CONTINUOUS
 62
     2
100
AcDbLine
 39
50.0
 10
58.082758
 20
120.211046
 30
0.0
 11
57.232758
 21
120.211046
 31
0.0
  0
LINE
  5
2ACB
100
AcDbEntity
  8
OBJECT
  6
CONTINUOUS
 62
     2
100
AcDbLine
 39
50.0
 10
54.832758
 20
120.211046
 30
0.0
 11
53.982758
 21
120.211046
 31
0.0
  0
LINE
  5
2ACC
100
AcDbEntity
  8
OBJECT
  6
CONTINUOUS
 62
     2
100
AcDbLine
 39
50.0
 10
51.582758
 20
120.211046
 30
0.0
 11
50.732758
 21
120.211046
 31
0.0
  0
LINE
  5
2ACD
100
AcDbEntity
  8
OBJECT
  6
CONTINUOUS
 62
     2
100
AcDbLine
 39
50.0
 10
54.657758
 20
120.601671
 30
0.0
 11
54.532758
 21
120.385118
 31
0.0
  0
LINE
  5
2ACE
100
AcDbEntity
  8
OBJECT
  6
CONTINUOUS
 62
     2
100
AcDbLine
 39
50.0
 10
54.532758
 20
120.385118
 30
0.0
 11
54.282758
 21
120.385118
 31
0.0
  0
LINE
  5
2ACF
100
AcDbEntity
  8
OBJECT
  6
CONTINUOUS
 62
     2
100
AcDbLine
 39
50.0
 10
54.282758
 20
120.385118
 30
0.0
 11
54.157758
 21
120.601671
 31
0.0
  0
LINE
  5
2AD0
100
AcDbEntity
  8
OBJECT
  6
CONTINUOUS
 62
     2
100
AcDbLine
 39
50.0
 10
54.157758
 20
120.601671
 30
0.0
 11
54.282758
 21
120.818162
 31
0.0
  0
LINE
  5
2AD1
100
AcDbEntity
  8
OBJECT
  6
CONTINUOUS
 62
     2
100
AcDbLine
 39
50.0
 10
54.282758
 20
120.818162
 30
0.0
 11
54.532758
 21
120.818162
 31
0.0
  0
LINE
  5
2AD2
100
AcDbEntity
  8
OBJECT
  6
CONTINUOUS
 62
     2
100
AcDbLine
 39
50.0
 10
54.532758
 20
120.818162
 30
0.0
 11
54.657758
 21
120.601671
 31
0.0
  0
LINE
  5
2AD3
100
AcDbEntity
  8
OBJECT
 62
     2
100
AcDbLine
 39
20.0
 10
54.11284
 20
122.711046
 30
0.0
 11
55.407758
 21
122.711046
 31
0.0
  0
LINE
  5
2AD4
100
AcDbEntity
  8
OBJECT
  6
CONTINUOUS
 62
     2
100
AcDbLine
 39
50.0
 10
54.555345
 20
121.973525
 30
0.0
 11
54.657758
 21
121.796152
 31
0.0
  0
LINE
  5
2AD5
100
AcDbEntity
  8
OBJECT
  6
CONTINUOUS
 62
     2
100
AcDbLine
 39
50.0
 10
54.282758
 20
122.012644
 30
0.0
 11
54.41277
 21
122.012644
 31
0.0
  0
LINE
  5
2AD6
100
AcDbEntity
  8
OBJECT
  6
CONTINUOUS
 62
     2
100
AcDbLine
 39
50.0
 10
54.166119
 20
121.810633
 30
0.0
 11
54.282758
 21
122.012644
 31
0.0
  0
LINE
  5
2AD7
100
AcDbEntity
  8
OBJECT
  6
CONTINUOUS
 62
     2
100
AcDbLine
 39
50.0
 10
54.657758
 20
121.796152
 30
0.0
 11
54.541117
 21
121.594082
 31
0.0
  0
LINE
  5
2ADF
100
AcDbEntity
  8
OBJECT
 62
     2
100
AcDbLine
 10
55.407758
 20
119.898546
 30
0.0
 11
55.407758
 21
121.861617
 31
0.0
  0
LINE
  5
2AE1
100
AcDbEntity
  8
OBJECT
  6
CONTINUOUS
 62
     2
100
AcDbLine
 39
50.0
 10
56.744347
 20
79.45124
 30
0.0
 11
56.579202
 21
79.098807
 31
0.0
  0
LINE
  5
2AE2
100
AcDbEntity
  8
OBJECT
  6
CONTINUOUS
 62
     2
100
AcDbLine
 39
50.0
 10
58.571165
 20
79.45124
 30
0.0
 11
59.142926
 21
78.231046
 31
0.0
  0
ARC
  5
2AE3
100
AcDbEntity
  8
OBJECT
  6
CONTINUOUS
 62
     2
100
AcDbCircle
 39
50.0
 10
57.657758
 20
78.231107
 30
0.0
 40
1.485168
100
AcDbArc
 50
236.206367
 51
359.997645
  0
LINE
  5
2AE4
100
AcDbEntity
  8
OBJECT
  6
CONTINUOUS
 62
     2
100
AcDbLine
 39
50.0
 10
59.142926
 20
78.231046
 30
0.0
 11
56.999202
 21
78.231046
 31
0.0
  0
LINE
  5
2AE6
100
AcDbEntity
  8
OBJECT
  6
CONTINUOUS
 62
     2
100
AcDbLine
 39
50.0
 10
58.657758
 20
81.877287
 30
0.0
 11
58.657758
 21
82.813566
 31
0.0
  0
LINE
  5
2AE7
100
AcDbEntity
  8
OBJECT
  6
CONTINUOUS
 62
     2
100
AcDbLine
 39
50.0
 10
56.657758
 20
82.813566
 30
0.0
 11
56.657758
 21
81.877287
 31
0.0
  0
LINE
  5
2AE8
100
AcDbEntity
  8
OBJECT
  6
CONTINUOUS
 62
     2
100
AcDbLine
 39
50.0
 10
56.657758
 20
81.877287
 30
0.0
 11
58.657758
 21
81.877287
 31
0.0
  0
LINE
  5
2AE9
100
AcDbEntity
  8
OBJECT
  6
CONTINUOUS
 62
     2
100
AcDbLine
 39
50.0
 10
58.657758
 20
82.813566
 30
0.0
 11
56.657758
 21
82.813566
 31
0.0
  0
INSERT
  5
2AEA
100
AcDbEntity
  8
HATCH
100
AcDbBlockReference
  2
*X8
 10
-107.520149
 20
-13.791839
 30
0.0
1001
ACAD
1000
HATCH
1002
{
1070
    16
1000
ANSI37
1040
0.5
1040
0.0
1002
}
  0
LINE
  5
2AEB
100
AcDbEntity
  8
OBJECT
100
AcDbLine
 10
57.532758
 20
118.659046
 30
0.0
 11
57.532758
 21
97.085745
 31
0.0
  0
LINE
  5
2AEC
100
AcDbEntity
  8
OBJECT
100
AcDbLine
 10
57.782758
 20
118.659046
 30
0.0
 11
57.782758
 21
98.18577
 31
0.0
  0
LINE
  5
2AED
100
AcDbEntity
  8
OBJECT
100
AcDbLine
 10
58.782758
 20
119.711046
 30
0.0
 11
58.782758
 21
119.898546
 31
0.0
  0
LINE
  5
2AFE
100
AcDbEntity
  8
OBJECT
 62
     2
100
AcDbLine
 10
55.407758
 20
122.152308
 30
0.0
 11
55.407758
 21
122.711046
 31
0.0
  0
LINE
  5
2B00
100
AcDbEntity
  8
OBJECT
 62
     2
100
AcDbLine
 10
53.407758
 20
119.898546
 30
0.0
 11
53.407758
 21
120.613147
 31
0.0
  0
LINE
  5
2B01
100
AcDbEntity
  8
OBJECT
  6
CONTINUOUS
 62
     2
100
AcDbLine
 39
50.0
 10
54.291117
 20
121.594082
 30
0.0
 11
54.166119
 21
121.810633
 31
0.0
  0
LINE
  5
2B02
100
AcDbEntity
  8
OBJECT
  6
CONTINUOUS
 62
     2
100
AcDbLine
 39
50.0
 10
54.541117
 20
121.594082
 30
0.0
 11
54.291117
 21
121.594082
 31
0.0
  0
LINE
  5
2BEF
100
AcDbEntity
  8
OBJECT
100
AcDbLine
 10
57.532758
 20
95.957669
 30
0.0
 11
57.532758
 21
87.893251
 31
0.0
  0
LINE
  5
2BF0
100
AcDbEntity
  8
OBJECT
100
AcDbLine
 10
57.782758
 20
97.057694
 30
0.0
 11
57.782758
 21
88.023121
 31
0.0
  0
LINE
  5
2BF1
100
AcDbEntity
  8
OBJECT
100
AcDbLine
 10
51.282758
 20
62.960238
 30
0.0
 11
51.282758
 21
62.365865
 31
0.0
  0
LINE
  5
2BF2
100
AcDbEntity
  8
OBJECT
100
AcDbLine
 10
51.032758
 20
62.952794
 30
0.0
 11
51.032758
 21
62.373309
 31
0.0
  0
SPLINE
  5
2BF3
100
AcDbEntity
  8
OBJECT
100
AcDbSpline
210
0.0
220
0.0
230
-1.0
 70
     8
 71
     3
 72
    11
 73
     7
 74
     5
 42
0.0000001
 43
0.0000001
 44
0.0000000001
 40
0.0
 40
0.0
 40
0.0
 40
0.0
 40
3.625816857123416
 40
7.018466245028061
 40
11.05528947927524
 40
16.4034959113106
 40
16.4034959113106
 40
16.4034959113106
 40
16.4034959113106
 10
57.82799551428749
 20
120.2110455073318
 30
0.0
 10
56.92636985971939
 20
121.0507572433282
 30
0.0
 10
55.18109990494895
 20
122.6761808945715
 30
0.0
 10
51.32967553852509
 20
123.2788681060178
 30
0.0
 10
47.2328911854584
 20
121.9489650219932
 30
0.0
 10
44.31854403360146
 20
120.8325010055876
 30
0.0
 10
42.65775757506284
 20
120.1962664654743
 30
0.0
 11
57.82799551428749
 21
120.2110455073318
 31
0.0
 11
54.93634780359468
 21
122.3984918263635
 31
0.0
 11
51.5970958092447
 21
122.9980466507786
 31
0.0
 11
47.67086549955104
 21
122.0596131796148
 31
0.0
 11
42.65775757506284
 21
120.1962664654743
 31
0.0
  0
SPLINE
  5
2BF4
100
AcDbEntity
  8
OBJECT
100
AcDbSpline
210
0.0
220
0.0
230
-1.0
 70
     8
 71
     3
 72
    24
 73
    20
 74
     0
 42
0.0000001
 43
0.0000001
 40
0.0
 40
0.0
 40
0.0
 40
0.0
 40
0.8422428913437791
 40
0.8422428913437791
 40
2.526728674031337
 40
2.526728674031337
 40
3.881420031523687
 40
3.881420031523687
 40
5.236111389016038
 40
5.236111389016038
 40
6.850188571964799
 40
6.850188571964799
 40
10.07834293786232
 40
10.07834293786232
 40
11.7018951345008
 40
11.7018951345008
 40
13.32544733113929
 40
13.32544733113929
 40
16.4034959113106
 40
16.4034959113106
 40
16.4034959113106
 40
16.4034959113106
 10
57.46096518001047
 20
120.2110455073318
 30
0.0
 10
57.44817275223907
 20
120.2231561291391
 30
0.0
 10
57.23971071249305
 20
120.4172879547988
 30
0.0
 10
56.61043441353722
 20
120.9845207520348
 30
0.0
 10
56.18567853383525
 20
121.3422778758118
 30
0.0
 10
55.3792536265752
 20
121.893776546292
 30
0.0
 10
55.00622401115749
 20
122.1048915251397
 30
0.0
 10
54.20926583348229
 20
122.4352256380333
 30
0.0
 10
53.78631162037412
 20
122.5572743780539
 30
0.0
 10
52.83462373854116
 20
122.7343798754291
 30
0.0
 10
52.30118077344788
 20
122.7721002228339
 30
0.0
 10
50.72201593615588
 20
122.7219798709982
 30
0.0
 10
49.69789182347819
 20
122.4646674790376
 30
0.0
 10
48.16527856911529
 20
121.9712157328934
 30
0.0
 10
47.65279711528818
 20
121.7899925843028
 30
0.0
 10
46.63252665505131
 20
121.4258784077887
 30
0.0
 10
46.12466938659432
 20
121.2400815797535
 30
0.0
 10
44.65808073992572
 20
120.6948533977312
 30
0.0
 10
43.70302350018362
 20
120.3289826457781
 30
0.0
 10
42.65775757506284
 20
119.927764871105
 30
0.0
  0
SPLINE
  5
2BF5
100
AcDbEntity
  8
OBJECT
100
AcDbSpline
210
0.0
220
0.0
230
-1.0
 70
     8
 71
     3
 72
    10
 73
     6
 74
     4
 42
0.0000001
 43
0.0000001
 44
0.0000000001
 40
0.0
 40
0.0
 40
0.0
 40
0.0
 40
2.675918743772835
 40
5.758458221073144
 40
12.40775888879646
 40
12.40775888879646
 40
12.40775888879646
 40
12.40775888879646
 10
54.57662756232711
 20
120.2110455073319
 30
0.0
 10
53.80185232782502
 20
120.6891071075069
 30
0.0
 10
52.13457045352117
 20
121.7178744264376
 30
0.0
 10
47.83415740298454
 20
121.5278137574082
 30
0.0
 10
44.7589200780687
 20
120.5322403849888
 30
0.0
 10
42.65775757506284
 20
119.8520127413625
 30
0.0
 11
54.57662756232711
 21
120.2110455073319
 31
0.0
 11
52.18135562329303
 21
121.4040306125829
 31
0.0
 11
49.10023418130404
 21
121.4975201244577
 31
0.0
 11
42.65775757506284
 21
119.8520127413625
 31
0.0
  0
SPLINE
  5
2BF6
100
AcDbEntity
  8
OBJECT
100
AcDbSpline
210
0.0
220
0.0
230
-1.0
 70
     8
 71
     3
 72
    22
 73
    18
 74
     0
 42
0.0000001
 43
0.0000001
 40
0.0
 40
0.0
 40
0.0
 40
0.0
 40
0.7440571661415877
 40
0.7440571661415877
 40
2.232171498424762
 40
2.232171498424762
 40
3.375516643355415
 40
3.375516643355415
 40
4.518861788286068
 40
4.518861788286068
 40
6.007595180488779
 40
6.007595180488779
 40
7.49632857269149
 40
7.49632857269149
 40
10.47379535709691
 40
10.47379535709691
 40
12.16089021459799
 40
12.16089021459799
 40
12.16089021459799
 40
12.16089021459799
 10
54.0990009168306
 20
120.2110455073319
 30
0.0
 10
54.22991752732092
 20
120.1312158199902
 30
0.0
 10
54.01592976220488
 20
120.2632318066187
 30
0.0
 10
53.37403086130848
 20
120.6411783795993
 30
0.0
 10
52.94620545726616
 20
120.8686576641393
 30
0.0
 10
52.17218771156493
 20
121.1600148781057
 30
0.0
 10
51.8291398504173
 20
121.2459088178185
 30
0.0
 10
51.11227258261914
 20
121.3449941648768
 30
0.0
 10
50.74177225200997
 20
121.3598383778102
 30
0.0
 10
49.87604732163326
 20
121.3383998815661
 30
0.0
 10
49.37666038301781
 20
121.2856928832308
 30
0.0
 10
48.39110012423091
 20
121.1468659030457
 30
0.0
 10
47.90433227846261
 20
121.0585465088555
 30
0.0
 10
46.45718381894612
 20
120.7496886957067
 30
0.0
 10
45.50994304250362
 20
120.4851999969109
 30
0.0
 10
44.03386406529339
 20
120.0333492554588
 30
0.0
 10
43.5016158715467
 20
119.8622494474554
 30
0.0
 10
42.968732402227
 20
119.689889926388
 30
0.0
  0
LINE
  5
2BF7
100
AcDbEntity
  8
OBJECT
 62
     2
100
AcDbLine
 10
53.407758
 20
120.896848
 30
0.0
 11
53.407758
 21
122.627483
 31
0.0
  0
SPLINE
  5
2BF8
100
AcDbEntity
  8
OBJECT
100
AcDbSpline
210
0.0
220
0.0
230
-1.0
 70
     8
 71
     3
 72
     9
 73
     5
 74
     3
 42
0.0000001
 43
0.0000001
 44
0.0000000001
 40
0.0
 40
0.0
 40
0.0
 40
0.0
 40
2.002714120961123
 40
6.642652012882704
 40
6.642652012882704
 40
6.642652012882704
 40
6.642652012882704
 10
51.42095616950204
 20
120.2110455073318
 30
0.0
 10
50.79710924585553
 20
120.4812202320179
 30
0.0
 10
48.72791825163497
 20
121.3773424793134
 30
0.0
 10
46.49204097107592
 20
120.746831553251
 30
0.0
 10
44.93026538872831
 20
120.3064153563113
 30
0.0
 11
51.42095616950204
 21
120.2110455073318
 31
0.0
 11
49.53426392796439
 21
120.8828015910547
 31
0.0
 11
44.93026538872831
 21
120.3064153563113
 31
0.0
  0
SPLINE
  5
2BF9
100
AcDbEntity
  8
OBJECT
100
AcDbSpline
210
0.0
220
0.0
230
-1.0
 70
     8
 71
     3
 72
    14
 73
    10
 74
     0
 42
0.0000001
 43
0.0000001
 40
0.5791092046721391
 40
0.5791092046721391
 40
0.5791092046721391
 40
0.5791092046721391
 40
0.6932620136544951
 40
0.6932620136544951
 40
2.079786040963484
 40
2.079786040963484
 40
3.466310068272474
 40
3.466310068272474
 40
6.642652012882704
 40
6.642652012882704
 40
6.642652012882704
 40
6.642652012882704
 10
50.7838522139859
 20
120.2110455073311
 30
0.0
 10
50.74872485041209
 20
120.2255763697969
 30
0.0
 10
50.71363435073864
 20
120.239957532891
 30
0.0
 10
50.25278261745612
 20
120.4267153061955
 30
0.0
 10
49.83343385961527
 20
120.572549040175
 30
0.0
 10
48.99468710069992
 20
120.7308434632537
 30
0.0
 10
48.56538752860156
 20
120.7486975184648
 30
0.0
 10
47.12123210134979
 20
120.6621130951853
 30
0.0
 10
46.06725621997834
 20
120.3672933174248
 30
0.0
 10
43.22164465865564
 20
119.5580373024069
 30
0.0
  0
TEXT
  5
3A03
100
AcDbEntity
  8
PUMP
100
AcDbText
 10
49.120033
 20
54.055825
 30
0.0
 40
1.046574
  1
Your
  7
SCRIPTC
100
AcDbText
  0
TEXT
  5
3A04
100
AcDbEntity
  8
PUMP
100
AcDbText
 10
48.634805
 20
52.514551
 30
0.0
 40
1.046574
  1
Pump
  7
SCRIPTC
100
AcDbText
  0
LINE
  5
4E1C
100
AcDbEntity
  8
OBJECT
100
AcDbLine
 10
49.554504
 20
165.061013
 30
0.0
 11
58.929504
 21
165.061013
 31
0.0
  0
LINE
  5
4E1D
100
AcDbEntity
  8
OBJECT
100
AcDbLine
 10
49.554504
 20
165.373513
 30
0.0
 11
58.929504
 21
165.373513
 31
0.0
  0
ARC
  5
4E1E
100
AcDbEntity
  8
OBJECT
100
AcDbCircle
 10
51.117004
 20
164.279763
 30
0.0
 40
0.53125
100
AcDbArc
 50
298.072396
 51
194.97067
  0
LINE
  5
4E1F
100
AcDbEntity
  8
OBJECT
100
AcDbLine
 10
50.867003
 20
163.498513
 30
0.0
 11
50.867003
 21
163.811014
 31
0.0
  0
LINE
  5
4E20
100
AcDbEntity
  8
OBJECT
100
AcDbLine
 10
50.007865
 20
163.498513
 30
0.0
 11
50.867003
 21
163.498513
 31
0.0
  0
LINE
  5
4E22
100
AcDbEntity
  8
OBJECT
100
AcDbLine
 10
49.554504
 20
165.373513
 30
0.0
 11
49.554504
 21
163.512001
 31
0.0
  0
LINE
  5
4E24
100
AcDbEntity
  8
OBJECT
100
AcDbLine
 10
51.367003
 20
163.518719
 30
0.0
 11
51.367003
 21
163.811013
 31
0.0
  0
LINE
  5
4E25
100
AcDbEntity
  8
OBJECT
100
AcDbLine
 10
52.000708
 20
163.498513
 30
0.0
 11
53.992003
 21
163.498513
 31
0.0
  0
ARC
  5
4E26
100
AcDbEntity
  8
OBJECT
100
AcDbCircle
 10
57.367004
 20
164.279763
 30
0.0
 40
0.53125
100
AcDbArc
 50
298.072396
 51
178.700106
  0
LINE
  5
4E28
100
AcDbEntity
  8
OBJECT
100
AcDbLine
 10
55.407758
 20
167.377519
 30
0.0
 11
52.907758
 21
167.377519
 31
0.0
  0
LINE
  5
4E29
100
AcDbEntity
  8
OBJECT
100
AcDbLine
 10
52.907758
 20
165.373513
 30
0.0
 11
52.907758
 21
167.624738
 31
0.0
  0
LINE
  5
4E2A
100
AcDbEntity
  8
OBJECT
100
AcDbLine
 10
55.407758
 20
165.373513
 30
0.0
 11
55.407758
 21
167.624738
 31
0.0
  0
ARC
  5
4E2B
100
AcDbEntity
  8
OBJECT
100
AcDbCircle
 10
54.242004
 20
164.279763
 30
0.0
 40
0.53125
100
AcDbArc
 50
298.072396
 51
179.193827
  0
LINE
  5
4E2D
100
AcDbEntity
  8
OBJECT
100
AcDbLine
 10
53.992003
 20
163.498513
 30
0.0
 11
53.992003
 21
163.811014
 31
0.0
  0
LINE
  5
4E2E
100
AcDbEntity
  8
OBJECT
100
AcDbLine
 10
54.492003
 20
163.63152
 30
0.0
 11
54.492003
 21
163.811013
 31
0.0
  0
LINE
  5
4E30
100
AcDbEntity
  8
OBJECT
100
AcDbLine
 10
54.887488
 20
163.498513
 30
0.0
 11
57.117003
 21
163.498513
 31
0.0
  0
LINE
  5
4E31
100
AcDbEntity
  8
OBJECT
100
AcDbLine
 10
57.617003
 20
163.498513
 30
0.0
 11
58.929504
 21
163.498513
 31
0.0
  0
LINE
  5
4E32
100
AcDbEntity
  8
OBJECT
100
AcDbLine
 10
57.117003
 20
163.498513
 30
0.0
 11
57.117003
 21
163.811014
 31
0.0
  0
LINE
  5
4E33
100
AcDbEntity
  8
OBJECT
100
AcDbLine
 10
57.617003
 20
163.498513
 30
0.0
 11
57.617003
 21
163.811013
 31
0.0
  0
LINE
  5
4E36
100
AcDbEntity
  8
OBJECT
100
AcDbLine
 10
58.929504
 20
165.373513
 30
0.0
 11
58.929504
 21
163.498513
 31
0.0
  0
ARC
  5
4E38
100
AcDbEntity
  8
OBJECT
100
AcDbCircle
 10
62.354785
 20
140.210804
 30
0.0
 40
24.705329
100
AcDbArc
 50
101.705368
 51
141.203684
  0
ARC
  5
4E39
100
AcDbEntity
  8
OBJECT
100
AcDbCircle
 10
62.35019
 20
140.217316
 30
0.0
 40
24.448028
100
AcDbArc
 50
101.702454
 51
141.942529
  0
ARC
  5
4E3B
100
AcDbEntity
  8
OBJECT
100
AcDbCircle
 10
57.367004
 20
164.279763
 30
0.0
 40
0.125
100
AcDbArc
 50
281.26198
 51
101.26198
  0
ARC
  5
4E3C
100
AcDbEntity
  8
OBJECT
100
AcDbCircle
 10
57.504876
 20
148.757915
 30
0.0
 40
15.986083
100
AcDbArc
 50
101.86722
 51
154.301612
  0
ARC
  5
4E3D
100
AcDbEntity
  8
OBJECT
100
AcDbCircle
 10
57.521554
 20
148.733583
 30
0.0
 40
15.763341
100
AcDbArc
 50
101.916748
 51
150.159324
  0
ARC
  5
4E3F
100
AcDbEntity
  8
OBJECT
100
AcDbCircle
 10
54.242004
 20
164.279763
 30
0.0
 40
0.125
100
AcDbArc
 50
281.338303
 51
101.338303
  0
ARC
  5
4E40
100
AcDbEntity
  8
OBJECT
100
AcDbCircle
 10
60.931203
 20
145.83608
 30
0.0
 40
20.767302
100
AcDbArc
 50
118.014184
 51
149.161947
  0
ARC
  5
4E41
100
AcDbEntity
  8
OBJECT
100
AcDbCircle
 10
60.67512
 20
146.194167
 30
0.0
 40
20.580949
100
AcDbArc
 50
117.861194
 51
148.644087
  0
ARC
  5
4E43
100
AcDbEntity
  8
OBJECT
100
AcDbCircle
 10
51.117004
 20
164.279763
 30
0.0
 40
0.125
100
AcDbArc
 50
298.686464
 51
118.686464
  0
ARC
  5
4E44
100
AcDbEntity
  8
OBJECT
100
AcDbCircle
 10
51.117004
 20
164.279763
 30
0.0
 40
0.53125
100
AcDbArc
 50
222.335308
 51
241.927423
  0
ARC
  5
4E45
100
AcDbEntity
  8
OBJECT
100
AcDbCircle
 10
54.242004
 20
164.279763
 30
0.0
 40
0.53125
100
AcDbArc
 50
206.45333
 51
241.927423
  0
ARC
  5
4E46
100
AcDbEntity
  8
OBJECT
100
AcDbCircle
 10
57.367004
 20
164.279763
 30
0.0
 40
0.53125
100
AcDbArc
 50
205.911502
 51
241.927423
  0
ENDSEC
  0
SECTION
  2
OBJECTS
  0
DICTIONARY
  5
C
100
AcDbDictionary
  3
ACAD_GROUP
350
D
  3
ACAD_MLINESTYLE
350
1A
  3
ACDBVARIABLEDICTIONARY
350
3E
  3
DRAWINGVARIABLESDICT
350
14BC
  0
DICTIONARY
  5
D
102
{ACAD_REACTORS
330
C
102
}
100
AcDbDictionary
  0
DICTIONARY
  5
1A
102
{ACAD_REACTORS
330
C
102
}
100
AcDbDictionary
  3
STANDARD
350
1B
  0
DICTIONARY
  5
3E
102
{ACAD_REACTORS
330
C
102
}
100
AcDbDictionary
  3
DIMADEC
350
3F
  0
DICTIONARY
  5
14BC
102
{ACAD_REACTORS
330
C
102
}
100
AcDbDictionary
1001
DRAWINGVARIABLESXDATA
1000
POLARANG
1000
0.785398
1000
POLARMODE
1000
0
  0
MLINESTYLE
  5
1B
102
{ACAD_REACTORS
330
1A
102
}
100
AcDbMlineStyle
  2
STANDARD
 70
     0
  3

 62
   256
 51
90.0
 52
90.0
 71
     2
 49
0.5
 62
   256
  6
BYLAYER
 49
-0.5
 62
   256
  6
BYLAYER
  0
DICTIONARYVAR
  5
3F
102
{ACAD_REACTORS
330
3E
102
}
100
DictionaryVariables
280
     0
  1
0
  0
ENDSEC
  0
EOF
