  0
SECTION
  2
HEADER
  9
$ACADVER
  1
AC1014
  9
$ACADMAINTVER
 70
     0
  9
$DWGCODEPAGE
  3
ANSI_1252
  9
$INSBASE
 10
0.0
 20
0.0
 30
0.0
  9
$EXTMIN
 10
24.149217
 20
-1.513458
 30
0.0
  9
$EXTMAX
 10
206.781221
 20
234.833841
 30
20.0
  9
$LIMMIN
 10
-85.513509
 20
-2.660909
  9
$LIMMAX
 10
57.923991
 20
182.964091
  9
$ORTHOMODE
 70
     1
  9
$REGENMODE
 70
     1
  9
$FILLMODE
 70
     1
  9
$QTEXTMODE
 70
     0
  9
$MIRRTEXT
 70
     1
  9
$DRAGMODE
 70
     2
  9
$LTSCALE
 40
3.0
  9
$OSMODE
 70
   675
  9
$ATTMODE
 70
     1
  9
$TEXTSIZE
 40
1.35
  9
$TRACEWID
 40
0.05
  9
$TEXTSTYLE
  7
ROMAND
  9
$CLAYER
  8
DIM
  9
$CELTYPE
  6
BYLAYER
  9
$CECOLOR
 62
   256
  9
$CELTSCALE
 40
1.0
  9
$DELOBJ
 70
     1
  9
$DISPSILH
 70
     0
  9
$DIMSCALE
 40
1.0
  9
$DIMASZ
 40
1.25
  9
$DIMEXO
 40
0.25
  9
$DIMDLI
 40
0.38
  9
$DIMRND
 40
0.0
  9
$DIMDLE
 40
0.0
  9
$DIMEXE
 40
1.35
  9
$DIMTP
 40
0.0
  9
$DIMTM
 40
0.0
  9
$DIMTXT
 40
0.18
  9
$DIMCEN
 40
0.09
  9
$DIMTSZ
 40
0.0
  9
$DIMTOL
 70
     0
  9
$DIMLIM
 70
     0
  9
$DIMTIH
 70
     1
  9
$DIMTOH
 70
     1
  9
$DIMSE1
 70
     0
  9
$DIMSE2
 70
     0
  9
$DIMTAD
 70
     0
  9
$DIMZIN
 70
     0
  9
$DIMBLK
  1

  9
$DIMASO
 70
     1
  9
$DIMSHO
 70
     1
  9
$DIMPOST
  1

  9
$DIMAPOST
  1

  9
$DIMALT
 70
     0
  9
$DIMALTD
 70
     2
  9
$DIMALTF
 40
25.4
  9
$DIMLFAC
 40
1.0
  9
$DIMTOFL
 70
     0
  9
$DIMTVP
 40
0.0
  9
$DIMTIX
 70
     0
  9
$DIMSOXD
 70
     0
  9
$DIMSAH
 70
     0
  9
$DIMBLK1
  1

  9
$DIMBLK2
  1

  9
$DIMSTYLE
  2
STANDARD
  9
$DIMCLRD
 70
     0
  9
$DIMCLRE
 70
     0
  9
$DIMCLRT
 70
     0
  9
$DIMTFAC
 40
1.0
  9
$DIMGAP
 40
1.2
  9
$DIMJUST
 70
     0
  9
$DIMSD1
 70
     0
  9
$DIMSD2
 70
     0
  9
$DIMTOLJ
 70
     1
  9
$DIMTZIN
 70
     0
  9
$DIMALTZ
 70
     0
  9
$DIMALTTZ
 70
     0
  9
$DIMFIT
 70
     0
  9
$DIMUPT
 70
     0
  9
$DIMUNIT
 70
     7
  9
$DIMDEC
 70
     4
  9
$DIMTDEC
 70
     4
  9
$DIMALTU
 70
     2
  9
$DIMALTTD
 70
     2
  9
$DIMTXSTY
  7
ROMAND
  9
$DIMAUNIT
 70
     0
  9
$LUNITS
 70
     2
  9
$LUPREC
 70
     4
  9
$SKETCHINC
 40
0.1
  9
$FILLETRAD
 40
0.0
  9
$AUNITS
 70
     0
  9
$AUPREC
 70
     0
  9
$MENU
  1
acad
  9
$ELEVATION
 40
0.0
  9
$PELEVATION
 40
0.0
  9
$THICKNESS
 40
0.0
  9
$LIMCHECK
 70
     0
  9
$BLIPMODE
 70
     0
  9
$CHAMFERA
 40
0.0
  9
$CHAMFERB
 40
0.0
  9
$CHAMFERC
 40
0.0
  9
$CHAMFERD
 40
0.0
  9
$SKPOLY
 70
     0
  9
$TDCREATE
 40
2450283.690284954
  9
$TDUPDATE
 40
2453110.464044259
  9
$TDINDWG
 40
0.1870256134
  9
$TDUSRTIMER
 40
0.1870256134
  9
$USRTIMER
 70
     1
  9
$ANGBASE
 50
0.0
  9
$ANGDIR
 70
     0
  9
$PDMODE
 70
    34
  9
$PDSIZE
 40
0.0
  9
$PLINEWID
 40
0.0
  9
$COORDS
 70
     1
  9
$SPLFRAME
 70
     0
  9
$SPLINETYPE
 70
     6
  9
$SPLINESEGS
 70
     8
  9
$ATTDIA
 70
     0
  9
$ATTREQ
 70
     1
  9
$HANDLING
 70
     1
  9
$HANDSEED
  5
2737
  9
$SURFTAB1
 70
     6
  9
$SURFTAB2
 70
     6
  9
$SURFTYPE
 70
     6
  9
$SURFU
 70
     6
  9
$SURFV
 70
     6
  9
$UCSNAME
  2

  9
$UCSORG
 10
163.4164420131816
 20
134.7967677170076
 30
0.0
  9
$UCSXDIR
 10
1.0
 20
0.0
 30
0.0
  9
$UCSYDIR
 10
0.0
 20
1.0
 30
0.0
  9
$PUCSNAME
  2

  9
$PUCSORG
 10
0.0
 20
0.0
 30
0.0
  9
$PUCSXDIR
 10
1.0
 20
0.0
 30
0.0
  9
$PUCSYDIR
 10
0.0
 20
1.0
 30
0.0
  9
$USERI1
 70
     0
  9
$USERI2
 70
     0
  9
$USERI3
 70
     0
  9
$USERI4
 70
     0
  9
$USERI5
 70
     0
  9
$USERR1
 40
0.0
  9
$USERR2
 40
0.0
  9
$USERR3
 40
0.0
  9
$USERR4
 40
0.0
  9
$USERR5
 40
0.0
  9
$WORLDVIEW
 70
     1
  9
$SHADEDGE
 70
     3
  9
$SHADEDIF
 70
    70
  9
$TILEMODE
 70
     1
  9
$MAXACTVP
 70
    16
  9
$PINSBASE
 10
0.0
 20
0.0
 30
0.0
  9
$PLIMCHECK
 70
     0
  9
$PEXTMIN
 10
1.000000E+20
 20
1.000000E+20
 30
1.000000E+20
  9
$PEXTMAX
 10
-1.000000E+20
 20
-1.000000E+20
 30
-1.000000E+20
  9
$PLIMMIN
 10
0.0
 20
0.0
  9
$PLIMMAX
 10
12.0
 20
9.0
  9
$UNITMODE
 70
     0
  9
$VISRETAIN
 70
     0
  9
$PLINEGEN
 70
     0
  9
$PSLTSCALE
 70
     1
  9
$TREEDEPTH
 70
  3020
  9
$PICKSTYLE
 70
     1
  9
$CMLSTYLE
  2
STANDARD
  9
$CMLJUST
 70
     0
  9
$CMLSCALE
 40
1.0
  9
$PROXYGRAPHICS
 70
     1
  9
$MEASUREMENT
 70
     0
  0
ENDSEC
  0
SECTION
  2
CLASSES
  0
CLASS
  1
DICTIONARYVAR
  2
AcDbDictionaryVar
  3
"AutoCAD"
 90
        0
280
     0
281
     0
  0
CLASS
  1
LWPOLYLINE
  2
AcDbPolyline
  3
"AutoCAD"
 90
        0
280
     0
281
     1
  0
CLASS
  1
HATCH
  2
AcDbHatch
  3
"ACAD_SEDONA"
 90
        0
280
     0
281
     1
  0
ENDSEC
  0
SECTION
  2
TABLES
  0
TABLE
  2
VPORT
  5
8
100
AcDbSymbolTable
 70
     1
  0
VPORT
  5
272F
100
AcDbSymbolTableRecord
100
AcDbViewportTableRecord
  2
*ACTIVE
 70
     0
 10
0.0
 20
0.0
 11
1.0
 21
1.0
 12
115.465323
 22
116.66087
 13
0.0
 23
0.0
 14
1.0
 24
1.0
 15
0.0
 25
0.0
 16
0.0
 26
0.0
 36
1.0
 17
0.0
 27
0.0
 37
0.0
 40
238.948892
 41
1.750909
 42
50.0
 43
0.0
 44
0.0
 50
0.0
 51
0.0
 71
     0
 72
   100
 73
     1
 74
     0
 75
     0
 76
     0
 77
     0
 78
     0
  0
ENDTAB
  0
TABLE
  2
LTYPE
  5
5
100
AcDbSymbolTable
 70
     4
  0
LTYPE
  5
11
100
AcDbSymbolTableRecord
100
AcDbLinetypeTableRecord
  2
BYBLOCK
 70
     0
  3

 72
    65
 73
     0
 40
0.0
  0
LTYPE
  5
12
100
AcDbSymbolTableRecord
100
AcDbLinetypeTableRecord
  2
BYLAYER
 70
     0
  3

 72
    65
 73
     0
 40
0.0
  0
LTYPE
  5
13
100
AcDbSymbolTableRecord
100
AcDbLinetypeTableRecord
  2
CONTINUOUS
 70
     0
  3
Solid line
 72
    65
 73
     0
 40
0.0
  0
LTYPE
  5
35
100
AcDbSymbolTableRecord
100
AcDbLinetypeTableRecord
  2
HIDDEN
 70
     0
  3
__ __ __ __ __ __ __ __ __ __ __ __ __ __ __ __
 72
    65
 73
     2
 40
0.375
 49
0.25
 74
     0
 49
-0.125
 74
     0
  0
LTYPE
  5
36
100
AcDbSymbolTableRecord
100
AcDbLinetypeTableRecord
  2
CENTER
 70
     0
  3
____ _ ____ _ ____ _ ____ _ ____ _ ____ _ ____ 
 72
    65
 73
     4
 40
2.0
 49
1.25
 74
     0
 49
-0.25
 74
     0
 49
0.25
 74
     0
 49
-0.25
 74
     0
  0
LTYPE
  5
21E8
100
AcDbSymbolTableRecord
100
AcDbLinetypeTableRecord
  2
PHANTOM
 70
     0
  3
______  __  __  ______  __  __  ______  __  __ 
 72
    65
 73
     6
 40
2.5
 49
1.25
 74
     0
 49
-0.25
 74
     0
 49
0.25
 74
     0
 49
-0.25
 74
     0
 49
0.25
 74
     0
 49
-0.25
 74
     0
  0
ENDTAB
  0
TABLE
  2
LAYER
  5
2
100
AcDbSymbolTable
 70
     9
  0
LAYER
  5
E
100
AcDbSymbolTableRecord
100
AcDbLayerTableRecord
  2
0
 70
     0
 62
     7
  6
CONTINUOUS
  0
LAYER
  5
39
100
AcDbSymbolTableRecord
100
AcDbLayerTableRecord
  2
BORDER
 70
     0
 62
     5
  6
CONTINUOUS
  0
LAYER
  5
3A
100
AcDbSymbolTableRecord
100
AcDbLayerTableRecord
  2
LIMITS
 70
     0
 62
     7
  6
CONTINUOUS
  0
LAYER
  5
3B
100
AcDbSymbolTableRecord
100
AcDbLayerTableRecord
  2
DIM
 70
     0
 62
     6
  6
CONTINUOUS
  0
LAYER
  5
3C
100
AcDbSymbolTableRecord
100
AcDbLayerTableRecord
  2
HIDDEN
 70
     0
 62
     1
  6
HIDDEN
  0
LAYER
  5
3D
100
AcDbSymbolTableRecord
100
AcDbLayerTableRecord
  2
CENTER
 70
     0
 62
     3
  6
CENTER
  0
LAYER
  5
3E
100
AcDbSymbolTableRecord
100
AcDbLayerTableRecord
  2
OBJECT
 70
     0
 62
     2
  6
CONTINUOUS
  0
LAYER
  5
3F
100
AcDbSymbolTableRecord
100
AcDbLayerTableRecord
  2
15
 70
     0
 62
     4
  6
CONTINUOUS
  0
LAYER
  5
40
100
AcDbSymbolTableRecord
100
AcDbLayerTableRecord
  2
DEFPOINTS
 70
     0
 62
     7
  6
CONTINUOUS
  0
ENDTAB
  0
TABLE
  2
STYLE
  5
3
100
AcDbSymbolTable
 70
     5
  0
STYLE
  5
F
100
AcDbSymbolTableRecord
100
AcDbTextStyleTableRecord
  2
STANDARD
 70
     0
 40
0.0
 41
1.0
 50
0.0
 71
     0
 42
0.2
  3
txt
  4

  0
STYLE
  5
2F
100
AcDbSymbolTableRecord
100
AcDbTextStyleTableRecord
  2
ROMAND
 70
     0
 40
1.35
 41
1.0
 50
0.0
 71
     0
 42
1.35
  3
romand
  4

  0
STYLE
  5
30
100
AcDbSymbolTableRecord
100
AcDbTextStyleTableRecord
  2
ROMANS
 70
     0
 40
0.040706
 41
1.0
 50
0.0
 71
     0
 42
0.040706
  3
romans
  4

  0
STYLE
  5
33
100
AcDbSymbolTableRecord
100
AcDbTextStyleTableRecord
  2
COUNTRYBLUEPRINT
 70
     0
 40
0.061059
 41
1.0
 50
0.0
 71
     0
 42
0.061059
  3
cobt____.pfb
  4

  0
STYLE
  5
34
100
AcDbSymbolTableRecord
100
AcDbTextStyleTableRecord
  2
ROMANC
 70
     0
 40
0.050364
 41
1.0
 50
0.0
 71
     0
 42
0.050364
  3
romanc
  4

  0
ENDTAB
  0
TABLE
  2
VIEW
  5
6
100
AcDbSymbolTable
 70
     0
  0
ENDTAB
  0
TABLE
  2
UCS
  5
7
100
AcDbSymbolTable
 70
     0
  0
ENDTAB
  0
TABLE
  2
APPID
  5
9
100
AcDbSymbolTable
 70
     1
  0
APPID
  5
10
100
AcDbSymbolTableRecord
100
AcDbRegAppTableRecord
  2
ACAD
 70
     0
  0
ENDTAB
  0
TABLE
  2
DIMSTYLE
  5
A
100
AcDbSymbolTable
 70
     1
  0
DIMSTYLE
105
14AF
102
{ACAD_REACTORS
330
264C
330
2712
330
2720
102
}
100
AcDbSymbolTableRecord
100
AcDbDimStyleTableRecord
  2
STANDARD
 70
     0
  3

  4

  5

  6

  7

 40
1.0
 41
0.18
 42
0.0625
 43
0.38
 44
0.18
 45
0.0
 46
0.0
 47
0.0
 48
0.0
140
0.18
141
0.09
142
0.0
143
25.4
144
1.0
145
0.0
146
1.0
147
0.09
 71
     0
 72
     0
 73
     1
 74
     1
 75
     0
 76
     0
 77
     0
 78
     0
170
     0
171
     2
172
     0
173
     0
174
     0
175
     0
176
     0
177
     0
178
     0
270
     2
271
     4
272
     4
273
     2
274
     2
340
F
275
     0
280
     0
281
     0
282
     0
283
     1
284
     0
285
     0
286
     0
287
     3
288
     0
  0
ENDTAB
  0
TABLE
  2
BLOCK_RECORD
  5
1
100
AcDbSymbolTable
 70
    25
  0
BLOCK_RECORD
  5
17
100
AcDbSymbolTableRecord
100
AcDbBlockTableRecord
  2
*MODEL_SPACE
  0
BLOCK_RECORD
  5
14
100
AcDbSymbolTableRecord
100
AcDbBlockTableRecord
  2
*PAPER_SPACE
  0
BLOCK_RECORD
  5
20
100
AcDbSymbolTableRecord
100
AcDbBlockTableRecord
  2
*D0
  0
BLOCK_RECORD
  5
25
100
AcDbSymbolTableRecord
100
AcDbBlockTableRecord
  2
*D1
  0
BLOCK_RECORD
  5
29
100
AcDbSymbolTableRecord
100
AcDbBlockTableRecord
  2
*D2
  0
BLOCK_RECORD
  5
217F
100
AcDbSymbolTableRecord
100
AcDbBlockTableRecord
  2
*U3
  0
BLOCK_RECORD
  5
2183
100
AcDbSymbolTableRecord
100
AcDbBlockTableRecord
  2
*U4
  0
BLOCK_RECORD
  5
218B
100
AcDbSymbolTableRecord
100
AcDbBlockTableRecord
  2
*U5
  0
BLOCK_RECORD
  5
2193
100
AcDbSymbolTableRecord
100
AcDbBlockTableRecord
  2
*U6
  0
BLOCK_RECORD
  5
2197
100
AcDbSymbolTableRecord
100
AcDbBlockTableRecord
  2
*U7
  0
BLOCK_RECORD
  5
219F
100
AcDbSymbolTableRecord
100
AcDbBlockTableRecord
  2
*U8
  0
BLOCK_RECORD
  5
21A3
100
AcDbSymbolTableRecord
100
AcDbBlockTableRecord
  2
*U9
  0
BLOCK_RECORD
  5
21A7
100
AcDbSymbolTableRecord
100
AcDbBlockTableRecord
  2
*U10
  0
BLOCK_RECORD
  5
21AB
100
AcDbSymbolTableRecord
100
AcDbBlockTableRecord
  2
*U11
  0
BLOCK_RECORD
  5
21AF
100
AcDbSymbolTableRecord
100
AcDbBlockTableRecord
  2
*U12
  0
BLOCK_RECORD
  5
21B3
100
AcDbSymbolTableRecord
100
AcDbBlockTableRecord
  2
*U13
  0
BLOCK_RECORD
  5
21B7
100
AcDbSymbolTableRecord
100
AcDbBlockTableRecord
  2
*U14
  0
BLOCK_RECORD
  5
21BB
100
AcDbSymbolTableRecord
100
AcDbBlockTableRecord
  2
*U15
  0
BLOCK_RECORD
  5
21BF
100
AcDbSymbolTableRecord
100
AcDbBlockTableRecord
  2
*D16
  0
BLOCK_RECORD
  5
21CC
100
AcDbSymbolTableRecord
100
AcDbBlockTableRecord
  2
*D17
  0
BLOCK_RECORD
  5
21D9
100
AcDbSymbolTableRecord
100
AcDbBlockTableRecord
  2
*D18
  0
BLOCK_RECORD
  5
21E9
100
AcDbSymbolTableRecord
100
AcDbBlockTableRecord
  2
A$C0D455053
  0
BLOCK_RECORD
  5
2604
100
AcDbSymbolTableRecord
100
AcDbBlockTableRecord
  2
*D20
  0
BLOCK_RECORD
  5
263F
100
AcDbSymbolTableRecord
100
AcDbBlockTableRecord
  2
*D21
  0
BLOCK_RECORD
  5
2696
100
AcDbSymbolTableRecord
100
AcDbBlockTableRecord
  2
*D22
  0
BLOCK_RECORD
  5
2705
100
AcDbSymbolTableRecord
100
AcDbBlockTableRecord
  2
*D23
  0
BLOCK_RECORD
  5
2713
100
AcDbSymbolTableRecord
100
AcDbBlockTableRecord
  2
*D24
  0
ENDTAB
  0
ENDSEC
  0
SECTION
  2
BLOCKS
  0
BLOCK
  5
43
100
AcDbEntity
  8
0
100
AcDbBlockBegin
  2
*MODEL_SPACE
 70
     0
 10
0.0
 20
0.0
 30
0.0
  3
*MODEL_SPACE
  1

  0
ENDBLK
  5
44
100
AcDbEntity
  8
0
100
AcDbBlockEnd
  0
BLOCK
  5
41
100
AcDbEntity
 67
     1
  8
0
100
AcDbBlockBegin
  2
*PAPER_SPACE
 70
     0
 10
0.0
 20
0.0
 30
0.0
  3
*PAPER_SPACE
  1

  0
ENDBLK
  5
42
100
AcDbEntity
 67
     1
  8
0
100
AcDbBlockEnd
  0
BLOCK
  5
E54
100
AcDbEntity
  8
0
100
AcDbBlockBegin
  2
*D0
 70
     1
 10
0.0
 20
0.0
 30
0.0
  3
*D0
  1

  0
LINE
  5
E55
100
AcDbEntity
  8
0
  6
BYBLOCK
 62
     0
100
AcDbLine
 10
-31.959204
 20
85.867713
 30
0.0
 11
-31.959204
 21
79.815254
 31
0.0
  0
LINE
  5
E56
100
AcDbEntity
  8
0
  6
BYBLOCK
 62
     0
100
AcDbLine
 10
8.040796
 20
85.867713
 30
0.0
 11
8.040796
 21
79.815254
 31
0.0
  0
LINE
  5
E57
100
AcDbEntity
  8
0
  6
BYBLOCK
 62
     0
100
AcDbLine
 10
-30.709204
 20
81.165254
 30
0.0
 11
-14.79849
 21
81.165254
 31
0.0
  0
LINE
  5
E58
100
AcDbEntity
  8
0
  6
BYBLOCK
 62
     0
100
AcDbLine
 10
6.790796
 20
81.165254
 30
0.0
 11
-9.119918
 21
81.165254
 31
0.0
  0
SOLID
  5
E59
100
AcDbEntity
  8
0
  6
BYBLOCK
 62
     0
100
AcDbTrace
 10
-30.709204
 20
81.373588
 30
0.0
 11
-30.709204
 21
80.956921
 31
0.0
 12
-31.959204
 22
81.165254
 32
0.0
 13
-31.959204
 23
81.165254
 33
0.0
  0
SOLID
  5
E5A
100
AcDbEntity
  8
0
  6
BYBLOCK
 62
     0
100
AcDbTrace
 10
6.790796
 20
81.373588
 30
0.0
 11
6.790796
 21
80.956921
 31
0.0
 12
8.040796
 22
81.165254
 32
0.0
 13
8.040796
 23
81.165254
 33
0.0
  0
TEXT
  5
E5B
100
AcDbEntity
  8
0
  6
BYBLOCK
 62
     0
100
AcDbText
 10
-13.791347
 20
80.490254
 30
0.0
 40
1.35
  1
40"
  7
ROMAND
 72
     1
 11
-11.959204
 21
81.165254
 31
0.0
100
AcDbText
 73
     2
  0
POINT
  5
E5C
100
AcDbEntity
  8
DEFPOINTS
  6
BYBLOCK
 62
     0
100
AcDbPoint
 10
-31.959204
 20
86.117713
 30
0.0
  0
POINT
  5
E5D
100
AcDbEntity
  8
DEFPOINTS
  6
BYBLOCK
 62
     0
100
AcDbPoint
 10
8.040796
 20
86.117713
 30
0.0
  0
POINT
  5
E5E
100
AcDbEntity
  8
DEFPOINTS
  6
BYBLOCK
 62
     0
100
AcDbPoint
 10
8.040796
 20
81.165254
 30
0.0
  0
ENDBLK
  5
E5F
100
AcDbEntity
  8
0
100
AcDbBlockEnd
  0
BLOCK
  5
E78
100
AcDbEntity
  8
0
100
AcDbBlockBegin
  2
*D1
 70
     1
 10
0.0
 20
0.0
 30
0.0
  3
*D1
  1

  0
LINE
  5
E79
100
AcDbEntity
  8
0
  6
BYBLOCK
 62
     0
100
AcDbLine
 10
-32.209204
 20
137.282065
 30
0.0
 11
-43.910598
 21
137.282065
 31
0.0
  0
LINE
  5
E7A
100
AcDbEntity
  8
0
  6
BYBLOCK
 62
     0
100
AcDbLine
 10
-32.209204
 20
167.282065
 30
0.0
 11
-43.910598
 21
167.282065
 31
0.0
  0
LINE
  5
E7B
100
AcDbEntity
  8
0
  6
BYBLOCK
 62
     0
100
AcDbLine
 10
-42.560598
 20
138.532065
 30
0.0
 11
-42.560598
 21
150.992065
 31
0.0
  0
LINE
  5
E7C
100
AcDbEntity
  8
0
  6
BYBLOCK
 62
     0
100
AcDbLine
 10
-42.560598
 20
166.032065
 30
0.0
 11
-42.560598
 21
153.572065
 31
0.0
  0
SOLID
  5
E7D
100
AcDbEntity
  8
0
  6
BYBLOCK
 62
     0
100
AcDbTrace
 10
-42.768931
 20
138.532065
 30
0.0
 11
-42.352264
 21
138.532065
 31
0.0
 12
-42.560598
 22
137.282065
 32
0.0
 13
-42.560598
 23
137.282065
 33
0.0
  0
SOLID
  5
E7E
100
AcDbEntity
  8
0
  6
BYBLOCK
 62
     0
100
AcDbTrace
 10
-42.768931
 20
166.032065
 30
0.0
 11
-42.352264
 21
166.032065
 31
0.0
 12
-42.560598
 22
167.282065
 32
0.0
 13
-42.560598
 23
167.282065
 33
0.0
  0
TEXT
  5
E7F
100
AcDbEntity
  8
0
  6
BYBLOCK
 62
     0
100
AcDbText
 10
-44.39274
 20
151.607065
 30
0.0
 40
1.35
  1
30"
  7
ROMAND
 72
     1
 11
-42.560598
 21
152.282065
 31
0.0
100
AcDbText
 73
     2
  0
POINT
  5
E80
100
AcDbEntity
  8
DEFPOINTS
  6
BYBLOCK
 62
     0
100
AcDbPoint
 10
-31.959204
 20
137.282065
 30
0.0
  0
POINT
  5
E81
100
AcDbEntity
  8
DEFPOINTS
  6
BYBLOCK
 62
     0
100
AcDbPoint
 10
-31.959204
 20
167.282065
 30
0.0
  0
POINT
  5
E82
100
AcDbEntity
  8
DEFPOINTS
  6
BYBLOCK
 62
     0
100
AcDbPoint
 10
-42.560598
 20
167.282065
 30
0.0
  0
ENDBLK
  5
E83
100
AcDbEntity
  8
0
100
AcDbBlockEnd
  0
BLOCK
  5
E9C
100
AcDbEntity
  8
0
100
AcDbBlockBegin
  2
*D2
 70
     1
 10
0.0
 20
0.0
 30
0.0
  3
*D2
  1

  0
LINE
  5
E9D
100
AcDbEntity
  8
0
  6
BYBLOCK
 62
     0
100
AcDbLine
 10
-2.657688
 20
33.819345
 30
0.0
 11
-14.03366
 21
33.819345
 31
0.0
  0
LINE
  5
E9E
100
AcDbEntity
  8
0
  6
BYBLOCK
 62
     0
100
AcDbLine
 10
-2.657688
 20
66.319345
 30
0.0
 11
-14.03366
 21
66.319345
 31
0.0
  0
LINE
  5
E9F
100
AcDbEntity
  8
0
  6
BYBLOCK
 62
     0
100
AcDbLine
 10
-12.68366
 20
35.069345
 30
0.0
 11
-12.68366
 21
48.779345
 31
0.0
  0
LINE
  5
EA0
100
AcDbEntity
  8
0
  6
BYBLOCK
 62
     0
100
AcDbLine
 10
-12.68366
 20
65.069345
 30
0.0
 11
-12.68366
 21
51.359345
 31
0.0
  0
SOLID
  5
EA1
100
AcDbEntity
  8
0
  6
BYBLOCK
 62
     0
100
AcDbTrace
 10
-12.891994
 20
35.069345
 30
0.0
 11
-12.475327
 21
35.069345
 31
0.0
 12
-12.68366
 22
33.819345
 32
0.0
 13
-12.68366
 23
33.819345
 33
0.0
  0
SOLID
  5
EA2
100
AcDbEntity
  8
0
  6
BYBLOCK
 62
     0
100
AcDbTrace
 10
-12.891994
 20
65.069345
 30
0.0
 11
-12.475327
 21
65.069345
 31
0.0
 12
-12.68366
 22
66.319345
 32
0.0
 13
-12.68366
 23
66.319345
 33
0.0
  0
TEXT
  5
EA3
100
AcDbEntity
  8
0
  6
BYBLOCK
 62
     0
100
AcDbText
 10
-17.215803
 20
49.394345
 30
0.0
 40
1.35
  1
32 1/2"
  7
ROMAND
 72
     1
 11
-12.68366
 21
50.069345
 31
0.0
100
AcDbText
 73
     2
  0
POINT
  5
EA4
100
AcDbEntity
  8
DEFPOINTS
  6
BYBLOCK
 62
     0
100
AcDbPoint
 10
-2.407688
 20
33.819345
 30
0.0
  0
POINT
  5
EA5
100
AcDbEntity
  8
DEFPOINTS
  6
BYBLOCK
 62
     0
100
AcDbPoint
 10
-2.407688
 20
66.319345
 30
0.0
  0
POINT
  5
EA6
100
AcDbEntity
  8
DEFPOINTS
  6
BYBLOCK
 62
     0
100
AcDbPoint
 10
-12.68366
 20
66.319345
 30
0.0
  0
ENDBLK
  5
EA7
100
AcDbEntity
  8
0
100
AcDbBlockEnd
  0
BLOCK
  5
2181
100
AcDbEntity
  8
0
100
AcDbBlockBegin
  2
*U3
 70
     1
 10
0.0
 20
0.0
 30
0.0
  3
*U3
  1

  0
TEXT
  5
2180
100
AcDbEntity
  8
DIM
100
AcDbText
 10
352.566447
 20
112.933485
 30
0.0
 40
1.5
  1
8
 50
90.0
  7
ROMANS
100
AcDbText
  0
ENDBLK
  5
2182
100
AcDbEntity
  8
0
100
AcDbBlockEnd
  0
BLOCK
  5
2189
100
AcDbEntity
  8
0
100
AcDbBlockBegin
  2
*U4
 70
     1
 10
0.0
 20
0.0
 30
0.0
  3
*U4
  1

  0
SOLID
  5
2184
100
AcDbEntity
  8
DIM
100
AcDbTrace
 10
213.41767
 20
157.225471
 30
0.0
 11
214.124582
 21
158.277221
 31
0.0
 12
213.79699
 22
157.053053
 32
0.0
 13
213.79699
 23
157.053053
 33
0.0
  0
POLYLINE
  5
2185
100
AcDbEntity
  8
DIM
100
AcDb2dPolyline
 66
     1
 10
0.0
 20
0.0
 30
0.0
  0
VERTEX
  5
2186
100
AcDbEntity
  8
DIM
100
AcDbVertex
100
AcDb2dVertex
 10
213.60733
 20
157.139262
 30
0.0
  0
VERTEX
  5
2187
100
AcDbEntity
  8
DIM
100
AcDbVertex
100
AcDb2dVertex
 10
204.009913
 20
136.024861
 30
0.0
  0
SEQEND
  5
2188
100
AcDbEntity
  8
DIM
  0
ENDBLK
  5
218A
100
AcDbEntity
  8
0
100
AcDbBlockEnd
  0
BLOCK
  5
2191
100
AcDbEntity
  8
0
100
AcDbBlockBegin
  2
*U5
 70
     1
 10
0.0
 20
0.0
 30
0.0
  3
*U5
  1

  0
SOLID
  5
218C
100
AcDbEntity
  8
DIM
100
AcDbTrace
 10
212.98644
 20
105.174464
 30
0.0
 11
214.130976
 21
105.718467
 31
0.0
 12
213.22474
 22
104.832669
 32
0.0
 13
213.22474
 23
104.832669
 33
0.0
  0
POLYLINE
  5
218D
100
AcDbEntity
  8
DIM
100
AcDb2dPolyline
 66
     1
 10
0.0
 20
0.0
 30
0.0
  0
VERTEX
  5
218E
100
AcDbEntity
  8
DIM
100
AcDbVertex
100
AcDb2dVertex
 10
213.10559
 20
105.003567
 30
0.0
  0
VERTEX
  5
218F
100
AcDbEntity
  8
DIM
100
AcDbVertex
100
AcDb2dVertex
 10
206.900153
 20
100.677131
 30
0.0
  0
SEQEND
  5
2190
100
AcDbEntity
  8
DIM
  0
ENDBLK
  5
2192
100
AcDbEntity
  8
0
100
AcDbBlockEnd
  0
BLOCK
  5
2195
100
AcDbEntity
  8
0
100
AcDbBlockBegin
  2
*U6
 70
     1
 10
0.0
 20
0.0
 30
0.0
  3
*U6
  1

  0
TEXT
  5
2194
100
AcDbEntity
  8
DIM
100
AcDbText
 10
363.884397
 20
108.605531
 30
0.0
 40
1.5
  1
6
  7
ROMANS
100
AcDbText
  0
ENDBLK
  5
2196
100
AcDbEntity
  8
0
100
AcDbBlockEnd
  0
BLOCK
  5
219D
100
AcDbEntity
  8
0
100
AcDbBlockBegin
  2
*U7
 70
     1
 10
0.0
 20
0.0
 30
0.0
  3
*U7
  1

  0
SOLID
  5
2198
100
AcDbEntity
  8
DIM
100
AcDbTrace
 10
236.304328
 20
114.165616
 30
0.0
 11
235.170095
 21
113.600446
 31
0.0
 12
236.05972
 22
114.502926
 32
0.0
 13
236.05972
 23
114.502926
 33
0.0
  0
POLYLINE
  5
2199
100
AcDbEntity
  8
DIM
100
AcDb2dPolyline
 66
     1
 10
0.0
 20
0.0
 30
0.0
  0
VERTEX
  5
219A
100
AcDbEntity
  8
DIM
100
AcDbVertex
100
AcDb2dVertex
 10
236.182024
 20
114.334271
 30
0.0
  0
VERTEX
  5
219B
100
AcDbEntity
  8
DIM
100
AcDbVertex
100
AcDb2dVertex
 10
243.268869
 20
119.473471
 30
0.0
  0
SEQEND
  5
219C
100
AcDbEntity
  8
DIM
  0
ENDBLK
  5
219E
100
AcDbEntity
  8
0
100
AcDbBlockEnd
  0
BLOCK
  5
21A1
100
AcDbEntity
  8
0
100
AcDbBlockBegin
  2
*U8
 70
     1
 10
0.0
 20
0.0
 30
0.0
  3
*U8
  1

  0
TEXT
  5
21A0
100
AcDbEntity
  8
DIM
100
AcDbText
 10
383.955825
 20
155.518002
 30
0.0
 40
1.5
  1
6
  7
ROMANS
100
AcDbText
  0
ENDBLK
  5
21A2
100
AcDbEntity
  8
0
100
AcDbBlockEnd
  0
BLOCK
  5
21A5
100
AcDbEntity
  8
0
100
AcDbBlockBegin
  2
*U9
 70
     1
 10
0.0
 20
0.0
 30
0.0
  3
*U9
  1

  0
TEXT
  5
21A4
100
AcDbEntity
  8
DIM
100
AcDbText
 10
373.24154
 20
160.10015
 30
0.0
 40
1.5
  1
38
  7
ROMANS
100
AcDbText
  0
ENDBLK
  5
21A6
100
AcDbEntity
  8
0
100
AcDbBlockEnd
  0
BLOCK
  5
21A9
100
AcDbEntity
  8
0
100
AcDbBlockBegin
  2
*U10
 70
     1
 10
0.0
 20
0.0
 30
0.0
  3
*U10
  1

  0
TEXT
  5
21A8
100
AcDbEntity
  8
DIM
100
AcDbText
 10
349.039178
 20
133.219199
 30
0.0
 40
1.5
  1
36
 50
90.0
  7
ROMANS
100
AcDbText
  0
ENDBLK
  5
21AA
100
AcDbEntity
  8
0
100
AcDbBlockEnd
  0
BLOCK
  5
21AD
100
AcDbEntity
  8
0
100
AcDbBlockBegin
  2
*U11
 70
     1
 10
0.0
 20
0.0
 30
0.0
  3
*U11
  1

  0
TEXT
  5
21AC
100
AcDbEntity
  8
DIM
100
AcDbText
 10
254.824951
 20
91.601919
 30
0.0
 40
1.5
  1
25
 50
90.0
  7
ROMANS
100
AcDbText
  0
ENDBLK
  5
21AE
100
AcDbEntity
  8
0
100
AcDbBlockEnd
  0
BLOCK
  5
21B1
100
AcDbEntity
  8
0
100
AcDbBlockBegin
  2
*U12
 70
     1
 10
0.0
 20
0.0
 30
0.0
  3
*U12
  1

  0
TEXT
  5
21B0
100
AcDbEntity
  8
DIM
100
AcDbText
 10
228.584452
 20
184.375419
 30
0.0
 40
1.5
  1
38
  7
ROMANS
100
AcDbText
  0
ENDBLK
  5
21B2
100
AcDbEntity
  8
0
100
AcDbBlockEnd
  0
BLOCK
  5
21B5
100
AcDbEntity
  8
0
100
AcDbBlockBegin
  2
*U13
 70
     1
 10
0.0
 20
0.0
 30
0.0
  3
*U13
  1

  0
TEXT
  5
21B4
100
AcDbEntity
  8
DIM
100
AcDbText
 10
227.120167
 20
180.765577
 30
0.0
 40
1.5
  1
32CA
  7
ROMANS
100
AcDbText
  0
ENDBLK
  5
21B6
100
AcDbEntity
  8
0
100
AcDbBlockEnd
  0
BLOCK
  5
21B9
100
AcDbEntity
  8
0
100
AcDbBlockBegin
  2
*U14
 70
     1
 10
0.0
 20
0.0
 30
0.0
  3
*U14
  1

  0
TEXT
  5
21B8
100
AcDbEntity
  8
DIM
100
AcDbText
 10
200.351736
 20
156.946941
 30
0.0
 40
1.5
  1
36
 50
90.0
  7
ROMANS
100
AcDbText
  0
ENDBLK
  5
21BA
100
AcDbEntity
  8
0
100
AcDbBlockEnd
  0
BLOCK
  5
21BD
100
AcDbEntity
  8
0
100
AcDbBlockBegin
  2
*U15
 70
     1
 10
0.0
 20
0.0
 30
0.0
  3
*U15
  1

  0
TEXT
  5
21BC
100
AcDbEntity
  8
DIM
100
AcDbText
 10
204.605939
 20
155.482656
 30
0.0
 40
1.5
  1
30CA
 50
90.0
  7
ROMANS
100
AcDbText
  0
ENDBLK
  5
21BE
100
AcDbEntity
  8
0
100
AcDbBlockEnd
  0
BLOCK
  5
21CA
100
AcDbEntity
  8
0
100
AcDbBlockBegin
  2
*D16
 70
     1
 10
0.0
 20
0.0
 30
0.0
  3
*D16
  1

  0
LINE
  5
21C0
100
AcDbEntity
  8
0
  6
BYBLOCK
 62
     0
100
AcDbLine
 10
589.823883
 20
119.965067
 30
0.0
 11
595.825688
 21
119.965067
 31
0.0
  0
LINE
  5
21C1
100
AcDbEntity
  8
0
  6
BYBLOCK
 62
     0
100
AcDbLine
 10
590.936494
 20
122.965067
 30
0.0
 11
595.825688
 21
122.965067
 31
0.0
  0
LINE
  5
21C2
100
AcDbEntity
  8
0
  6
BYBLOCK
 62
     0
100
AcDbLine
 10
595.645688
 20
117.965067
 30
0.0
 11
595.645688
 21
115.965067
 31
0.0
  0
LINE
  5
21C3
100
AcDbEntity
  8
0
  6
BYBLOCK
 62
     0
100
AcDbLine
 10
595.645688
 20
124.965067
 30
0.0
 11
595.645688
 21
126.965067
 31
0.0
  0
SOLID
  5
21C4
100
AcDbEntity
  8
0
  6
BYBLOCK
 62
     0
100
AcDbTrace
 10
595.312355
 20
117.965067
 30
0.0
 11
595.979022
 21
117.965067
 31
0.0
 12
595.645688
 22
119.965067
 32
0.0
 13
595.645688
 23
119.965067
 33
0.0
  0
SOLID
  5
21C5
100
AcDbEntity
  8
0
  6
BYBLOCK
 62
     0
100
AcDbTrace
 10
595.312355
 20
124.965067
 30
0.0
 11
595.979022
 21
124.965067
 31
0.0
 12
595.645688
 22
122.965067
 32
0.0
 13
595.645688
 23
122.965067
 33
0.0
  0
MTEXT
  5
21C6
100
AcDbEntity
  8
0
  6
BYBLOCK
 62
     0
100
AcDbMText
 10
595.645688
 20
128.965067
 30
0.0
 40
1.5
 41
0.0
 71
     5
 72
     1
  1
\A1;3
 11
0.0
 21
1.0
 31
0.0
  0
POINT
  5
21C7
100
AcDbEntity
  8
DEFPOINTS
  6
BYBLOCK
 62
     0
100
AcDbPoint
 10
589.761383
 20
119.965067
 30
0.0
  0
POINT
  5
21C8
100
AcDbEntity
  8
DEFPOINTS
  6
BYBLOCK
 62
     0
100
AcDbPoint
 10
590.873994
 20
122.965067
 30
0.0
  0
POINT
  5
21C9
100
AcDbEntity
  8
DEFPOINTS
  6
BYBLOCK
 62
     0
100
AcDbPoint
 10
595.645688
 20
122.965067
 30
0.0
  0
ENDBLK
  5
21CB
100
AcDbEntity
  8
0
100
AcDbBlockEnd
  0
BLOCK
  5
21D7
100
AcDbEntity
  8
0
100
AcDbBlockBegin
  2
*D17
 70
     1
 10
0.0
 20
0.0
 30
0.0
  3
*D17
  1

  0
LINE
  5
21CD
100
AcDbEntity
  8
0
  6
BYBLOCK
 62
     0
100
AcDbLine
 10
589.823883
 20
89.965067
 30
0.0
 11
595.886973
 21
89.965067
 31
0.0
  0
LINE
  5
21CE
100
AcDbEntity
  8
0
  6
BYBLOCK
 62
     0
100
AcDbLine
 10
590.936494
 20
86.965067
 30
0.0
 11
595.886973
 21
86.965067
 31
0.0
  0
LINE
  5
21CF
100
AcDbEntity
  8
0
  6
BYBLOCK
 62
     0
100
AcDbLine
 10
595.706973
 20
91.965067
 30
0.0
 11
595.706973
 21
93.965067
 31
0.0
  0
LINE
  5
21D0
100
AcDbEntity
  8
0
  6
BYBLOCK
 62
     0
100
AcDbLine
 10
595.706973
 20
84.965067
 30
0.0
 11
595.706973
 21
82.965067
 31
0.0
  0
SOLID
  5
21D1
100
AcDbEntity
  8
0
  6
BYBLOCK
 62
     0
100
AcDbTrace
 10
595.37364
 20
91.965067
 30
0.0
 11
596.040306
 21
91.965067
 31
0.0
 12
595.706973
 22
89.965067
 32
0.0
 13
595.706973
 23
89.965067
 33
0.0
  0
SOLID
  5
21D2
100
AcDbEntity
  8
0
  6
BYBLOCK
 62
     0
100
AcDbTrace
 10
595.37364
 20
84.965067
 30
0.0
 11
596.040306
 21
84.965067
 31
0.0
 12
595.706973
 22
86.965067
 32
0.0
 13
595.706973
 23
86.965067
 33
0.0
  0
MTEXT
  5
21D3
100
AcDbEntity
  8
0
  6
BYBLOCK
 62
     0
100
AcDbMText
 10
595.706973
 20
80.965067
 30
0.0
 40
1.5
 41
0.0
 71
     5
 72
     1
  1
\A1;3
 11
0.0
 21
1.0
 31
0.0
  0
POINT
  5
21D4
100
AcDbEntity
  8
DEFPOINTS
  6
BYBLOCK
 62
     0
100
AcDbPoint
 10
589.761383
 20
89.965067
 30
0.0
  0
POINT
  5
21D5
100
AcDbEntity
  8
DEFPOINTS
  6
BYBLOCK
 62
     0
100
AcDbPoint
 10
590.873994
 20
86.965067
 30
0.0
  0
POINT
  5
21D6
100
AcDbEntity
  8
DEFPOINTS
  6
BYBLOCK
 62
     0
100
AcDbPoint
 10
595.706973
 20
86.965067
 30
0.0
  0
ENDBLK
  5
21D8
100
AcDbEntity
  8
0
100
AcDbBlockEnd
  0
BLOCK
  5
21E6
100
AcDbEntity
  8
0
100
AcDbBlockBegin
  2
*D18
 70
     1
 10
0.0
 20
0.0
 30
0.0
  3
*D18
  1

  0
LINE
  5
21DA
100
AcDbEntity
  8
0
  6
BYBLOCK
 62
     0
100
AcDbLine
 10
589.373994
 20
89.515178
 30
0.0
 11
589.373994
 21
78.01754
 31
0.0
  0
LINE
  5
21DB
100
AcDbEntity
  8
0
  6
BYBLOCK
 62
     0
100
AcDbLine
 10
571.873994
 20
84.67466
 30
0.0
 11
571.873994
 21
78.01754
 31
0.0
  0
LINE
  5
21DC
100
AcDbEntity
  8
0
  6
BYBLOCK
 62
     0
100
AcDbLine
 10
591.373994
 20
78.19754
 30
0.0
 11
593.373994
 21
78.19754
 31
0.0
  0
LINE
  5
21DD
100
AcDbEntity
  8
0
  6
BYBLOCK
 62
     0
100
AcDbLine
 10
569.873994
 20
78.19754
 30
0.0
 11
567.873994
 21
78.19754
 31
0.0
  0
LINE
  5
21DE
100
AcDbEntity
  8
0
  6
BYBLOCK
 62
     0
100
AcDbLine
 10
589.373994
 20
78.19754
 30
0.0
 11
585.873994
 21
78.19754
 31
0.0
  0
LINE
  5
21DF
100
AcDbEntity
  8
0
  6
BYBLOCK
 62
     0
100
AcDbLine
 10
571.873994
 20
78.19754
 30
0.0
 11
575.373994
 21
78.19754
 31
0.0
  0
SOLID
  5
21E0
100
AcDbEntity
  8
0
  6
BYBLOCK
 62
     0
100
AcDbTrace
 10
591.373994
 20
78.530873
 30
0.0
 11
591.373994
 21
77.864207
 31
0.0
 12
589.373994
 22
78.19754
 32
0.0
 13
589.373994
 23
78.19754
 33
0.0
  0
SOLID
  5
21E1
100
AcDbEntity
  8
0
  6
BYBLOCK
 62
     0
100
AcDbTrace
 10
569.873994
 20
78.530873
 30
0.0
 11
569.873994
 21
77.864207
 31
0.0
 12
571.873994
 22
78.19754
 32
0.0
 13
571.873994
 23
78.19754
 33
0.0
  0
MTEXT
  5
21E2
100
AcDbEntity
  8
0
  6
BYBLOCK
 62
     0
100
AcDbMText
 10
580.623994
 20
78.19754
 30
0.0
 40
1.5
 41
0.0
 71
     5
 72
     1
  1
\A1;17 1/2
  0
POINT
  5
21E3
100
AcDbEntity
  8
DEFPOINTS
  6
BYBLOCK
 62
     0
100
AcDbPoint
 10
589.373994
 20
89.577678
 30
0.0
  0
POINT
  5
21E4
100
AcDbEntity
  8
DEFPOINTS
  6
BYBLOCK
 62
     0
100
AcDbPoint
 10
571.873994
 20
84.73716
 30
0.0
  0
POINT
  5
21E5
100
AcDbEntity
  8
DEFPOINTS
  6
BYBLOCK
 62
     0
100
AcDbPoint
 10
571.873994
 20
78.19754
 30
0.0
  0
ENDBLK
  5
21E7
100
AcDbEntity
  8
0
100
AcDbBlockEnd
  0
BLOCK
  5
23C5
100
AcDbEntity
  8
0
100
AcDbBlockBegin
  2
A$C0D455053
 70
     0
 10
0.0
 20
0.0
 30
0.0
  3
A$C0D455053
  1

  0
LWPOLYLINE
  5
21EA
100
AcDbEntity
  8
BORDER
 62
     5
100
AcDbPolyline
 90
        2
 70
     0
 43
0.489245
 10
181.324104
 20
27.841818
 10
181.324104
 20
233.848908
  0
LINE
  5
21EB
100
AcDbEntity
  8
LIMITS
 62
     7
100
AcDbLine
 10
185.238063
 20
0.0
 30
0.0
 11
185.238063
 21
239.719846
 31
0.0
  0
LINE
  5
21EC
100
AcDbEntity
  8
LIMITS
100
AcDbLine
 10
185.238063
 20
234.837533
 30
0.0
 11
185.238063
 21
0.0
 31
0.0
  0
LINE
  5
21ED
100
AcDbEntity
  8
LIMITS
100
AcDbLine
 10
185.238063
 20
0.0
 30
0.0
 11
185.238063
 21
234.837533
 31
0.0
  0
LWPOLYLINE
  5
21EE
100
AcDbEntity
  8
BORDER
 62
     5
100
AcDbPolyline
 90
        2
 70
     0
 43
0.489245
 10
3.913959
 20
27.841818
 10
3.913959
 20
233.848908
  0
LINE
  5
21EF
100
AcDbEntity
  8
LIMITS
 62
     7
100
AcDbLine
 10
0.0
 20
239.719846
 30
0.0
 11
0.0
 21
0.0
 31
0.0
  0
LWPOLYLINE
  5
21F0
100
AcDbEntity
  8
BORDER
 62
     5
100
AcDbPolyline
 90
        6
 70
     0
 43
0.871709
 10
3.913959
 20
27.841818
 10
3.913959
 20
233.848908
 42
-0.414214
 10
5.870939
 20
235.805887
 10
179.367125
 20
235.805887
 42
-0.414214
 10
181.324104
 20
233.848908
 10
181.324104
 20
27.841818
  0
TEXT
  5
21F1
100
AcDbEntity
  8
DIM
100
AcDbText
 10
51.95265
 20
101.710378
 30
0.0
 40
2.25
  1
FROGMOUTH ALUMINUM COVER-CFM32X30A
  7
ROMANS
100
AcDbText
  0
LINE
  5
21F2
100
AcDbEntity
  8
BORDER
100
AcDbLine
 10
176.431656
 20
20.096673
 30
0.0
 11
149.523188
 21
20.096673
 31
0.0
  0
LINE
  5
21F3
100
AcDbEntity
  8
BORDER
100
AcDbLine
 10
176.431656
 20
24.462243
 30
0.0
 11
149.523188
 21
24.462243
 31
0.0
  0
LWPOLYLINE
  5
21F4
100
AcDbEntity
  8
BORDER
 62
     5
100
AcDbPolyline
 90
        2
 70
     0
 43
1.223112
 10
176.431656
 20
26.908467
 10
149.523188
 20
26.908467
  0
LINE
  5
21F5
100
AcDbEntity
  8
BORDER
100
AcDbLine
 10
176.431656
 20
7.338673
 30
0.0
 11
147.076964
 21
7.338673
 31
0.0
  0
LINE
  5
21F6
100
AcDbEntity
  8
BORDER
100
AcDbLine
 10
176.431656
 20
10.311775
 30
0.0
 11
149.523188
 21
10.311775
 31
0.0
  0
LINE
  5
21F7
100
AcDbEntity
  8
BORDER
100
AcDbLine
 10
176.431656
 20
12.758
 30
0.0
 11
149.523188
 21
12.758
 31
0.0
  0
LINE
  5
21F8
100
AcDbEntity
  8
BORDER
100
AcDbLine
 10
176.431656
 20
15.204224
 30
0.0
 11
149.523188
 21
15.204224
 31
0.0
  0
LINE
  5
21F9
100
AcDbEntity
  8
BORDER
100
AcDbLine
 10
176.431656
 20
17.650448
 30
0.0
 11
149.523188
 21
17.650448
 31
0.0
  0
TEXT
  5
21FA
100
AcDbEntity
  8
BORDER
 62
     6
100
AcDbText
 10
152.179615
 20
18.26409
 30
0.0
 40
1.223112
  1
First Released 06/27/03
  7
ROMAND
100
AcDbText
  0
LWPOLYLINE
  5
21FB
100
AcDbEntity
  8
BORDER
 62
     5
100
AcDbPolyline
 90
        2
 70
     0
 43
1.223112
 10
176.431656
 20
4.892449
 10
8.806408
 20
4.892449
  0
LINE
  5
21FC
100
AcDbEntity
  8
LIMITS
 62
     7
100
AcDbLine
 10
0.0
 20
0.0
 30
0.0
 11
185.238063
 21
0.0
 31
0.0
  0
LINE
  5
21FD
100
AcDbEntity
  8
BORDER
100
AcDbLine
 10
151.969413
 20
20.096673
 30
0.0
 11
151.969413
 21
10.311775
 31
0.0
  0
LINE
  5
21FE
100
AcDbEntity
  8
BORDER
100
AcDbLine
 10
149.523188
 20
20.096673
 30
0.0
 11
149.523188
 21
10.311775
 31
0.0
  0
LINE
  5
21FF
100
AcDbEntity
  8
BORDER
100
AcDbLine
 10
147.076964
 20
7.338673
 30
0.0
 11
147.076964
 21
22.016019
 31
0.0
  0
LWPOLYLINE
  5
2200
100
AcDbEntity
  8
BORDER
 62
     5
100
AcDbPolyline
 90
        2
 70
     0
 43
1.223112
 10
144.63074
 20
7.338673
 10
144.63074
 20
22.016019
  0
LINE
  5
2201
100
AcDbEntity
  8
BORDER
100
AcDbLine
 10
139.738291
 20
22.016019
 30
0.0
 11
139.738291
 21
14.677346
 31
0.0
  0
LWPOLYLINE
  5
2202
100
AcDbEntity
  8
BORDER
 62
     5
100
AcDbPolyline
 90
        2
 70
     0
 43
1.223112
 10
142.184516
 20
7.338673
 10
142.184516
 20
22.016019
  0
TEXT
  5
2203
100
AcDbEntity
  8
BORDER
 62
     6
100
AcDbText
 10
101.246348
 20
18.321442
 30
0.0
 40
0.918144
  1
be used as a record or to identify or inspect parts or for other information purposes
 41
0.596266
  7
ROMANS
 72
     5
 11
139.073079
 21
18.321442
 31
0.0
100
AcDbText
  0
LWPOLYLINE
  5
2204
100
AcDbEntity
  8
BORDER
100
AcDbPolyline
 90
        6
 70
     1
 43
0.0
 10
151.267097
 20
17.9665
 10
151.788266
 20
18.869192
 10
151.267097
 20
19.771883
 10
150.224759
 20
19.771883
 10
149.70359
 20
18.869192
 10
150.224759
 20
17.9665
  0
LINE
  5
2205
100
AcDbEntity
  8
BORDER
100
AcDbLine
 10
82.78616
 20
14.677346
 30
0.0
 11
82.78616
 21
24.462243
 31
0.0
  0
TEXT
  5
2206
100
AcDbEntity
  8
BORDER
 62
     6
100
AcDbText
 10
83.287546
 20
17.612792
 30
0.0
 40
1.097562
  1
Appv'd By: .
  7
ROMANC
100
AcDbText
  0
LINE
  5
2207
100
AcDbEntity
  8
BORDER
100
AcDbLine
 10
45.499772
 20
14.677346
 30
0.0
 11
45.499772
 21
22.016019
 31
0.0
  0
LWPOLYLINE
  5
2208
100
AcDbEntity
  8
BORDER
 62
     5
100
AcDbPolyline
 90
        2
 70
     0
 43
1.223112
 10
43.053548
 20
22.016019
 10
43.053548
 20
7.338673
  0
LINE
  5
2209
100
AcDbEntity
  8
BORDER
100
AcDbLine
 10
38.161099
 20
7.338673
 30
0.0
 11
38.161099
 21
22.016019
 31
0.0
  0
LWPOLYLINE
  5
220A
100
AcDbEntity
  8
BORDER
 62
     5
100
AcDbPolyline
 90
        2
 70
     0
 43
1.223112
 10
40.607324
 20
7.338673
 10
40.607324
 20
22.016019
  0
ARC
  5
220B
102
{ACAD_REACTORS
330
2255
102
}
100
AcDbEntity
  8
BORDER
100
AcDbCircle
 10
32.701518
 20
16.575338
 30
0.0
 40
1.574252
100
AcDbArc
 50
4.10812
 51
90.34444
  0
HATCH
  5
220C
100
AcDbEntity
  8
BORDER
100
AcDbHatch
 10
0.0
 20
0.0
 30
0.0
210
0.0
220
0.0
230
1.0
  2
ANSI37
 70
     0
 71
     1
 91
        2
 92
        5
 93
        1
 72
     3
 10
22.900918
 20
15.536882
 11
0.0
 21
2.732416
 40
0.93822
 50
0.0
 51
360.0
 73
     1
 97
        1
330
220D
 92
       20
 93
        1
 72
     3
 10
22.900918
 20
15.552452
 11
0.0
 21
2.452169
 40
0.683214
 50
0.0
 51
360.0
 73
     1
 97
        1
330
2215
 75
     0
 76
     1
 52
0.0
 41
0.037901
 77
     0
 78
     2
 53
45.0
 43
2.436937
 44
-123.961443
 45
-0.0033499708691682
 46
0.0033499708691682
 79
     0
 53
135.0
 43
2.436937
 44
-123.961443
 45
-0.0033499708691682
 46
-0.0033499708691682
 79
     0
 47
0.027301
 98
        2
 10
21.057109
 20
16.649023
 10
21.057109
 20
16.649023
  0
ELLIPSE
  5
220D
102
{ACAD_REACTORS
330
220C
102
}
100
AcDbEntity
  8
BORDER
100
AcDbEllipse
 10
22.900918
 20
15.536882
 30
0.0
 11
0.0000000000000184
 21
2.732416418459644
 31
0.0
210
0.0
220
0.0
230
1.0
 40
0.93822
 41
0.0
 42
6.283185307179586
  0
LWPOLYLINE
  5
220E
102
{ACAD_REACTORS
330
225D
102
}
100
AcDbEntity
  8
BORDER
100
AcDbPolyline
 90
       17
 70
     0
 43
0.0
 10
28.277412
 20
15.275465
 42
-0.060912
 10
27.375244
 20
15.386607
 10
27.375244
 20
13.580334
 42
0.414214
 10
27.890613
 20
13.064964
 10
28.12911
 20
13.064964
 10
28.12911
 20
12.929123
 10
25.892228
 20
12.929123
 10
25.892228
 20
13.064964
 10
26.130725
 20
13.064964
 42
0.414214
 10
26.646094
 20
13.580334
 10
26.646094
 20
17.510202
 42
0.414214
 10
26.130725
 20
18.025571
 10
25.896103
 20
18.025571
 10
25.896103
 20
18.169413
 10
28.291983
 20
18.169413
 42
-0.395102
 10
29.871654
 20
16.707968
 42
-0.42915
 10
28.277412
 20
15.275465
  0
LINE
  5
220F
102
{ACAD_REACTORS
330
2212
102
}
100
AcDbEntity
  8
BORDER
100
AcDbLine
 10
17.322641
 20
14.376725
 30
0.0
 11
17.322641
 21
21.247996
 31
0.0
  0
LINE
  5
2210
102
{ACAD_REACTORS
330
2212
102
}
100
AcDbEntity
  8
BORDER
100
AcDbLine
 10
15.164901
 20
14.376725
 30
0.0
 11
15.164901
 21
21.247996
 31
0.0
  0
LINE
  5
2211
100
AcDbEntity
  8
BORDER
100
AcDbLine
 10
6.360183
 20
9.784897
 30
0.0
 11
6.360183
 21
22.016019
 31
0.0
  0
HATCH
  5
2212
100
AcDbEntity
  8
BORDER
100
AcDbHatch
 10
0.0
 20
0.0
 30
0.0
210
0.0
220
0.0
230
1.0
  2
ANSI37
 70
     0
 71
     1
 91
        1
 92
        7
 72
     1
 73
     1
 93
       18
 10
15.16490068200329
 20
14.37672513910587
 42
-0.4142135623730684
 10
13.91640054228435
 20
13.12822499938705
 42
0.0
 10
13.51432573052198
 20
13.12822499938705
 42
0.0
 10
13.5143257305221
 20
12.86780403133846
 42
0.0
 10
18.97321579978938
 20
12.86780403133847
 42
0.0
 10
18.97321579978927
 20
13.12822499938704
 42
0.0
 10
18.57114098802628
 20
13.12822499938705
 42
-0.4142135623730283
 10
17.32264084830762
 20
14.37672513910598
 42
0.0
 10
17.32264084830762
 20
21.2479957984503
 42
0.0
 10
18.42155012992304
 20
21.2479957984503
 42
-0.4138200196737635
 10
20.91336335817209
 20
18.75952888504959
 42
0.0
 10
21.17398240176487
 20
18.75952888504959
 42
0.0
 10
21.17398240176549
 20
21.88458050162727
 42
0.0
 10
11.31355912854593
 20
21.88458050162727
 42
0.0
 10
11.31355912854593
 20
18.75952888504959
 42
0.0
 10
11.57417817213922
 20
18.75952888504959
 42
-0.4138200196737639
 10
14.06599140038827
 20
21.2479957984503
 42
0.0
 10
15.16490068200329
 20
21.24799579845029
 42
0.0
 97
       18
330
229C
330
229D
330
2299
330
2296
330
2290
330
2292
330
2293
330
2294
330
2291
330
2210
330
221F
330
2233
330
221E
330
2222
330
221C
330
2234
330
221D
330
220F
 75
     0
 76
     1
 52
0.0
 41
0.037901
 77
     0
 78
     2
 53
45.0
 43
2.436937
 44
-123.961443
 45
-0.0033499708691682
 46
0.0033499708691682
 79
     0
 53
135.0
 43
2.436937
 44
-123.961443
 45
-0.0033499708691682
 46
-0.0033499708691682
 79
     0
 47
0.049862
 98
        1
 10
15.97897
 20
17.679063
  0
LWPOLYLINE
  5
2213
100
AcDbEntity
  8
BORDER
 62
     5
100
AcDbPolyline
 90
        2
 70
     0
 43
1.223112
 10
3.913959
 20
22.016019
 10
3.913959
 20
9.784897
  0
TEXT
  5
2214
100
AcDbEntity
  8
BORDER
 62
     6
100
AcDbText
 10
45.854223
 20
17.18329
 30
0.0
 40
1.097562
  1
Reference:
  7
ROMANC
100
AcDbText
  0
ELLIPSE
  5
2215
102
{ACAD_REACTORS
330
220C
102
}
100
AcDbEntity
  8
BORDER
100
AcDbEllipse
 10
22.900918
 20
15.552452
 30
0.0
 11
0.0000000000000184
 21
2.452168679854462
 31
0.0
210
0.0
220
0.0
230
1.0
 40
0.683214
 41
0.0
 42
6.283185307179586
  0
SPLINE
  5
2216
100
AcDbEntity
  8
BORDER
100
AcDbSpline
210
0.0
220
0.0
230
1.0
 70
    11
 71
     3
 72
    24
 73
    20
 74
     0
 42
0.0000001
 43
0.0000001
 40
0.0
 40
0.0
 40
0.0
 40
0.0
 40
0.474866629778075
 40
0.474866629778075
 40
1.277791044886493
 40
1.277791044886493
 40
2.080715459994911
 40
2.080715459994911
 40
2.883639875103329
 40
2.883639875103329
 40
3.686564290211747
 40
3.686564290211747
 40
4.489488705320165
 40
4.489488705320165
 40
5.292413120428583
 40
5.292413120428583
 40
6.095337535537001
 40
6.095337535537001
 40
6.283185307179586
 40
6.283185307179586
 40
6.283185307179586
 40
6.283185307179586
 10
23.01269263202744
 20
11.90840313371179
 30
0.0
 10
22.84962638633953
 20
11.90840313371179
 30
0.0
 10
22.68669749927329
 20
11.86884867734452
 30
0.0
 10
22.29648260346562
 20
11.66760202306271
 30
0.0
 10
22.10611121645718
 20
11.43829197159122
 30
0.0
 10
21.94687551381633
 20
10.90880439353536
 30
0.0
 10
21.97906981665255
 20
10.61217434795366
 30
0.0
 10
22.24817904969461
 20
10.12945477967878
 30
0.0
 10
22.48330068557237
 20
9.946607085706517
 30
0.0
 10
23.01648565043945
 20
9.805490716064426
 30
0.0
 10
23.31095708666953
 20
9.848180171369577
 30
0.0
 10
23.78248330111887
 20
10.13492904269399
 30
0.0
 10
23.95637178428086
 20
10.37704783755842
 30
0.0
 10
24.0782431455878
 20
10.91641959043246
 30
0.0
 10
24.02541623187056
 20
11.21006074859251
 30
0.0
 10
23.72325681436837
 20
11.67269157739352
 30
0.0
 10
23.47593976258696
 20
11.83857135235933
 30
0.0
 10
23.14170280058158
 20
11.90230746473985
 30
0.0
 10
23.07719838787915
 20
11.90840313371179
 30
0.0
 10
23.01269263202744
 20
11.90840313371179
 30
0.0
  0
LINE
  5
2217
100
AcDbEntity
  8
BORDER
100
AcDbLine
 10
10.034677
 20
12.528372
 30
0.0
 11
34.623753
 21
12.528372
 31
0.0
  0
LINE
  5
2218
100
AcDbEntity
  8
BORDER
100
AcDbLine
 10
10.034677
 20
12.528372
 30
0.0
 11
34.623753
 21
12.528372
 31
0.0
  0
LINE
  5
2219
100
AcDbEntity
  8
BORDER
100
AcDbLine
 10
8.806408
 20
7.338673
 30
0.0
 11
38.161099
 21
7.338673
 31
0.0
  0
ARC
  5
221A
100
AcDbEntity
  8
BORDER
100
AcDbCircle
 10
8.806408
 20
9.784897
 30
0.0
 40
2.446224
100
AcDbArc
 50
180.0
 51
270.0
  0
LWPOLYLINE
  5
221B
100
AcDbEntity
  8
BORDER
 62
     5
100
AcDbPolyline
 90
        2
 70
     0
 43
1.223112
 10
8.806408
 20
4.892449
 42
-0.414214
 10
3.913959
 20
9.784897
 42
0.560527
  0
LINE
  5
221C
102
{ACAD_REACTORS
330
2212
102
}
100
AcDbEntity
  8
BORDER
100
AcDbLine
 10
18.973216
 20
13.128225
 30
0.0
 11
18.973216
 21
12.867804
 31
0.0
  0
ARC
  5
221D
102
{ACAD_REACTORS
330
2212
102
}
100
AcDbEntity
  8
BORDER
100
AcDbCircle
 10
18.571141
 20
14.376725
 30
0.0
 40
1.2485
100
AcDbArc
 50
180.0
 51
270.0
  0
LINE
  5
221E
102
{ACAD_REACTORS
330
2212
102
}
100
AcDbEntity
  8
BORDER
100
AcDbLine
 10
13.514326
 20
13.128225
 30
0.0
 11
13.514326
 21
12.867804
 31
0.0
  0
ARC
  5
221F
102
{ACAD_REACTORS
330
2212
102
}
100
AcDbEntity
  8
BORDER
100
AcDbCircle
 10
13.916401
 20
14.376725
 30
0.0
 40
1.2485
100
AcDbArc
 50
270.0
 51
0.0
  0
ARC
  5
2220
100
AcDbEntity
  8
BORDER
100
AcDbCircle
 10
14.926713
 20
10.790509
 30
0.0
 40
0.922666
100
AcDbArc
 50
174.737783
 51
327.723969
  0
ARC
  5
2221
100
AcDbEntity
  8
BORDER
100
AcDbCircle
 10
14.998232
 20
10.890948
 30
0.0
 40
0.990423
100
AcDbArc
 50
44.321228
 51
180.91508
  0
LINE
  5
2222
102
{ACAD_REACTORS
330
2212
102
}
100
AcDbEntity
  8
BORDER
100
AcDbLine
 10
13.514326
 20
12.867804
 30
0.0
 11
18.973216
 21
12.867804
 31
0.0
  0
LINE
  5
2223
100
AcDbEntity
  8
BORDER
100
AcDbLine
 10
13.536025
 20
11.881115
 30
0.0
 11
13.536025
 21
9.869145
 31
0.0
  0
LINE
  5
2224
100
AcDbEntity
  8
BORDER
100
AcDbLine
 10
11.994451
 20
11.881115
 30
0.0
 11
11.994451
 21
9.869145
 31
0.0
  0
LINE
  5
2225
100
AcDbEntity
  8
BORDER
100
AcDbLine
 10
11.113551
 20
11.881115
 30
0.0
 11
11.113551
 21
9.869145
 31
0.0
  0
LINE
  5
2226
100
AcDbEntity
  8
BORDER
100
AcDbLine
 10
10.70157
 20
11.881115
 30
0.0
 11
11.525532
 21
11.881115
 31
0.0
  0
LINE
  5
2227
100
AcDbEntity
  8
BORDER
100
AcDbLine
 10
10.70157
 20
9.869145
 30
0.0
 11
11.525532
 21
9.869145
 31
0.0
  0
LINE
  5
2228
100
AcDbEntity
  8
BORDER
100
AcDbLine
 10
13.536025
 20
9.869145
 30
0.0
 11
11.994451
 21
11.881115
 31
0.0
  0
LINE
  5
2229
100
AcDbEntity
  8
BORDER
100
AcDbLine
 10
21.17908
 20
11.881115
 30
0.0
 11
20.656884
 21
11.881115
 31
0.0
  0
LINE
  5
222A
100
AcDbEntity
  8
BORDER
100
AcDbLine
 10
20.656884
 20
10.849483
 30
0.0
 11
21.17908
 21
10.849483
 31
0.0
  0
LINE
  5
222B
100
AcDbEntity
  8
BORDER
100
AcDbLine
 10
20.656884
 20
11.881115
 30
0.0
 11
20.656884
 21
9.869145
 31
0.0
  0
ARC
  5
222C
100
AcDbEntity
  8
BORDER
100
AcDbCircle
 10
21.17908
 20
11.365299
 30
0.0
 40
0.515816
100
AcDbArc
 50
270.0
 51
90.0
  0
ARC
  5
222D
100
AcDbEntity
  8
BORDER
100
AcDbCircle
 10
19.227037
 20
11.365299
 30
0.0
 40
0.515816
100
AcDbArc
 50
270.0
 51
90.0
  0
LINE
  5
222E
100
AcDbEntity
  8
BORDER
100
AcDbLine
 10
19.082186
 20
10.849483
 30
0.0
 11
19.880938
 21
9.869145
 31
0.0
  0
LINE
  5
222F
100
AcDbEntity
  8
BORDER
100
AcDbLine
 10
19.227037
 20
11.881115
 30
0.0
 11
18.531491
 21
11.881115
 31
0.0
  0
LINE
  5
2230
100
AcDbEntity
  8
BORDER
100
AcDbLine
 10
18.531491
 20
10.849483
 30
0.0
 11
19.227037
 21
10.849483
 31
0.0
  0
LINE
  5
2231
100
AcDbEntity
  8
BORDER
100
AcDbLine
 10
18.531491
 20
11.881115
 30
0.0
 11
18.531491
 21
9.869145
 31
0.0
  0
SPLINE
  5
2232
100
AcDbEntity
  8
BORDER
100
AcDbSpline
210
0.0
220
0.0
230
1.0
 70
    11
 71
     3
 72
    24
 73
    20
 74
     0
 42
0.0000001
 43
0.0000001
 40
0.0
 40
0.0
 40
0.0
 40
0.0
 40
0.474866629778075
 40
0.474866629778075
 40
1.277791044886493
 40
1.277791044886493
 40
2.080715459994911
 40
2.080715459994911
 40
2.883639875103329
 40
2.883639875103329
 40
3.686564290211747
 40
3.686564290211747
 40
4.489488705320165
 40
4.489488705320165
 40
5.292413120428583
 40
5.292413120428583
 40
6.095337535537001
 40
6.095337535537001
 40
6.283185307179586
 40
6.283185307179586
 40
6.283185307179586
 40
6.283185307179586
 10
17.02617419354339
 20
11.90840313371179
 30
0.0
 10
16.86310794785606
 20
11.90840313371179
 30
0.0
 10
16.70017906078959
 20
11.86884867734452
 30
0.0
 10
16.30996416498209
 20
11.66760202306271
 30
0.0
 10
16.11959277797331
 20
11.43829197159122
 30
0.0
 10
15.96035707533235
 20
10.90880439353536
 30
0.0
 10
15.99255137816851
 20
10.61217434795366
 30
0.0
 10
16.26166061121102
 20
10.12945477967878
 30
0.0
 10
16.49678224708884
 20
9.946607085706517
 30
0.0
 10
17.02996721195574
 20
9.805490716064426
 30
0.0
 10
17.324438648186
 20
9.848180171369577
 30
0.0
 10
17.79596486263562
 20
10.13492904269399
 30
0.0
 10
17.96985334579733
 20
10.37704783755842
 30
0.0
 10
18.09172470710359
 20
10.91641959043246
 30
0.0
 10
18.03889779338669
 20
11.21006074859251
 30
0.0
 10
17.73673837588421
 20
11.67269157739352
 30
0.0
 10
17.48942132410332
 20
11.83857135235933
 30
0.0
 10
17.15518436209794
 20
11.90230746473985
 30
0.0
 10
17.09067994939499
 20
11.90840313371179
 30
0.0
 10
17.02617419354339
 20
11.90840313371179
 30
0.0
  0
LINE
  5
2233
102
{ACAD_REACTORS
330
2212
102
}
100
AcDbEntity
  8
BORDER
100
AcDbLine
 10
13.514326
 20
13.128225
 30
0.0
 11
13.916401
 21
13.128225
 31
0.0
  0
LINE
  5
2234
102
{ACAD_REACTORS
330
2212
102
}
100
AcDbEntity
  8
BORDER
100
AcDbLine
 10
18.973216
 20
13.128225
 30
0.0
 11
18.571141
 21
13.128225
 31
0.0
  0
TEXT
  5
2235
100
AcDbEntity
  8
BORDER
 62
     6
100
AcDbText
 10
83.350112
 20
9.233273
 30
0.0
 40
1.097562
  1
Prior To:
  7
ROMANC
100
AcDbText
  0
TEXT
  5
2236
100
AcDbEntity
  8
BORDER
 62
     6
100
AcDbText
 10
83.350112
 20
11.010279
 30
0.0
 40
1.097562
  1
Supersedes Prints
  7
ROMANC
100
AcDbText
  0
TEXT
  5
2237
100
AcDbEntity
  8
BORDER
 62
     6
100
AcDbText
 10
83.287546
 20
14.997667
 30
0.0
 40
1.097562
  1
Date: 06/26/03
  7
ROMANC
100
AcDbText
  0
LINE
  5
2238
100
AcDbEntity
  8
BORDER
100
AcDbLine
 10
82.78616
 20
14.677346
 30
0.0
 11
139.738291
 21
14.677346
 31
0.0
  0
LINE
  5
2239
100
AcDbEntity
  8
BORDER
100
AcDbLine
 10
82.78616
 20
12.920093
 30
0.0
 11
110.3836
 21
12.920093
 31
0.0
  0
LINE
  5
223A
100
AcDbEntity
  8
BORDER
100
AcDbLine
 10
82.78616
 20
7.338673
 30
0.0
 11
110.3836
 21
7.338673
 31
0.0
  0
LINE
  5
223B
100
AcDbEntity
  8
BORDER
100
AcDbLine
 10
45.499772
 20
12.920093
 30
0.0
 11
103.205176
 21
12.920093
 31
0.0
  0
LINE
  5
223C
100
AcDbEntity
  8
BORDER
100
AcDbLine
 10
45.499772
 20
14.677346
 30
0.0
 11
103.205176
 21
14.677346
 31
0.0
  0
LINE
  5
223D
100
AcDbEntity
  8
BORDER
100
AcDbLine
 10
45.499772
 20
7.338673
 30
0.0
 11
103.205176
 21
7.338673
 31
0.0
  0
TEXT
  5
223E
100
AcDbEntity
  8
BORDER
 62
     6
100
AcDbText
 10
51.625164
 20
11.278144
 30
0.0
 40
0.932928
  1
Highway 25 North P.O. Box 420
  7
ROMANC
100
AcDbText
  0
TEXT
  5
223F
100
AcDbEntity
  8
BORDER
 62
     6
100
AcDbText
 10
55.642616
 20
9.621348
 30
0.0
 40
0.932928
  1
Rochester, IN  46975
  7
ROMANC
100
AcDbText
  0
TEXT
  5
2240
100
AcDbEntity
  8
BORDER
 62
     6
100
AcDbText
 10
47.219518
 20
7.745039
 30
0.0
 40
0.932928
  1
Phone: 800/354-4534  Fax: 574/223-6106
  7
ROMANC
100
AcDbText
  0
LINE
  5
2241
100
AcDbEntity
  8
BORDER
100
AcDbLine
 10
45.499772
 20
7.338673
 30
0.0
 11
45.499772
 21
12.920093
 31
0.0
  0
LINE
  5
2242
100
AcDbEntity
  8
BORDER
100
AcDbLine
 10
30.626976
 20
11.881115
 30
0.0
 11
31.92504
 21
11.881115
 31
0.0
  0
LINE
  5
2243
100
AcDbEntity
  8
BORDER
100
AcDbLine
 10
31.92504
 20
9.869145
 30
0.0
 11
30.626976
 21
9.869145
 31
0.0
  0
LINE
  5
2244
100
AcDbEntity
  8
BORDER
100
AcDbLine
 10
30.626976
 20
9.869145
 30
0.0
 11
30.626976
 21
11.881115
 31
0.0
  0
LINE
  5
2245
100
AcDbEntity
  8
BORDER
100
AcDbLine
 10
30.626976
 20
10.87513
 30
0.0
 11
31.490203
 21
10.87513
 31
0.0
  0
LINE
  5
2246
100
AcDbEntity
  8
BORDER
100
AcDbLine
 10
29.329809
 20
11.881115
 30
0.0
 11
29.329809
 21
9.869145
 31
0.0
  0
LINE
  5
2247
100
AcDbEntity
  8
BORDER
100
AcDbLine
 10
28.477384
 20
11.881115
 30
0.0
 11
30.182233
 21
11.881115
 31
0.0
  0
LINE
  5
2248
100
AcDbEntity
  8
BORDER
100
AcDbLine
 10
27.270267
 20
11.881115
 30
0.0
 11
26.499653
 21
9.869145
 31
0.0
  0
LINE
  5
2249
100
AcDbEntity
  8
BORDER
100
AcDbLine
 10
24.597994
 20
10.849483
 30
0.0
 11
25.293541
 21
10.849483
 31
0.0
  0
LINE
  5
224A
100
AcDbEntity
  8
BORDER
100
AcDbLine
 10
25.293541
 20
11.881115
 30
0.0
 11
24.597994
 21
11.881115
 31
0.0
  0
LINE
  5
224B
100
AcDbEntity
  8
BORDER
100
AcDbLine
 10
24.597994
 20
11.881115
 30
0.0
 11
24.597994
 21
9.869145
 31
0.0
  0
ARC
  5
224C
100
AcDbEntity
  8
BORDER
100
AcDbCircle
 10
25.293541
 20
11.365299
 30
0.0
 40
0.515816
100
AcDbArc
 50
270.0
 51
90.0
  0
LINE
  5
224D
100
AcDbEntity
  8
BORDER
100
AcDbLine
 10
25.14869
 20
10.849483
 30
0.0
 11
25.947441
 21
9.869145
 31
0.0
  0
LINE
  5
224E
100
AcDbEntity
  8
BORDER
100
AcDbLine
 10
26.780638
 20
10.602759
 30
0.0
 11
27.77726
 21
10.602759
 31
0.0
  0
LINE
  5
224F
100
AcDbEntity
  8
BORDER
100
AcDbLine
 10
28.068209
 20
9.869145
 30
0.0
 11
27.270267
 21
11.881115
 31
0.0
  0
ARC
  5
2250
100
AcDbEntity
  8
BORDER
100
AcDbCircle
 10
33.245098
 20
10.87513
 30
0.0
 40
1.005985
100
AcDbArc
 50
270.0
 51
90.0
  0
LINE
  5
2251
100
AcDbEntity
  8
BORDER
100
AcDbLine
 10
32.485751
 20
11.881115
 30
0.0
 11
32.485751
 21
9.869145
 31
0.0
  0
LINE
  5
2252
100
AcDbEntity
  8
BORDER
100
AcDbLine
 10
32.485751
 20
9.869145
 30
0.0
 11
33.245098
 21
9.869145
 31
0.0
  0
LINE
  5
2253
100
AcDbEntity
  8
BORDER
100
AcDbLine
 10
33.245098
 20
11.881115
 30
0.0
 11
32.485751
 21
11.881115
 31
0.0
  0
ARC
  5
2254
102
{ACAD_REACTORS
330
2255
102
}
100
AcDbEntity
  8
BORDER
100
AcDbCircle
 10
32.290684
 20
13.560481
 30
0.0
 40
0.515369
100
AcDbArc
 50
180.0
 51
270.0
  0
HATCH
  5
2255
100
AcDbEntity
  8
BORDER
100
AcDbHatch
 10
0.0
 20
0.0
 30
0.0
210
0.0
220
0.0
230
1.0
  2
ANSI37
 70
     0
 71
     1
 91
        2
 92
        7
 72
     1
 73
     1
 93
       16
 10
31.04616565256583
 20
13.56048133280481
 42
-0.4142135623729124
 10
30.53079640884465
 20
13.04511208908394
 42
0.0
 10
30.29229899086436
 20
13.04511208908394
 42
0.0
 10
30.29229899086431
 20
12.90927100130692
 42
0.0
 10
32.52918149524612
 20
12.90927100130692
 42
0.0
 10
32.52918149524612
 20
13.04511208908393
 42
0.0
 10
32.29068407726686
 20
13.04511208908394
 42
-0.4142135623735596
 10
31.77531483354482
 20
13.56048133280515
 42
0.0
 10
31.77531483354482
 20
15.36675437900616
 42
0.0609117558027525
 10
32.67748307952024
 20
15.25561223347739
 42
0.4291497434355222
 10
34.27172511039623
 20
16.68811529610852
 42
0.3916311771492478
 10
32.71098200034714
 20
18.14956101333771
 42
0.0
 10
30.29617409122988
 20
18.14956101333771
 42
0.0
 10
30.29617409122983
 20
18.00571886702538
 42
0.0
 10
30.53079640884482
 20
18.00571886702538
 42
-0.4142135623729981
 10
31.04616565256583
 20
17.49034962330419
 42
0.0
 97
       16
330
220B
330
2257
330
225B
330
225F
330
225A
330
2258
330
2259
330
2260
330
225C
330
2256
330
2262
330
2261
330
2254
330
2264
330
2263
330
2266
 92
       22
 72
     1
 73
     1
 93
        3
 10
31.77531483354482
 20
17.76249218951416
 42
-0.5287425889412538
 10
33.39427352013274
 20
16.62636948780488
 42
-0.5439228899279119
 10
31.77531483354482
 20
15.56434127510947
 42
0.0
 97
        3
330
2267
330
2265
330
2268
 75
     0
 76
     1
 52
0.0
 41
0.037901
 77
     0
 78
     2
 53
45.0
 43
2.436937
 44
-123.961443
 45
-0.0033499708691682
 46
0.0033499708691682
 79
     0
 53
135.0
 43
2.436937
 44
-123.961443
 45
-0.0033499708691682
 46
-0.0033499708691682
 79
     0
 47
0.027301
 98
        2
 10
31.349964
 20
16.379994
 10
31.349964
 20
16.379994
  0
LINE
  5
2256
102
{ACAD_REACTORS
330
2255
102
}
100
AcDbEntity
  8
BORDER
100
AcDbLine
 10
30.292299
 20
12.909271
 30
0.0
 11
32.529181
 21
12.909271
 31
0.0
  0
LINE
  5
2257
102
{ACAD_REACTORS
330
2255
102
}
100
AcDbEntity
  8
BORDER
100
AcDbLine
 10
30.296174
 20
18.149561
 30
0.0
 11
32.710982
 21
18.149561
 31
0.0
  0
LINE
  5
2258
102
{ACAD_REACTORS
330
2255
102
}
100
AcDbEntity
  8
BORDER
100
AcDbLine
 10
31.046166
 20
13.560481
 30
0.0
 11
31.046166
 21
17.49035
 31
0.0
  0
ARC
  5
2259
102
{ACAD_REACTORS
330
2255
102
}
100
AcDbEntity
  8
BORDER
100
AcDbCircle
 10
30.530796
 20
13.560481
 30
0.0
 40
0.515369
100
AcDbArc
 50
270.0
 51
360.0
  0
ARC
  5
225A
102
{ACAD_REACTORS
330
2255
102
}
100
AcDbEntity
  8
BORDER
100
AcDbCircle
 10
30.530796
 20
17.49035
 30
0.0
 40
0.515369
100
AcDbArc
 50
0.0
 51
90.0
  0
LINE
  5
225B
102
{ACAD_REACTORS
330
2255
102
}
100
AcDbEntity
  8
BORDER
100
AcDbLine
 10
30.296174
 20
18.149561
 30
0.0
 11
30.296174
 21
18.005719
 31
0.0
  0
LINE
  5
225C
102
{ACAD_REACTORS
330
2255
102
}
100
AcDbEntity
  8
BORDER
100
AcDbLine
 10
30.292299
 20
13.045112
 30
0.0
 11
30.292299
 21
12.909271
 31
0.0
  0
HATCH
  5
225D
100
AcDbEntity
  8
BORDER
100
AcDbHatch
 10
0.0
 20
0.0
 30
0.0
210
0.0
220
0.0
230
1.0
  2
ANSI37
 70
     0
 71
     1
 91
        2
 92
        7
 72
     1
 73
     1
 93
       16
 10
26.64609437704644
 20
13.58033363371731
 42
-0.4142135623730741
 10
26.13072513332554
 20
13.06496438999638
 42
0.0
 10
25.89222771534514
 20
13.06496438999639
 42
0.0
 10
25.89222771534497
 20
12.92912330221834
 42
0.0
 10
28.12911021972746
 20
12.92912330221834
 42
0.0
 10
28.12911021972757
 20
13.06496438999639
 42
0.0
 10
27.89061280174701
 20
13.06496438999638
 42
-0.4142135623730749
 10
27.37524355802617
 20
13.58033363371726
 42
0.0
 10
27.37524355802617
 20
15.38660667991773
 42
0.0609117558023567
 10
28.27741180399561
 20
15.27546453438897
 42
0.4291497434370737
 10
29.87165383487683
 20
16.70796759702261
 42
0.3951020987304174
 10
28.29198323739052
 20
18.16941331424914
 42
0.0
 10
25.89610281571054
 20
18.16941331424913
 42
0.0
 10
25.89610281571066
 20
18.02557116793784
 42
0.0
 10
26.13072513332548
 20
18.02557116793784
 42
-0.414213562373103
 10
26.64609437704644
 20
17.5102019242169
 42
0.0
 97
        1
330
220E
 92
       22
 72
     1
 73
     1
 93
        3
 10
27.37524355802617
 20
17.78234449042532
 42
-0.5287425889465087
 10
28.99420224461363
 20
16.64622178869642
 42
-0.5439228899219494
 10
27.37524355802617
 20
15.58419357602166
 42
0.0
 97
        1
330
225E
 75
     0
 76
     1
 52
0.0
 41
0.037901
 77
     0
 78
     2
 53
45.0
 43
2.436937
 44
-123.961443
 45
-0.0033499708691682
 46
0.0033499708691682
 79
     0
 53
135.0
 43
2.436937
 44
-123.961443
 45
-0.0033499708691682
 46
-0.0033499708691682
 79
     0
 47
0.027301
 98
        2
 10
26.93874
 20
16.835275
 10
26.93874
 20
16.835275
  0
LWPOLYLINE
  5
225E
102
{ACAD_REACTORS
330
225D
102
}
100
AcDbEntity
  8
BORDER
100
AcDbPolyline
 90
        3
 70
     1
 43
0.0
 10
27.375244
 20
15.584194
 42
0.543923
 10
28.994202
 20
16.646222
 42
0.528743
 10
27.375244
 20
17.782344
  0
LINE
  5
225F
102
{ACAD_REACTORS
330
2255
102
}
100
AcDbEntity
  8
BORDER
100
AcDbLine
 10
30.296174
 20
18.005719
 30
0.0
 11
30.530796
 21
18.005719
 31
0.0
  0
LINE
  5
2260
102
{ACAD_REACTORS
330
2255
102
}
100
AcDbEntity
  8
BORDER
100
AcDbLine
 10
30.292299
 20
13.045112
 30
0.0
 11
30.530796
 21
13.045112
 31
0.0
  0
LINE
  5
2261
102
{ACAD_REACTORS
330
2255
102
}
100
AcDbEntity
  8
BORDER
100
AcDbLine
 10
32.290684
 20
13.045112
 30
0.0
 11
32.529181
 21
13.045112
 31
0.0
  0
LINE
  5
2262
102
{ACAD_REACTORS
330
2255
102
}
100
AcDbEntity
  8
BORDER
100
AcDbLine
 10
32.529181
 20
13.045112
 30
0.0
 11
32.529181
 21
12.909271
 31
0.0
  0
ARC
  5
2263
102
{ACAD_REACTORS
330
2255
102
}
100
AcDbEntity
  8
BORDER
100
AcDbCircle
 10
32.680867
 20
19.000213
 30
0.0
 40
3.744602
100
AcDbArc
 50
256.005504
 51
269.948223
  0
LINE
  5
2264
102
{ACAD_REACTORS
330
2255
102
}
100
AcDbEntity
  8
BORDER
100
AcDbLine
 10
31.775315
 20
15.366754
 30
0.0
 11
31.775315
 21
13.560481
 31
0.0
  0
ARC
  5
2265
102
{ACAD_REACTORS
330
2255
102
}
100
AcDbEntity
  8
BORDER
100
AcDbCircle
 10
32.241076
 20
16.61932
 30
0.0
 40
1.153219
100
AcDbArc
 50
246.179097
 51
0.350223
  0
ARC
  5
2266
102
{ACAD_REACTORS
330
2255
102
}
100
AcDbEntity
  8
BORDER
100
AcDbCircle
 10
32.793793
 20
16.729543
 30
0.0
 40
1.478513
100
AcDbArc
 50
265.488062
 51
358.394374
  0
ARC
  5
2267
102
{ACAD_REACTORS
330
2255
102
}
100
AcDbEntity
  8
BORDER
100
AcDbCircle
 10
32.197792
 20
16.642958
 30
0.0
 40
1.196597
100
AcDbArc
 50
359.205673
 51
110.674935
  0
LINE
  5
2268
102
{ACAD_REACTORS
330
2255
102
}
100
AcDbEntity
  8
BORDER
100
AcDbLine
 10
31.775315
 20
17.762492
 30
0.0
 11
31.775315
 21
15.564341
 31
0.0
  0
LINE
  5
2269
100
AcDbEntity
  8
BORDER
100
AcDbLine
 10
82.78616
 20
7.338673
 30
0.0
 11
82.78616
 21
12.920093
 31
0.0
  0
TEXT
  5
226A
100
AcDbEntity
  8
BORDER
 62
     6
100
AcDbText
 10
63.185549
 20
16.405136
 30
0.0
 40
1.097562
  1
CFM32x30x25
  7
ROMANC
100
AcDbText
  0
LINE
  5
226B
100
AcDbEntity
  8
BORDER
100
AcDbLine
 10
112.140852
 20
7.338673
 30
0.0
 11
139.738291
 21
7.338673
 31
0.0
  0
LINE
  5
226C
100
AcDbEntity
  8
BORDER
100
AcDbLine
 10
112.140852
 20
12.920093
 30
0.0
 11
139.738291
 21
12.920093
 31
0.0
  0
TEXT
  5
226D
100
AcDbEntity
  8
BORDER
 62
     6
100
AcDbText
 10
101.246348
 20
15.348405
 30
0.0
 40
0.918144
  1
in this print by any other source than TOPP INDUSTRIES, INC.
 41
0.839168
  7
ROMANS
 72
     5
 11
139.073079
 21
15.348405
 31
0.0
100
AcDbText
  0
TEXT
  5
226E
100
AcDbEntity
  8
BORDER
 62
     6
100
AcDbText
 10
101.246348
 20
16.834924
 30
0.0
 40
0.918144
  1
and will not be used to manufacture or procure the manufacture of the items shown
 41
0.600404
  7
ROMANS
 72
     5
 11
139.073079
 21
16.834924
 31
0.0
100
AcDbText
  0
LINE
  5
226F
100
AcDbEntity
  8
BORDER
100
AcDbLine
 10
112.140852
 20
12.920093
 30
0.0
 11
112.140852
 21
7.338673
 31
0.0
  0
LINE
  5
2270
100
AcDbEntity
  8
BORDER
100
AcDbLine
 10
110.3836
 20
12.920093
 30
0.0
 11
110.3836
 21
7.338673
 31
0.0
  0
TEXT
  5
2271
100
AcDbEntity
  8
BORDER
 62
     6
100
AcDbText
 10
95.153688
 20
8.321506
 30
0.0
 40
1.406579
  1
06/26/03
  7
ROMAND
100
AcDbText
  0
TEXT
  5
2272
100
AcDbEntity
  8
BORDER
 62
     6
100
AcDbText
 10
112.718476
 20
9.354898
 30
0.0
 40
1.097562
  1
No:
  7
ROMANC
100
AcDbText
  0
TEXT
  5
2273
100
AcDbEntity
  8
BORDER
 62
     6
100
AcDbText
 10
112.718476
 20
11.131904
 30
0.0
 40
1.097562
  1
Reference
  7
ROMANC
100
AcDbText
  0
LINE
  5
2274
100
AcDbEntity
  8
BORDER
100
AcDbLine
 10
139.738291
 20
12.920093
 30
0.0
 11
139.738291
 21
7.338673
 31
0.0
  0
TEXT
  5
2275
100
AcDbEntity
  8
BORDER
 62
     6
100
AcDbText
 10
122.106023
 20
8.586411
 30
0.0
 40
3.292687
  1
16074
  7
ROMANC
100
AcDbText
  0
LINE
  5
2276
100
AcDbEntity
  8
DIM
 62
     2
100
AcDbLine
 39
20.0
 10
104.692784
 20
51.553675
 30
0.0
 11
104.692784
 21
55.553675
 31
0.0
  0
LINE
  5
2277
100
AcDbEntity
  8
DIM
 62
     2
100
AcDbLine
 39
20.0
 10
104.442784
 20
51.553675
 30
0.0
 11
104.442784
 21
55.553675
 31
0.0
  0
LINE
  5
2278
100
AcDbEntity
  8
DIM
 62
     2
100
AcDbLine
 39
20.0
 10
104.692784
 20
55.553675
 30
0.0
 11
104.442784
 21
55.553675
 31
0.0
  0
LINE
  5
2279
100
AcDbEntity
  8
DIM
 62
     2
100
AcDbLine
 39
20.0
 10
104.692784
 20
51.553675
 30
0.0
 11
104.442784
 21
51.553675
 31
0.0
  0
LINE
  5
227A
100
AcDbEntity
  8
DIM
 62
     2
100
AcDbLine
 39
20.0
 10
106.817784
 20
51.553675
 30
0.0
 11
106.817784
 21
55.553675
 31
0.0
  0
LINE
  5
227B
100
AcDbEntity
  8
DIM
 62
     2
100
AcDbLine
 39
20.0
 10
104.942784
 20
55.553675
 30
0.0
 11
104.692784
 21
55.553675
 31
0.0
  0
LINE
  5
227C
100
AcDbEntity
  8
DIM
 62
     2
100
AcDbLine
 39
20.0
 10
104.942784
 20
51.553675
 30
0.0
 11
104.692784
 21
51.553675
 31
0.0
  0
LINE
  5
227D
100
AcDbEntity
  8
DIM
 62
     2
100
AcDbLine
 39
20.0
 10
104.692784
 20
55.553675
 30
0.0
 11
104.692784
 21
51.553675
 31
0.0
  0
LINE
  5
227E
100
AcDbEntity
  8
DIM
 62
     2
100
AcDbLine
 39
20.0
 10
104.942784
 20
55.553675
 30
0.0
 11
104.942784
 21
51.553675
 31
0.0
  0
LINE
  5
227F
100
AcDbEntity
  8
DIM
 62
     2
100
AcDbLine
 39
20.0
 10
102.817784
 20
51.553675
 30
0.0
 11
102.817784
 21
55.553675
 31
0.0
  0
LINE
  5
2280
100
AcDbEntity
  8
DIM
 62
     2
100
AcDbLine
 39
20.0
 10
102.817784
 20
78.115406
 30
0.0
 11
102.817784
 21
74.115406
 31
0.0
  0
LINE
  5
2281
100
AcDbEntity
  8
DIM
 62
     2
100
AcDbLine
 39
20.0
 10
104.942784
 20
74.115406
 30
0.0
 11
104.942784
 21
78.115406
 31
0.0
  0
LINE
  5
2282
100
AcDbEntity
  8
DIM
 62
     2
100
AcDbLine
 39
20.0
 10
104.692784
 20
74.115406
 30
0.0
 11
104.692784
 21
78.115406
 31
0.0
  0
LINE
  5
2283
100
AcDbEntity
  8
DIM
 62
     2
100
AcDbLine
 39
20.0
 10
104.942784
 20
78.115406
 30
0.0
 11
104.692784
 21
78.115406
 31
0.0
  0
LINE
  5
2284
100
AcDbEntity
  8
DIM
 62
     2
100
AcDbLine
 39
20.0
 10
104.942784
 20
74.115406
 30
0.0
 11
104.692784
 21
74.115406
 31
0.0
  0
LINE
  5
2285
100
AcDbEntity
  8
DIM
 62
     2
100
AcDbLine
 39
20.0
 10
106.817784
 20
78.115406
 30
0.0
 11
106.817784
 21
74.115406
 31
0.0
  0
LINE
  5
2286
100
AcDbEntity
  8
DIM
 62
     2
100
AcDbLine
 39
20.0
 10
104.692784
 20
78.115406
 30
0.0
 11
104.442784
 21
78.115406
 31
0.0
  0
LINE
  5
2287
100
AcDbEntity
  8
DIM
 62
     2
100
AcDbLine
 39
20.0
 10
104.692784
 20
74.115406
 30
0.0
 11
104.442784
 21
74.115406
 31
0.0
  0
LINE
  5
2288
100
AcDbEntity
  8
DIM
 62
     2
100
AcDbLine
 39
20.0
 10
104.442784
 20
78.115406
 30
0.0
 11
104.442784
 21
74.115406
 31
0.0
  0
LINE
  5
2289
100
AcDbEntity
  8
DIM
 62
     2
100
AcDbLine
 39
20.0
 10
104.692784
 20
78.115406
 30
0.0
 11
104.692784
 21
74.115406
 31
0.0
  0
LINE
  5
228A
100
AcDbEntity
  8
BORDER
100
AcDbLine
 10
23.527666
 20
19.457837
 30
0.0
 11
22.520977
 21
20.957201
 31
0.0
  0
LINE
  5
228B
100
AcDbEntity
  8
BORDER
100
AcDbLine
 10
21.509096
 20
18.781265
 30
0.0
 11
34.0452
 21
18.781265
 31
0.0
  0
LWPOLYLINE
  5
228C
100
AcDbEntity
  8
BORDER
 62
     5
100
AcDbPolyline
 90
        2
 70
     0
 43
1.223112
 10
8.806408
 20
26.908467
 10
35.714875
 20
26.908467
  0
LINE
  5
228D
100
AcDbEntity
  8
BORDER
100
AcDbLine
 10
8.806408
 20
24.462243
 30
0.0
 11
35.714875
 21
24.462243
 31
0.0
  0
ARC
  5
228E
100
AcDbEntity
  8
BORDER
100
AcDbCircle
 10
8.806408
 20
22.016019
 30
0.0
 40
2.446224
100
AcDbArc
 50
90.0
 51
180.0
  0
LWPOLYLINE
  5
228F
100
AcDbEntity
  8
BORDER
 62
     5
100
AcDbPolyline
 90
        2
 70
     0
 43
1.223112
 10
8.806408
 20
26.908467
 42
0.414214
 10
3.913959
 20
22.016019
 42
-0.560527
  0
LINE
  5
2290
102
{ACAD_REACTORS
330
2212
102
}
100
AcDbEntity
  8
BORDER
100
AcDbLine
 10
11.313559
 20
21.884581
 30
0.0
 11
21.173982
 21
21.884581
 31
0.0
  0
LINE
  5
2291
102
{ACAD_REACTORS
330
2212
102
}
100
AcDbEntity
  8
BORDER
100
AcDbLine
 10
14.065991
 20
21.247996
 30
0.0
 11
15.164901
 21
21.247996
 31
0.0
  0
LINE
  5
2292
102
{ACAD_REACTORS
330
2212
102
}
100
AcDbEntity
  8
BORDER
100
AcDbLine
 10
11.313559
 20
18.759529
 30
0.0
 11
11.313559
 21
21.884581
 31
0.0
  0
LINE
  5
2293
102
{ACAD_REACTORS
330
2212
102
}
100
AcDbEntity
  8
BORDER
100
AcDbLine
 10
11.313559
 20
18.759529
 30
0.0
 11
11.574176
 21
18.759529
 31
0.0
  0
ARC
  5
2294
102
{ACAD_REACTORS
330
2212
102
}
100
AcDbEntity
  8
BORDER
100
AcDbCircle
 10
14.065991
 20
18.75618
 30
0.0
 40
2.491815
100
AcDbArc
 50
90.0
 51
179.923004
  0
LINE
  5
2295
100
AcDbEntity
  8
BORDER
100
AcDbLine
 10
22.520977
 20
20.957201
 30
0.0
 11
22.520977
 21
19.457837
 31
0.0
  0
LINE
  5
2296
102
{ACAD_REACTORS
330
2212
102
}
100
AcDbEntity
  8
BORDER
100
AcDbLine
 10
21.173982
 20
18.759529
 30
0.0
 11
21.173982
 21
21.884581
 31
0.0
  0
LINE
  5
2297
100
AcDbEntity
  8
BORDER
100
AcDbLine
 10
21.630471
 20
20.926496
 30
0.0
 11
21.856563
 21
20.926496
 31
0.0
  0
LINE
  5
2298
100
AcDbEntity
  8
BORDER
100
AcDbLine
 10
21.856563
 20
20.926496
 30
0.0
 11
21.856563
 21
19.457837
 31
0.0
  0
LINE
  5
2299
102
{ACAD_REACTORS
330
2212
102
}
100
AcDbEntity
  8
BORDER
100
AcDbLine
 10
21.173982
 20
18.759529
 30
0.0
 11
20.913366
 21
18.759529
 31
0.0
  0
LINE
  5
229A
100
AcDbEntity
  8
BORDER
100
AcDbLine
 10
21.856563
 20
20.926496
 30
0.0
 11
22.082654
 21
20.926496
 31
0.0
  0
LINE
  5
229B
100
AcDbEntity
  8
BORDER
100
AcDbLine
 10
21.630471
 20
19.457837
 30
0.0
 11
22.082654
 21
19.457837
 31
0.0
  0
LINE
  5
229C
102
{ACAD_REACTORS
330
2212
102
}
100
AcDbEntity
  8
BORDER
100
AcDbLine
 10
18.42155
 20
21.247996
 30
0.0
 11
17.322641
 21
21.247996
 31
0.0
  0
ARC
  5
229D
102
{ACAD_REACTORS
330
2212
102
}
100
AcDbEntity
  8
BORDER
100
AcDbCircle
 10
18.42155
 20
18.75618
 30
0.0
 40
2.491815
100
AcDbArc
 50
0.076996
 51
90.0
  0
LINE
  5
229E
100
AcDbEntity
  8
OBJECT
100
AcDbLine
 10
104.692784
 20
82.834541
 30
0.0
 11
104.692784
 21
46.834541
 31
0.0
  0
LINE
  5
229F
100
AcDbEntity
  8
CENTER
100
AcDbLine
 10
91.442784
 20
44.606633
 30
0.0
 11
91.442784
 21
85.062448
 31
0.0
  0
LINE
  5
22A0
100
AcDbEntity
  8
OBJECT
100
AcDbLine
 10
104.442784
 20
46.834541
 30
0.0
 11
104.442784
 21
82.834541
 31
0.0
  0
LINE
  5
22A1
100
AcDbEntity
  8
OBJECT
100
AcDbLine
 10
72.442784
 20
46.834541
 30
0.0
 11
72.442784
 21
82.834541
 31
0.0
  0
LINE
  5
22A2
100
AcDbEntity
  8
OBJECT
100
AcDbLine
 10
110.442784
 20
46.834541
 30
0.0
 11
110.442784
 21
82.834541
 31
0.0
  0
LINE
  5
22A3
100
AcDbEntity
  8
DIM
100
AcDbLine
 10
65.061852
 20
48.084541
 30
0.0
 11
65.061852
 21
62.370255
 31
0.0
  0
DIMENSION
  5
22A4
100
AcDbEntity
  8
DIM
100
AcDbDimension
  2
*D18
 10
91.442784
 20
38.067013
 30
0.0
 11
100.192784
 21
38.067013
 31
0.0
 12
-480.43121
 22
-40.130527
 32
0.0
  3
STANDARD
100
AcDbAlignedDimension
 13
108.942784
 23
49.447152
 33
0.0
 14
91.442784
 24
44.606633
 34
0.0
100
AcDbRotatedDimension
1001
ACAD
1000
DSTYLE
1002
{
1070
    78
1070
     8
1070
   270
1070
     7
1070
   140
1040
1.5
1070
    74
1070
     0
1070
   172
1070
     1
1070
    73
1070
     0
1070
   147
1040
1.5
1070
    41
1040
2.0
1002
}
  0
TEXT
  5
22A5
100
AcDbEntity
  8
BORDER
 62
     6
100
AcDbText
 10
83.287546
 20
20.227918
 30
0.0
 40
1.097562
  1
Drawn By:
  7
ROMANC
100
AcDbText
  0
TEXT
  5
22A6
100
AcDbEntity
  8
BORDER
 62
     6
100
AcDbText
 10
83.287546
 20
22.843044
 30
0.0
 40
1.097562
  1
Scale: None
  7
ROMANC
100
AcDbText
  0
LINE
  5
22A7
100
AcDbEntity
  8
BORDER
100
AcDbLine
 10
82.78616
 20
24.462243
 30
0.0
 11
137.292067
 21
24.462243
 31
0.0
  0
LINE
  5
22A8
100
AcDbEntity
  8
OBJECT
100
AcDbLine
 10
110.442784
 20
46.834541
 30
0.0
 11
72.442784
 21
46.834541
 31
0.0
  0
LWPOLYLINE
  5
22A9
100
AcDbEntity
  8
BORDER
 62
     5
100
AcDbPolyline
 90
        2
 70
     0
 43
1.223112
 10
47.945997
 20
26.908467
 10
137.292067
 20
26.908467
  0
LINE
  5
22AA
100
AcDbEntity
  8
BORDER
100
AcDbLine
 10
47.945997
 20
24.462243
 30
0.0
 11
103.205176
 21
24.462243
 31
0.0
  0
LINE
  5
22AB
100
AcDbEntity
  8
DIM
100
AcDbLine
 10
72.442784
 20
46.772041
 30
0.0
 11
72.442784
 21
39.362301
 31
0.0
  0
LINE
  5
22AC
100
AcDbEntity
  8
DIM
100
AcDbLine
 10
78.442784
 20
51.991727
 30
0.0
 11
78.442784
 21
39.362301
 31
0.0
  0
SOLID
  5
22AD
100
AcDbEntity
  8
DIM
100
AcDbTrace
 10
73.692784
 20
39.750634
 30
0.0
 11
73.692784
 21
39.333968
 31
0.0
 12
72.442784
 22
39.542301
 32
0.0
 13
72.442784
 23
39.542301
 33
0.0
  0
SOLID
  5
22AE
100
AcDbEntity
  8
DIM
100
AcDbTrace
 10
77.192784
 20
39.750634
 30
0.0
 11
77.192784
 21
39.333968
 31
0.0
 12
78.442784
 22
39.542301
 32
0.0
 13
78.442784
 23
39.542301
 33
0.0
  0
INSERT
  5
22AF
100
AcDbEntity
  8
DIM
100
AcDbBlockReference
  2
*U6
 10
-283.227326
 20
-69.81323
 30
0.0
  0
TEXT
  5
22B0
100
AcDbEntity
  8
BORDER
 62
     6
100
AcDbText
 10
54.230936
 20
19.935861
 30
0.0
 40
0.946648
  1
Frogmouth Alum. Cover 
  7
ROMANC
100
AcDbText
  0
TEXT
  5
22B1
100
AcDbEntity
  8
BORDER
 62
     6
100
AcDbText
 10
46.755957
 20
22.373625
 30
0.0
 40
0.946648
  1
32"x30"x25" Rectangular Fiberglass Valvebox
  7
ROMANC
100
AcDbText
  0
LINE
  5
22B2
100
AcDbEntity
  8
BORDER
100
AcDbLine
 10
45.499772
 20
18.812965
 30
0.0
 11
82.78616
 21
18.812965
 31
0.0
  0
LWPOLYLINE
  5
22B3
100
AcDbEntity
  8
BORDER
 62
     5
100
AcDbPolyline
 90
        2
 70
     0
 43
1.223112
 10
35.714875
 20
26.908467
 42
-0.414214
 10
40.607324
 20
22.016019
 42
0.560527
  0
ARC
  5
22B4
100
AcDbEntity
  8
BORDER
100
AcDbCircle
 10
35.714875
 20
22.016019
 30
0.0
 40
2.446224
100
AcDbArc
 50
0.0
 51
90.0
  0
LINE
  5
22B5
100
AcDbEntity
  8
BORDER
100
AcDbLine
 10
31.178827
 20
20.926496
 30
0.0
 11
31.631011
 21
20.926496
 31
0.0
  0
LINE
  5
22B6
100
AcDbEntity
  8
BORDER
100
AcDbLine
 10
31.178827
 20
19.457837
 30
0.0
 11
31.631011
 21
19.457837
 31
0.0
  0
LINE
  5
22B7
100
AcDbEntity
  8
BORDER
100
AcDbLine
 10
31.404919
 20
20.926496
 30
0.0
 11
31.404919
 21
19.457837
 31
0.0
  0
LINE
  5
22B8
100
AcDbEntity
  8
BORDER
100
AcDbLine
 10
30.356509
 20
20.926496
 30
0.0
 11
29.822299
 21
20.926496
 31
0.0
  0
LINE
  5
22B9
100
AcDbEntity
  8
BORDER
100
AcDbLine
 10
29.822299
 20
20.18509
 30
0.0
 11
30.356509
 21
20.18509
 31
0.0
  0
LINE
  5
22BA
100
AcDbEntity
  8
BORDER
100
AcDbLine
 10
29.822299
 20
20.926496
 30
0.0
 11
29.822299
 21
19.457837
 31
0.0
  0
ARC
  5
22BB
100
AcDbEntity
  8
BORDER
100
AcDbCircle
 10
27.860311
 20
19.818459
 30
0.0
 40
0.207392
100
AcDbArc
 50
331.630608
 51
60.315223
  0
LINE
  5
22BC
100
AcDbEntity
  8
BORDER
100
AcDbLine
 10
28.907189
 20
20.926496
 30
0.0
 11
28.907189
 21
19.457837
 31
0.0
  0
LINE
  5
22BD
100
AcDbEntity
  8
BORDER
100
AcDbLine
 10
28.303818
 20
20.926496
 30
0.0
 11
29.510559
 21
20.926496
 31
0.0
  0
ARC
  5
22BE
100
AcDbEntity
  8
BORDER
100
AcDbCircle
 10
26.215525
 20
19.951115
 30
0.0
 40
0.493278
100
AcDbArc
 50
180.0
 51
0.0
  0
LINE
  5
22BF
100
AcDbEntity
  8
BORDER
100
AcDbLine
 10
25.722247
 20
19.951115
 30
0.0
 11
25.722247
 21
20.926496
 31
0.0
  0
LINE
  5
22C0
100
AcDbEntity
  8
BORDER
100
AcDbLine
 10
26.708802
 20
20.926496
 30
0.0
 11
26.708802
 21
19.951115
 31
0.0
  0
ARC
  5
22C1
100
AcDbEntity
  8
BORDER
100
AcDbCircle
 10
27.360706
 20
20.613401
 30
0.0
 40
0.207392
100
AcDbArc
 50
140.101426
 51
236.383068
  0
ARC
  5
22C2
100
AcDbEntity
  8
BORDER
100
AcDbCircle
 10
24.464439
 20
20.192167
 30
0.0
 40
0.73433
100
AcDbArc
 50
270.0
 51
90.0
  0
LINE
  5
22C3
100
AcDbEntity
  8
BORDER
100
AcDbLine
 10
24.151813
 20
20.926496
 30
0.0
 11
24.151813
 21
19.457837
 31
0.0
  0
LINE
  5
22C4
100
AcDbEntity
  8
BORDER
100
AcDbLine
 10
24.464439
 20
20.926496
 30
0.0
 11
24.151813
 21
20.926496
 31
0.0
  0
LINE
  5
22C5
100
AcDbEntity
  8
BORDER
100
AcDbLine
 10
24.151813
 20
19.457837
 30
0.0
 11
24.464439
 21
19.457837
 31
0.0
  0
LINE
  5
22C6
100
AcDbEntity
  8
BORDER
100
AcDbLine
 10
23.527666
 20
20.926496
 30
0.0
 11
23.527666
 21
19.457837
 31
0.0
  0
ARC
  5
22C7
100
AcDbEntity
  8
BORDER
100
AcDbCircle
 10
34.043215
 20
30.66494
 30
0.0
 40
12.277577
100
AcDbArc
 50
236.383068
 51
240.315223
  0
ARC
  5
22C8
100
AcDbEntity
  8
BORDER
100
AcDbCircle
 10
27.624768
 20
19.923565
 30
0.0
 40
0.464994
100
AcDbArc
 50
200.502447
 51
334.026213
  0
ARC
  5
22C9
100
AcDbEntity
  8
BORDER
100
AcDbCircle
 10
27.565646
 20
20.472575
 30
0.0
 40
0.45555
100
AcDbArc
 50
25.379638
 51
143.047804
  0
ARC
  5
22CA
100
AcDbEntity
  8
BORDER
100
AcDbCircle
 10
30.356509
 20
20.555793
 30
0.0
 40
0.370703
100
AcDbArc
 50
270.0
 51
90.0
  0
LINE
  5
22CB
100
AcDbEntity
  8
BORDER
100
AcDbLine
 10
30.254106
 20
20.18509
 30
0.0
 11
30.719899
 21
19.457837
 31
0.0
  0
ARC
  5
22CC
100
AcDbEntity
  8
BORDER
100
AcDbCircle
 10
33.469775
 20
20.613401
 30
0.0
 40
0.207392
100
AcDbArc
 50
140.101426
 51
236.383068
  0
ARC
  5
22CD
100
AcDbEntity
  8
BORDER
100
AcDbCircle
 10
40.152284
 20
30.66494
 30
0.0
 40
12.277577
100
AcDbArc
 50
236.383068
 51
240.315223
  0
ARC
  5
22CE
100
AcDbEntity
  8
BORDER
100
AcDbCircle
 10
33.96938
 20
19.818459
 30
0.0
 40
0.207392
100
AcDbArc
 50
331.630608
 51
60.315223
  0
ARC
  5
22CF
100
AcDbEntity
  8
BORDER
100
AcDbCircle
 10
33.674715
 20
20.472575
 30
0.0
 40
0.45555
100
AcDbArc
 50
25.379638
 51
143.047804
  0
ARC
  5
22D0
100
AcDbEntity
  8
BORDER
100
AcDbCircle
 10
33.733837
 20
19.923565
 30
0.0
 40
0.464994
100
AcDbArc
 50
200.502447
 51
334.026213
  0
LINE
  5
22D1
100
AcDbEntity
  8
BORDER
100
AcDbLine
 10
32.085592
 20
20.192167
 30
0.0
 11
32.776877
 21
20.192167
 31
0.0
  0
LINE
  5
22D2
100
AcDbEntity
  8
BORDER
100
AcDbLine
 10
32.085592
 20
19.457837
 30
0.0
 11
32.085592
 21
20.926496
 31
0.0
  0
LINE
  5
22D3
100
AcDbEntity
  8
BORDER
100
AcDbLine
 10
32.085592
 20
20.926496
 30
0.0
 11
32.969639
 21
20.926496
 31
0.0
  0
LINE
  5
22D4
100
AcDbEntity
  8
BORDER
100
AcDbLine
 10
32.969639
 20
19.457837
 30
0.0
 11
32.085592
 21
19.457837
 31
0.0
  0
ARC
  5
22D5
100
AcDbEntity
  8
BORDER
100
AcDbCircle
 10
47.945997
 20
22.016019
 30
0.0
 40
2.446224
100
AcDbArc
 50
90.0
 51
180.0
  0
LWPOLYLINE
  5
22D6
100
AcDbEntity
  8
BORDER
 62
     5
100
AcDbPolyline
 90
        2
 70
     0
 43
1.223112
 10
47.945997
 20
26.908467
 42
0.414214
 10
43.053548
 20
22.016019
 42
-0.560527
  0
LINE
  5
22D7
100
AcDbEntity
  8
DIM
100
AcDbLine
 10
68.58912
 20
53.584541
 30
0.0
 11
68.58912
 21
48.084541
 31
0.0
  0
INSERT
  5
22D8
100
AcDbEntity
  8
DIM
100
AcDbBlockReference
  2
*U3
 10
-283.227326
 20
-69.81323
 30
0.0
  0
LINE
  5
22D9
100
AcDbEntity
  8
DIM
100
AcDbLine
 10
68.58912
 20
46.834541
 30
0.0
 11
68.58912
 21
45.584541
 31
0.0
  0
SOLID
  5
22DA
100
AcDbEntity
  8
DIM
100
AcDbTrace
 10
68.380787
 20
48.084541
 30
0.0
 11
68.797453
 21
48.084541
 31
0.0
 12
68.58912
 22
46.834541
 32
0.0
 13
68.58912
 23
46.834541
 33
0.0
  0
LINE
  5
22DB
100
AcDbEntity
  8
DIM
100
AcDbLine
 10
72.380284
 20
46.834541
 30
0.0
 11
68.683804
 21
46.834541
 31
0.0
  0
LINE
  5
22DC
100
AcDbEntity
  8
DIM
100
AcDbLine
 10
72.380284
 20
46.834541
 30
0.0
 11
68.40912
 21
46.834541
 31
0.0
  0
SOLID
  5
22DD
100
AcDbEntity
  8
DIM
100
AcDbTrace
 10
64.853519
 20
48.084541
 30
0.0
 11
65.270185
 21
48.084541
 31
0.0
 12
65.061852
 22
46.834541
 32
0.0
 13
65.061852
 23
46.834541
 33
0.0
  0
LINE
  5
22DE
100
AcDbEntity
  8
DIM
100
AcDbLine
 10
72.380284
 20
46.834541
 30
0.0
 11
64.881852
 21
46.834541
 31
0.0
  0
LINE
  5
22DF
100
AcDbEntity
  8
DIM
100
AcDbLine
 10
73.692784
 20
39.542301
 30
0.0
 11
77.192784
 21
39.542301
 31
0.0
  0
LINE
  5
22E0
100
AcDbEntity
  8
DIM
100
AcDbLine
 10
78.442784
 20
39.542301
 30
0.0
 11
79.692784
 21
39.542301
 31
0.0
  0
LINE
  5
22E1
100
AcDbEntity
  8
DIM
100
AcDbLine
 10
77.000666
 20
54.834541
 30
0.0
 11
68.40912
 21
54.834541
 31
0.0
  0
SOLID
  5
22E2
100
AcDbEntity
  8
DIM
100
AcDbTrace
 10
68.380787
 20
53.584541
 30
0.0
 11
68.797453
 21
53.584541
 31
0.0
 12
68.58912
 22
54.834541
 32
0.0
 13
68.58912
 23
54.834541
 33
0.0
  0
LINE
  5
22E3
100
AcDbEntity
  8
CENTER
100
AcDbLine
 10
78.442784
 20
52.345767
 30
0.0
 11
78.442784
 21
57.325933
 31
0.0
  0
LINE
  5
22E4
100
AcDbEntity
  8
OBJECT
100
AcDbLine
 10
78.911534
 20
55.334541
 30
0.0
 11
78.911534
 21
56.897041
 31
0.0
  0
LINE
  5
22E5
100
AcDbEntity
  8
OBJECT
100
AcDbLine
 10
77.974034
 20
56.897041
 30
0.0
 11
77.974034
 21
55.334541
 31
0.0
  0
LINE
  5
22E6
100
AcDbEntity
  8
OBJECT
100
AcDbLine
 10
78.817784
 20
52.865791
 30
0.0
 11
78.817784
 21
56.803291
 31
0.0
  0
LINE
  5
22E7
100
AcDbEntity
  8
OBJECT
100
AcDbLine
 10
78.067784
 20
56.803291
 30
0.0
 11
78.067784
 21
52.865791
 31
0.0
  0
LINE
  5
22E8
100
AcDbEntity
  8
OBJECT
100
AcDbLine
 10
77.974034
 20
54.334541
 30
0.0
 11
77.974034
 21
52.772041
 31
0.0
  0
LINE
  5
22E9
100
AcDbEntity
  8
OBJECT
100
AcDbLine
 10
77.974034
 20
52.772041
 30
0.0
 11
78.911534
 21
52.772041
 31
0.0
  0
LINE
  5
22EA
100
AcDbEntity
  8
OBJECT
100
AcDbLine
 10
78.911534
 20
52.772041
 30
0.0
 11
78.911534
 21
54.334541
 31
0.0
  0
ARC
  5
22EB
100
AcDbEntity
  8
OBJECT
100
AcDbCircle
 10
77.974034
 20
54.834541
 30
0.0
 40
0.5
100
AcDbArc
 50
90.0
 51
270.0
  0
LINE
  5
22EC
100
AcDbEntity
  8
OBJECT
100
AcDbLine
 10
78.817784
 20
52.865791
 30
0.0
 11
78.067784
 21
52.865791
 31
0.0
  0
LINE
  5
22ED
100
AcDbEntity
  8
CENTER
100
AcDbLine
 10
79.622547
 20
54.834541
 30
0.0
 11
77.284113
 21
54.834541
 31
0.0
  0
ARC
  5
22EE
100
AcDbEntity
  8
OBJECT
100
AcDbCircle
 10
78.911534
 20
54.834541
 30
0.0
 40
0.5
100
AcDbArc
 50
270.0
 51
90.0
  0
LINE
  5
22EF
100
AcDbEntity
  8
OBJECT
100
AcDbLine
 10
78.911534
 20
56.897041
 30
0.0
 11
77.974034
 21
56.897041
 31
0.0
  0
LINE
  5
22F0
100
AcDbEntity
  8
OBJECT
100
AcDbLine
 10
78.817784
 20
56.803291
 30
0.0
 11
78.067784
 21
56.803291
 31
0.0
  0
TEXT
  5
22F1
100
AcDbEntity
  8
BORDER
 62
     6
100
AcDbText
 10
101.246348
 20
19.807961
 30
0.0
 40
0.918144
  1
restriction includes, but is not limited to the condition that this print will not only
 41
0.626489
  7
ROMANS
 72
     5
 11
139.073079
 21
19.807961
 31
0.0
100
AcDbText
  0
TEXT
  5
22F2
100
AcDbEntity
  8
BORDER
 62
     6
100
AcDbText
 10
101.246348
 20
21.294479
 30
0.0
 40
0.918144
  1
by TOPP INDUSTRIES, INC. It is furnished on a strictly confidential basis.  This
 41
0.659437
  7
ROMANS
 72
     5
 11
139.073079
 21
21.294479
 31
0.0
100
AcDbText
  0
TEXT
  5
22F3
100
AcDbEntity
  8
BORDER
 62
     6
100
AcDbText
 10
101.246348
 20
22.780998
 30
0.0
 40
0.918144
  1
This print is and contains confidential proprietary information owned exclusively
 41
0.656934
  7
ROMANS
 72
     5
 11
139.073079
 21
22.780998
 31
0.0
100
AcDbText
  0
TEXT
  5
22F4
100
AcDbEntity
  8
BORDER
 62
     6
100
AcDbText
 10
93.360136
 20
20.111028
 30
0.0
 40
1.496975
  1
RM
  7
COUNTRYBLUEPRINT
100
AcDbText
  0
ARC
  5
22F5
100
AcDbEntity
  8
BORDER
100
AcDbCircle
 10
137.292067
 20
22.016019
 30
0.0
 40
2.446224
100
AcDbArc
 50
0.0
 51
90.0
  0
LWPOLYLINE
  5
22F6
100
AcDbEntity
  8
BORDER
 62
     5
100
AcDbPolyline
 90
        2
 70
     0
 43
1.223112
 10
137.292067
 20
26.908467
 42
-0.414214
 10
142.184516
 20
22.016019
 42
0.560527
  0
LWPOLYLINE
  5
22F7
100
AcDbEntity
  8
BORDER
 62
     5
100
AcDbPolyline
 90
        2
 70
     0
 43
1.223112
 10
149.523188
 20
26.908467
 42
0.414214
 10
144.63074
 20
22.016019
 42
-0.560527
  0
ARC
  5
22F8
100
AcDbEntity
  8
BORDER
100
AcDbCircle
 10
149.523188
 20
22.016019
 30
0.0
 40
2.446224
100
AcDbArc
 50
90.0
 51
180.0
  0
TEXT
  5
22F9
100
AcDbEntity
  8
BORDER
 62
     6
100
AcDbText
 10
150.165043
 20
18.26409
 30
0.0
 40
1.223112
  1
1
  7
ROMAND
100
AcDbText
  0
DIMENSION
  5
22FA
100
AcDbEntity
  8
DIM
100
AcDbDimension
  2
*D17
 10
115.275763
 20
46.834541
 30
0.0
 11
115.275763
 21
40.834541
 31
0.0
 12
-480.43121
 22
-40.130527
 32
0.0
  3
STANDARD
100
AcDbAlignedDimension
 13
109.330173
 23
49.834541
 33
0.0
 14
110.442784
 24
46.834541
 34
0.0
 50
90.0
100
AcDbRotatedDimension
1001
ACAD
1000
DSTYLE
1002
{
1070
    78
1070
     8
1070
   140
1040
1.5
1070
    74
1070
     0
1070
    73
1070
     0
1070
   147
1040
1.5
1070
    41
1040
2.0
1002
}
  0
LINE
  5
22FB
100
AcDbEntity
  8
CENTER
100
AcDbLine
 10
108.942784
 20
50.221929
 30
0.0
 11
108.942784
 21
49.834541
 31
0.0
  0
TEXT
  5
22FC
100
AcDbEntity
  8
15
 62
     6
100
AcDbText
 10
91.091624
 20
41.592581
 30
0.0
 40
1.5
  1
L
  7
ROMANS
100
AcDbText
  0
TEXT
  5
22FD
100
AcDbEntity
  8
15
 62
     6
100
AcDbText
 10
90.580779
 20
42.33358
 30
0.0
 40
1.5
  1
C
  7
ROMANS
100
AcDbText
  0
LINE
  5
22FE
100
AcDbEntity
  8
CENTER
100
AcDbLine
 10
108.555396
 20
49.834541
 30
0.0
 11
108.942784
 21
49.834541
 31
0.0
  0
LINE
  5
22FF
100
AcDbEntity
  8
CENTER
100
AcDbLine
 10
108.942784
 20
49.447152
 30
0.0
 11
108.942784
 21
49.834541
 31
0.0
  0
LINE
  5
2300
100
AcDbEntity
  8
CENTER
100
AcDbLine
 10
109.330173
 20
49.834541
 30
0.0
 11
108.942784
 21
49.834541
 31
0.0
  0
CIRCLE
  5
2301
100
AcDbEntity
  8
OBJECT
100
AcDbCircle
 10
108.942784
 20
49.834541
 30
0.0
 40
0.19
  0
LINE
  5
2302
100
AcDbEntity
  8
OBJECT
100
AcDbLine
 10
104.942784
 20
55.553675
 30
0.0
 11
106.817784
 21
55.553675
 31
0.0
  0
LINE
  5
2303
100
AcDbEntity
  8
OBJECT
100
AcDbLine
 10
104.942784
 20
51.553675
 30
0.0
 11
106.817784
 21
51.553675
 31
0.0
  0
LINE
  5
2304
100
AcDbEntity
  8
15
 62
     2
100
AcDbLine
 10
104.692784
 20
52.426471
 30
0.0
 11
104.442784
 21
52.426471
 31
0.0
  0
LINE
  5
2305
100
AcDbEntity
  8
15
 62
     2
100
AcDbLine
 10
104.692784
 20
52.363971
 30
0.0
 11
104.442784
 21
52.363971
 31
0.0
  0
LINE
  5
2306
100
AcDbEntity
  8
15
 62
     2
100
AcDbLine
 10
104.942784
 20
52.426471
 30
0.0
 11
104.692784
 21
52.426471
 31
0.0
  0
LINE
  5
2307
100
AcDbEntity
  8
15
 62
     2
100
AcDbLine
 10
104.942784
 20
52.363971
 30
0.0
 11
104.692784
 21
52.363971
 31
0.0
  0
LINE
  5
2308
100
AcDbEntity
  8
OBJECT
100
AcDbLine
 10
102.817784
 20
51.553675
 30
0.0
 11
104.692784
 21
51.553675
 31
0.0
  0
LINE
  5
2309
100
AcDbEntity
  8
15
 62
     2
100
AcDbLine
 10
104.692784
 20
53.179386
 30
0.0
 11
104.442784
 21
53.179386
 31
0.0
  0
LINE
  5
230A
100
AcDbEntity
  8
15
 62
     2
100
AcDbLine
 10
104.692784
 20
53.241886
 30
0.0
 11
104.442784
 21
53.241886
 31
0.0
  0
LINE
  5
230B
100
AcDbEntity
  8
15
 62
     2
100
AcDbLine
 10
104.692784
 20
53.866886
 30
0.0
 11
104.442784
 21
53.866886
 31
0.0
  0
LINE
  5
230C
100
AcDbEntity
  8
15
 62
     2
100
AcDbLine
 10
104.692784
 20
53.929386
 30
0.0
 11
104.442784
 21
53.929386
 31
0.0
  0
LINE
  5
230D
100
AcDbEntity
  8
15
 62
     2
100
AcDbLine
 10
104.692784
 20
54.743379
 30
0.0
 11
104.442784
 21
54.743379
 31
0.0
  0
LINE
  5
230E
100
AcDbEntity
  8
15
 62
     2
100
AcDbLine
 10
104.692784
 20
54.680879
 30
0.0
 11
104.442784
 21
54.680879
 31
0.0
  0
LINE
  5
230F
100
AcDbEntity
  8
15
 62
     2
100
AcDbLine
 10
104.942784
 20
53.177964
 30
0.0
 11
104.692784
 21
53.177964
 31
0.0
  0
LINE
  5
2310
100
AcDbEntity
  8
15
 62
     2
100
AcDbLine
 10
104.942784
 20
53.240464
 30
0.0
 11
104.692784
 21
53.240464
 31
0.0
  0
LINE
  5
2311
100
AcDbEntity
  8
15
 62
     2
100
AcDbLine
 10
104.942784
 20
54.743379
 30
0.0
 11
104.692784
 21
54.743379
 31
0.0
  0
LINE
  5
2312
100
AcDbEntity
  8
15
 62
     2
100
AcDbLine
 10
104.942784
 20
54.680879
 30
0.0
 11
104.692784
 21
54.680879
 31
0.0
  0
LINE
  5
2313
100
AcDbEntity
  8
15
 62
     2
100
AcDbLine
 10
104.942784
 20
53.865464
 30
0.0
 11
104.692784
 21
53.865464
 31
0.0
  0
LINE
  5
2314
100
AcDbEntity
  8
15
 62
     2
100
AcDbLine
 10
104.942784
 20
53.927964
 30
0.0
 11
104.692784
 21
53.927964
 31
0.0
  0
LINE
  5
2315
100
AcDbEntity
  8
OBJECT
100
AcDbLine
 10
102.817784
 20
55.553675
 30
0.0
 11
104.692784
 21
55.553675
 31
0.0
  0
LINE
  5
2316
100
AcDbEntity
  8
CENTER
100
AcDbLine
 10
109.330173
 20
59.834541
 30
0.0
 11
108.942784
 21
59.834541
 31
0.0
  0
LINE
  5
2317
100
AcDbEntity
  8
CENTER
100
AcDbLine
 10
108.555396
 20
59.834541
 30
0.0
 11
108.942784
 21
59.834541
 31
0.0
  0
CIRCLE
  5
2318
100
AcDbEntity
  8
OBJECT
100
AcDbCircle
 10
108.942784
 20
59.834541
 30
0.0
 40
0.19
  0
LINE
  5
2319
100
AcDbEntity
  8
CENTER
100
AcDbLine
 10
108.942784
 20
60.221929
 30
0.0
 11
108.942784
 21
59.834541
 31
0.0
  0
LINE
  5
231A
100
AcDbEntity
  8
CENTER
100
AcDbLine
 10
108.942784
 20
59.447152
 30
0.0
 11
108.942784
 21
59.834541
 31
0.0
  0
LINE
  5
231B
100
AcDbEntity
  8
CENTER
100
AcDbLine
 10
113.142937
 20
64.834541
 30
0.0
 11
69.742632
 21
64.834541
 31
0.0
  0
LINE
  5
231C
100
AcDbEntity
  8
OBJECT
100
AcDbLine
 10
110.442784
 20
82.834541
 30
0.0
 11
72.442784
 21
82.834541
 31
0.0
  0
LINE
  5
231D
100
AcDbEntity
  8
DIM
100
AcDbLine
 10
50.125285
 20
99.679607
 30
0.0
 11
132.190695
 21
99.679607
 31
0.0
  0
SOLID
  5
231E
100
AcDbEntity
  8
DIM
100
AcDbTrace
 10
64.853519
 20
81.584541
 30
0.0
 11
65.270185
 21
81.584541
 31
0.0
 12
65.061852
 22
82.834541
 32
0.0
 13
65.061852
 23
82.834541
 33
0.0
  0
LINE
  5
231F
100
AcDbEntity
  8
DIM
100
AcDbLine
 10
65.061852
 20
81.584541
 30
0.0
 11
65.061852
 21
67.298826
 31
0.0
  0
INSERT
  5
2320
100
AcDbEntity
  8
DIM
100
AcDbBlockReference
  2
*U10
 10
-283.227326
 20
-69.81323
 30
0.0
  0
CIRCLE
  5
2321
100
AcDbEntity
  8
OBJECT
100
AcDbCircle
 10
74.268311
 20
64.834541
 30
0.0
 40
0.706336
  0
CIRCLE
  5
2322
100
AcDbEntity
  8
OBJECT
100
AcDbCircle
 10
74.268311
 20
64.834541
 30
0.0
 40
0.375
  0
SOLID
  5
2323
100
AcDbEntity
  8
DIM
100
AcDbTrace
 10
73.692784
 20
91.245253
 30
0.0
 11
73.692784
 21
90.828586
 31
0.0
 12
72.442784
 22
91.036919
 32
0.0
 13
72.442784
 23
91.036919
 33
0.0
  0
LINE
  5
2324
100
AcDbEntity
  8
DIM
100
AcDbLine
 10
72.442784
 20
82.897041
 30
0.0
 11
72.442784
 21
91.216919
 31
0.0
  0
LINE
  5
2325
100
AcDbEntity
  8
DIM
100
AcDbLine
 10
72.380284
 20
82.834541
 30
0.0
 11
64.881852
 21
82.834541
 31
0.0
  0
LINE
  5
2326
100
AcDbEntity
  8
DIM
100
AcDbLine
 10
73.692784
 20
91.036919
 30
0.0
 11
88.978499
 21
91.036919
 31
0.0
  0
DIMENSION
  5
2327
100
AcDbEntity
  8
DIM
100
AcDbDimension
  2
*D16
 10
115.214479
 20
82.834541
 30
0.0
 11
115.214479
 21
88.834541
 31
0.0
 12
-480.43121
 22
-40.130527
 32
0.0
  3
STANDARD
100
AcDbAlignedDimension
 13
109.330173
 23
79.834541
 33
0.0
 14
110.442784
 24
82.834541
 34
0.0
 50
90.0
100
AcDbRotatedDimension
1001
ACAD
1000
DSTYLE
1002
{
1070
    78
1070
     8
1070
   140
1040
1.5
1070
    74
1070
     0
1070
    73
1070
     0
1070
   147
1040
1.5
1070
    41
1040
2.0
1002
}
  0
LEADER
  5
2328
100
AcDbEntity
  8
DIM
100
AcDbLeader
  3
STANDARD
 76
     2
 10
109.130317
 20
69.804018
 30
0.0
 10
126.597086
 20
66.147193
 30
0.0
 77
   256
1001
ACAD
1000
DSTYLE
1002
{
1070
    78
1070
     8
1070
   270
1070
     7
1070
   140
1040
1.5
1070
    74
1070
     0
1070
   172
1070
     1
1070
    73
1070
     0
1070
   147
1040
1.5
1070
    41
1040
2.0
1002
}
  0
TEXT
  5
2329
100
AcDbEntity
  8
15
 62
     6
100
AcDbText
 10
113.53716
 20
64.220656
 30
0.0
 40
1.5
  1
C
  7
ROMANS
100
AcDbText
  0
TEXT
  5
232A
100
AcDbEntity
  8
15
 62
     6
100
AcDbText
 10
114.048005
 20
63.479658
 30
0.0
 40
1.5
  1
L
  7
ROMANS
100
AcDbText
  0
LINE
  5
232B
100
AcDbEntity
  8
CENTER
100
AcDbLine
 10
108.942784
 20
70.221929
 30
0.0
 11
108.942784
 21
69.834541
 31
0.0
  0
LINE
  5
232C
100
AcDbEntity
  8
CENTER
100
AcDbLine
 10
108.942784
 20
69.447152
 30
0.0
 11
108.942784
 21
69.834541
 31
0.0
  0
CIRCLE
  5
232D
100
AcDbEntity
  8
OBJECT
100
AcDbCircle
 10
108.942784
 20
69.834541
 30
0.0
 40
0.19
  0
LINE
  5
232E
100
AcDbEntity
  8
CENTER
100
AcDbLine
 10
108.555396
 20
69.834541
 30
0.0
 11
108.942784
 21
69.834541
 31
0.0
  0
LINE
  5
232F
100
AcDbEntity
  8
CENTER
100
AcDbLine
 10
109.330173
 20
69.834541
 30
0.0
 11
108.942784
 21
69.834541
 31
0.0
  0
LINE
  5
2330
100
AcDbEntity
  8
OBJECT
100
AcDbLine
 10
104.942784
 20
78.115406
 30
0.0
 11
106.817784
 21
78.115406
 31
0.0
  0
LINE
  5
2331
100
AcDbEntity
  8
OBJECT
100
AcDbLine
 10
104.942784
 20
74.115406
 30
0.0
 11
106.817784
 21
74.115406
 31
0.0
  0
LINE
  5
2332
100
AcDbEntity
  8
OBJECT
100
AcDbLine
 10
102.817784
 20
74.115406
 30
0.0
 11
104.692784
 21
74.115406
 31
0.0
  0
LINE
  5
2333
100
AcDbEntity
  8
15
 62
     2
100
AcDbLine
 10
104.942784
 20
75.741117
 30
0.0
 11
104.692784
 21
75.741117
 31
0.0
  0
LINE
  5
2334
100
AcDbEntity
  8
15
 62
     2
100
AcDbLine
 10
104.942784
 20
75.803617
 30
0.0
 11
104.692784
 21
75.803617
 31
0.0
  0
LINE
  5
2335
100
AcDbEntity
  8
15
 62
     2
100
AcDbLine
 10
104.942784
 20
74.988202
 30
0.0
 11
104.692784
 21
74.988202
 31
0.0
  0
LINE
  5
2336
100
AcDbEntity
  8
15
 62
     2
100
AcDbLine
 10
104.942784
 20
74.925702
 30
0.0
 11
104.692784
 21
74.925702
 31
0.0
  0
LINE
  5
2337
100
AcDbEntity
  8
15
 62
     2
100
AcDbLine
 10
104.942784
 20
76.428617
 30
0.0
 11
104.692784
 21
76.428617
 31
0.0
  0
LINE
  5
2338
100
AcDbEntity
  8
15
 62
     2
100
AcDbLine
 10
104.942784
 20
76.491117
 30
0.0
 11
104.692784
 21
76.491117
 31
0.0
  0
LINE
  5
2339
100
AcDbEntity
  8
15
 62
     2
100
AcDbLine
 10
104.692784
 20
74.988202
 30
0.0
 11
104.442784
 21
74.988202
 31
0.0
  0
LINE
  5
233A
100
AcDbEntity
  8
15
 62
     2
100
AcDbLine
 10
104.692784
 20
74.925702
 30
0.0
 11
104.442784
 21
74.925702
 31
0.0
  0
LINE
  5
233B
100
AcDbEntity
  8
15
 62
     2
100
AcDbLine
 10
104.692784
 20
75.739695
 30
0.0
 11
104.442784
 21
75.739695
 31
0.0
  0
LINE
  5
233C
100
AcDbEntity
  8
15
 62
     2
100
AcDbLine
 10
104.692784
 20
75.802195
 30
0.0
 11
104.442784
 21
75.802195
 31
0.0
  0
LINE
  5
233D
100
AcDbEntity
  8
15
 62
     2
100
AcDbLine
 10
104.692784
 20
76.427195
 30
0.0
 11
104.442784
 21
76.427195
 31
0.0
  0
LINE
  5
233E
100
AcDbEntity
  8
15
 62
     2
100
AcDbLine
 10
104.692784
 20
76.489695
 30
0.0
 11
104.442784
 21
76.489695
 31
0.0
  0
LINE
  5
233F
100
AcDbEntity
  8
OBJECT
100
AcDbLine
 10
102.817784
 20
78.115406
 30
0.0
 11
104.692784
 21
78.115406
 31
0.0
  0
LINE
  5
2340
100
AcDbEntity
  8
15
 62
     2
100
AcDbLine
 10
104.942784
 20
77.30511
 30
0.0
 11
104.692784
 21
77.30511
 31
0.0
  0
LINE
  5
2341
100
AcDbEntity
  8
15
 62
     2
100
AcDbLine
 10
104.942784
 20
77.24261
 30
0.0
 11
104.692784
 21
77.24261
 31
0.0
  0
LINE
  5
2342
100
AcDbEntity
  8
15
 62
     2
100
AcDbLine
 10
104.692784
 20
77.30511
 30
0.0
 11
104.442784
 21
77.30511
 31
0.0
  0
LINE
  5
2343
100
AcDbEntity
  8
15
 62
     2
100
AcDbLine
 10
104.692784
 20
77.24261
 30
0.0
 11
104.442784
 21
77.24261
 31
0.0
  0
LINE
  5
2344
100
AcDbEntity
  8
CENTER
100
AcDbLine
 10
108.555396
 20
79.834541
 30
0.0
 11
108.942784
 21
79.834541
 31
0.0
  0
LINE
  5
2345
100
AcDbEntity
  8
CENTER
100
AcDbLine
 10
108.942784
 20
79.447152
 30
0.0
 11
108.942784
 21
79.834541
 31
0.0
  0
LINE
  5
2346
100
AcDbEntity
  8
CENTER
100
AcDbLine
 10
109.330173
 20
79.834541
 30
0.0
 11
108.942784
 21
79.834541
 31
0.0
  0
CIRCLE
  5
2347
100
AcDbEntity
  8
OBJECT
100
AcDbCircle
 10
108.942784
 20
79.834541
 30
0.0
 40
0.19
  0
LINE
  5
2348
100
AcDbEntity
  8
CENTER
100
AcDbLine
 10
108.942784
 20
80.221929
 30
0.0
 11
108.942784
 21
79.834541
 31
0.0
  0
TEXT
  5
2349
100
AcDbEntity
  8
DIM
100
AcDbText
 10
128.914644
 20
63.057303
 30
0.0
 40
1.5
  1
Holes Equally Spaced
  7
ROMANS
100
AcDbText
  0
TEXT
  5
234A
100
AcDbEntity
  8
DIM
100
AcDbText
 10
128.914644
 20
65.485874
 30
0.0
 40
1.5
  1
(4)9/16 Dia.
  7
ROMANS
100
AcDbText
  0
LINE
  5
234B
100
AcDbEntity
  8
DIM
100
AcDbLine
 10
128.583565
 20
66.147193
 30
0.0
 11
126.597086
 21
66.147193
 31
0.0
  0
SOLID
  5
234C
100
AcDbEntity
  8
DIM
100
AcDbTrace
 10
105.692784
 20
86.663105
 30
0.0
 11
105.692784
 21
86.246439
 31
0.0
 12
104.442784
 22
86.454772
 32
0.0
 13
104.442784
 23
86.454772
 33
0.0
  0
LINE
  5
234D
100
AcDbEntity
  8
DIM
100
AcDbLine
 10
109.192784
 20
91.036919
 30
0.0
 11
93.90707
 21
91.036919
 31
0.0
  0
LINE
  5
234E
100
AcDbEntity
  8
DIM
100
AcDbLine
 10
104.442784
 20
82.897041
 30
0.0
 11
104.442784
 21
86.634772
 31
0.0
  0
LINE
  5
234F
100
AcDbEntity
  8
DIM
100
AcDbLine
 10
104.442784
 20
86.454772
 30
0.0
 11
103.192784
 21
86.454772
 31
0.0
  0
INSERT
  5
2350
100
AcDbEntity
  8
DIM
100
AcDbBlockReference
  2
*U8
 10
-283.227326
 20
-69.81323
 30
0.0
  0
INSERT
  5
2351
100
AcDbEntity
  8
DIM
100
AcDbBlockReference
  2
*U9
 10
-283.227326
 20
-69.81323
 30
0.0
  0
LINE
  5
2352
100
AcDbEntity
  8
DIM
100
AcDbLine
 10
110.442784
 20
82.897041
 30
0.0
 11
110.442784
 21
91.216919
 31
0.0
  0
LINE
  5
2353
100
AcDbEntity
  8
DIM
100
AcDbLine
 10
110.442784
 20
82.897041
 30
0.0
 11
110.442784
 21
86.634772
 31
0.0
  0
SOLID
  5
2354
100
AcDbEntity
  8
DIM
100
AcDbTrace
 10
109.192784
 20
86.663105
 30
0.0
 11
109.192784
 21
86.246439
 31
0.0
 12
110.442784
 22
86.454772
 32
0.0
 13
110.442784
 23
86.454772
 33
0.0
  0
LINE
  5
2355
100
AcDbEntity
  8
DIM
100
AcDbLine
 10
109.192784
 20
86.454772
 30
0.0
 11
105.692784
 21
86.454772
 31
0.0
  0
SOLID
  5
2356
100
AcDbEntity
  8
DIM
100
AcDbTrace
 10
109.192784
 20
91.245253
 30
0.0
 11
109.192784
 21
90.828586
 31
0.0
 12
110.442784
 22
91.036919
 32
0.0
 13
110.442784
 23
91.036919
 33
0.0
  0
LWPOLYLINE
  5
2357
100
AcDbEntity
  8
BORDER
 62
     5
100
AcDbPolyline
 90
        2
 70
     0
 43
1.223112
 10
181.324104
 20
22.016019
 10
181.324104
 20
9.784897
  0
LINE
  5
2358
100
AcDbEntity
  8
BORDER
100
AcDbLine
 10
176.431656
 20
20.096673
 30
0.0
 11
176.431656
 21
10.311775
 31
0.0
  0
LINE
  5
2359
100
AcDbEntity
  8
BORDER
100
AcDbLine
 10
178.87788
 20
9.784897
 30
0.0
 11
178.87788
 21
22.016019
 31
0.0
  0
ARC
  5
235A
100
AcDbEntity
  8
BORDER
100
AcDbCircle
 10
176.431656
 20
9.784897
 30
0.0
 40
2.446224
100
AcDbArc
 50
270.0
 51
0.0
  0
LWPOLYLINE
  5
235B
100
AcDbEntity
  8
BORDER
 62
     5
100
AcDbPolyline
 90
        2
 70
     0
 43
1.223112
 10
176.431656
 20
4.892449
 42
0.414214
 10
181.324104
 20
9.784897
 42
-0.560527
  0
TEXT
  5
235C
100
AcDbEntity
  8
BORDER
 62
     6
100
AcDbText
 10
156.453148
 20
21.192244
 30
0.0
 40
1.646344
  1
Revisions
  7
ROMANC
100
AcDbText
  0
ARC
  5
235D
100
AcDbEntity
  8
BORDER
100
AcDbCircle
 10
176.431656
 20
22.016019
 30
0.0
 40
2.446224
100
AcDbArc
 50
0.0
 51
90.0
  0
LWPOLYLINE
  5
235E
100
AcDbEntity
  8
BORDER
 62
     5
100
AcDbPolyline
 90
        2
 70
     0
 43
1.223112
 10
176.431656
 20
26.908467
 42
-0.414214
 10
181.324104
 20
22.016019
 42
0.560527
  0
LINE
  5
235F
100
AcDbEntity
  8
DIM
100
AcDbLine
 10
34.822342
 20
228.371971
 30
0.0
 11
158.869515
 21
228.371971
 31
0.0
  0
TEXT
  5
2360
100
AcDbEntity
  8
DIM
100
AcDbText
 10
35.1439
 20
230.876698
 30
0.0
 40
2.25
  1
32" X 30" X 25" RECTANGULAR FIBERGLASS VALVEBOX-FRVB32X30X25
  7
ROMANS
100
AcDbText
  0
LWPOLYLINE
  5
2361
100
AcDbEntity
  8
BORDER
 62
     5
100
AcDbPolyline
 90
        2
 70
     0
 43
0.489245
 10
179.367125
 20
235.805887
 10
5.870939
 20
235.805887
  0
LINE
  5
2362
100
AcDbEntity
  8
BORDER
 62
     5
100
AcDbLine
 10
179.367125
 20
235.805887
 30
0.0
 11
5.870939
 21
235.805887
 31
0.0
  0
LINE
  5
2363
100
AcDbEntity
  8
LIMITS
 62
     7
100
AcDbLine
 10
185.238063
 20
239.719846
 30
0.0
 11
0.0
 21
239.719846
 31
0.0
  0
LINE
  5
2364
100
AcDbEntity
  8
CENTER
100
AcDbLine
 10
93.718869
 20
173.773076
 30
0.0
 11
93.718869
 21
214.228891
 31
0.0
  0
LINE
  5
2365
100
AcDbEntity
  8
OBJECT
100
AcDbLine
 10
109.718849
 20
179.000983
 30
0.0
 11
109.718889
 21
209.000984
 31
0.0
  0
LINE
  5
2366
100
AcDbEntity
  8
OBJECT
100
AcDbLine
 10
112.718869
 20
176.000984
 30
0.0
 11
112.718869
 21
212.000984
 31
0.0
  0
LINE
  5
2367
100
AcDbEntity
  8
OBJECT
100
AcDbLine
 10
77.718889
 20
179.000983
 30
0.0
 11
77.718849
 21
209.000984
 31
0.0
  0
LINE
  5
2368
100
AcDbEntity
  8
OBJECT
100
AcDbLine
 10
74.718869
 20
176.000984
 30
0.0
 11
74.718869
 21
212.000984
 31
0.0
  0
LINE
  5
2369
100
AcDbEntity
  8
DIM
100
AcDbLine
 10
67.561785
 20
180.250984
 30
0.0
 11
67.561785
 21
190.514304
 31
0.0
  0
LINE
  5
236A
100
AcDbEntity
  8
DIM
100
AcDbLine
 10
63.307581
 20
177.250984
 30
0.0
 11
63.307581
 21
191.536698
 31
0.0
  0
INSERT
  5
236B
100
AcDbEntity
  8
DIM
100
AcDbBlockReference
  2
*U4
 10
-136.294155
 20
35.625471
 30
0.0
1001
ACAD
1000
DSTYLE
1002
{
1070
   272
1070
     0
1070
    40
1040
1.0
1070
   147
1040
1.25
1070
    42
1040
0.0625
1070
    41
1040
1.25
1002
}
  0
LINE
  5
236C
100
AcDbEntity
  8
CENTER
100
AcDbLine
 10
93.718869
 20
146.549188
 30
0.0
 11
93.718869
 21
114.223351
 31
0.0
  0
LINE
  5
236D
100
AcDbEntity
  8
OBJECT
100
AcDbLine
 10
84.135654
 20
164.092709
 30
0.0
 11
106.895626
 21
141.332737
 31
0.0
  0
LINE
  5
236E
100
AcDbEntity
  8
OBJECT
100
AcDbLine
 10
83.958878
 20
163.915932
 30
0.0
 11
106.718849
 21
141.155961
 31
0.0
  0
ARC
  5
236F
100
AcDbEntity
  8
OBJECT
  6
PHANTOM
100
AcDbCircle
 10
106.718849
 20
141.155961
 30
0.0
 40
32.187461
100
AcDbArc
 50
134.554979
 51
180.0
  0
LINE
  5
2370
100
AcDbEntity
  8
OBJECT
100
AcDbLine
 10
112.718849
 20
141.155961
 30
0.0
 11
77.952023
 21
141.155961
 31
0.0
  0
LINE
  5
2371
100
AcDbEntity
  8
OBJECT
100
AcDbLine
 10
78.031421
 20
115.968461
 30
0.0
 11
109.406317
 21
115.968461
 31
0.0
  0
LINE
  5
2372
100
AcDbEntity
  8
OBJECT
100
AcDbLine
 10
109.406317
 20
116.155961
 30
0.0
 11
78.031421
 21
116.155961
 31
0.0
  0
LINE
  5
2373
100
AcDbEntity
  8
OBJECT
100
AcDbLine
 10
77.531421
 20
116.46846
 30
0.0
 11
77.531389
 21
140.780961
 31
0.0
  0
LINE
  5
2374
100
AcDbEntity
  8
OBJECT
100
AcDbLine
 10
77.718889
 20
140.968461
 30
0.0
 11
77.718921
 21
116.46846
 31
0.0
  0
ARC
  5
2375
100
AcDbEntity
  8
OBJECT
100
AcDbCircle
 10
78.031421
 20
116.468461
 30
0.0
 40
0.5
100
AcDbArc
 50
180.000075
 51
270.0
  0
ARC
  5
2376
100
AcDbEntity
  8
OBJECT
100
AcDbCircle
 10
78.031421
 20
116.468461
 30
0.0
 40
0.3125
100
AcDbArc
 50
180.000075
 51
270.0
  0
TEXT
  5
2377
100
AcDbEntity
  8
DIM
100
AcDbText
 10
61.002792
 20
135.701224
 30
0.0
 40
1.5
  1
Locking
  7
ROMANS
100
AcDbText
  0
TEXT
  5
2378
100
AcDbEntity
  8
DIM
100
AcDbText
 10
61.002792
 20
133.272652
 30
0.0
 40
1.5
  1
Pin
  7
ROMANS
100
AcDbText
  0
INSERT
  5
2379
100
AcDbEntity
  8
DIM
100
AcDbBlockReference
  2
*U5
 10
-136.294155
 20
35.625471
 30
0.0
1001
ACAD
1000
DSTYLE
1002
{
1070
   272
1070
     0
1070
    40
1040
1.0
1070
   147
1040
1.25
1070
    42
1040
0.0625
1070
    41
1040
1.25
1002
}
  0
LINE
  5
237A
100
AcDbEntity
  8
DIM
100
AcDbLine
 10
69.418736
 20
136.302602
 30
0.0
 11
70.605998
 21
136.302602
 31
0.0
  0
LINE
  5
237B
100
AcDbEntity
  8
OBJECT
100
AcDbLine
 10
77.952023
 20
141.86233
 30
0.0
 11
77.952023
 21
140.449591
 31
0.0
  0
LINE
  5
237C
100
AcDbEntity
  8
OBJECT
100
AcDbLine
 10
77.718889
 20
140.449591
 30
0.0
 11
77.952023
 21
140.449591
 31
0.0
  0
LINE
  5
237D
100
AcDbEntity
  8
OBJECT
100
AcDbLine
 10
77.343889
 20
140.968461
 30
0.0
 11
74.531389
 21
140.968461
 31
0.0
  0
LINE
  5
237E
100
AcDbEntity
  8
OBJECT
100
AcDbLine
 10
74.531389
 20
140.968461
 30
0.0
 11
74.531389
 21
141.155961
 31
0.0
  0
ARC
  5
237F
100
AcDbEntity
  8
OBJECT
100
AcDbCircle
 10
77.531389
 20
140.968461
 30
0.0
 40
0.1875
100
AcDbArc
 50
0.000075
 51
90.0
  0
ARC
  5
2380
100
AcDbEntity
  8
OBJECT
100
AcDbCircle
 10
77.343889
 20
140.780961
 30
0.0
 40
0.1875
100
AcDbArc
 50
0.000075
 51
90.0
  0
LINE
  5
2381
100
AcDbEntity
  8
OBJECT
100
AcDbLine
 10
77.718889
 20
140.968461
 30
0.0
 11
77.718889
 21
141.86233
 31
0.0
  0
LINE
  5
2382
100
AcDbEntity
  8
OBJECT
100
AcDbLine
 10
77.718889
 20
141.86233
 30
0.0
 11
77.952023
 21
141.86233
 31
0.0
  0
LINE
  5
2383
100
AcDbEntity
  8
OBJECT
100
AcDbLine
 10
77.718889
 20
141.155961
 30
0.0
 11
74.531389
 21
141.155961
 31
0.0
  0
LINE
  5
2384
100
AcDbEntity
  8
OBJECT
100
AcDbLine
 10
109.906317
 20
116.46846
 30
0.0
 11
109.906349
 21
140.780961
 31
0.0
  0
LINE
  5
2385
100
AcDbEntity
  8
OBJECT
100
AcDbLine
 10
109.718849
 20
140.968461
 30
0.0
 11
109.718817
 21
116.46846
 31
0.0
  0
LINE
  5
2386
100
AcDbEntity
  8
DIM
100
AcDbLine
 10
117.780796
 20
117.405961
 30
0.0
 11
117.780796
 21
126.191675
 31
0.0
  0
LINE
  5
2387
100
AcDbEntity
  8
DIM
100
AcDbLine
 10
111.305602
 20
116.155961
 30
0.0
 11
117.960796
 21
116.155961
 31
0.0
  0
ARC
  5
2388
100
AcDbEntity
  8
OBJECT
100
AcDbCircle
 10
109.406317
 20
116.468461
 30
0.0
 40
0.5
100
AcDbArc
 50
270.0
 51
359.999925
  0
ARC
  5
2389
100
AcDbEntity
  8
OBJECT
100
AcDbCircle
 10
109.406317
 20
116.468461
 30
0.0
 40
0.3125
100
AcDbArc
 50
270.0
 51
359.999925
  0
LINE
  5
238A
100
AcDbEntity
  8
DIM
100
AcDbLine
 10
109.406317
 20
116.155961
 30
0.0
 11
111.243102
 21
116.155961
 31
0.0
  0
SOLID
  5
238B
100
AcDbEntity
  8
DIM
100
AcDbTrace
 10
117.572463
 20
117.405961
 30
0.0
 11
117.98913
 21
117.405961
 31
0.0
 12
117.780796
 22
116.155961
 32
0.0
 13
117.780796
 23
116.155961
 33
0.0
  0
LINE
  5
238C
100
AcDbEntity
  8
DIM
100
AcDbLine
 10
117.780796
 20
139.905961
 30
0.0
 11
117.780796
 21
131.120246
 31
0.0
  0
INSERT
  5
238D
100
AcDbEntity
  8
DIM
100
AcDbBlockReference
  2
*U11
 10
-136.294155
 20
35.625471
 30
0.0
  0
SOLID
  5
238E
100
AcDbEntity
  8
DIM
100
AcDbTrace
 10
117.572463
 20
139.905961
 30
0.0
 11
117.98913
 21
139.905961
 31
0.0
 12
117.780796
 22
141.155961
 32
0.0
 13
117.780796
 23
141.155961
 33
0.0
  0
LINE
  5
238F
100
AcDbEntity
  8
DIM
100
AcDbLine
 10
113.761743
 20
141.155961
 30
0.0
 11
117.960796
 21
141.155961
 31
0.0
  0
LINE
  5
2390
100
AcDbEntity
  8
OBJECT
100
AcDbLine
 10
110.093849
 20
140.968461
 30
0.0
 11
112.718849
 21
140.968461
 31
0.0
  0
LINE
  5
2391
100
AcDbEntity
  8
OBJECT
100
AcDbLine
 10
112.718849
 20
141.155961
 30
0.0
 11
112.718849
 21
140.968461
 31
0.0
  0
ARC
  5
2392
100
AcDbEntity
  8
OBJECT
100
AcDbCircle
 10
109.906349
 20
140.968461
 30
0.0
 40
0.1875
100
AcDbArc
 50
90.0
 51
179.999925
  0
ARC
  5
2393
100
AcDbEntity
  8
OBJECT
100
AcDbCircle
 10
110.093849
 20
140.780961
 30
0.0
 40
0.1875
100
AcDbArc
 50
90.0
 51
179.999925
  0
LINE
  5
2394
100
AcDbEntity
  8
OBJECT
100
AcDbLine
 10
112.718849
 20
141.155961
 30
0.0
 11
112.718849
 21
141.405961
 31
0.0
  0
LINE
  5
2395
100
AcDbEntity
  8
DIM
100
AcDbLine
 10
112.718849
 20
141.155961
 30
0.0
 11
113.699243
 21
141.155961
 31
0.0
  0
LINE
  5
2396
100
AcDbEntity
  8
OBJECT
100
AcDbLine
 10
106.718849
 20
141.155961
 30
0.0
 11
106.895626
 21
141.332737
 31
0.0
  0
LINE
  5
2397
100
AcDbEntity
  8
OBJECT
100
AcDbLine
 10
106.951847
 20
141.405961
 30
0.0
 11
106.951847
 21
141.155961
 31
0.0
  0
LINE
  5
2398
100
AcDbEntity
  8
OBJECT
100
AcDbLine
 10
112.718849
 20
141.405961
 30
0.0
 11
106.951847
 21
141.405961
 31
0.0
  0
LINE
  5
2399
100
AcDbEntity
  8
OBJECT
100
AcDbLine
 10
109.718889
 20
179.000984
 30
0.0
 11
77.718849
 21
179.000984
 31
0.0
  0
LINE
  5
239A
100
AcDbEntity
  8
OBJECT
100
AcDbLine
 10
112.718869
 20
176.000984
 30
0.0
 11
74.718869
 21
176.000984
 31
0.0
  0
LINE
  5
239B
100
AcDbEntity
  8
OBJECT
100
AcDbLine
 10
83.958878
 20
163.915932
 30
0.0
 11
84.135654
 21
164.092709
 31
0.0
  0
LINE
  5
239C
100
AcDbEntity
  8
DIM
100
AcDbLine
 10
74.656369
 20
176.000984
 30
0.0
 11
63.127581
 21
176.000984
 31
0.0
  0
TEXT
  5
239D
100
AcDbEntity
  8
DIM
100
AcDbText
 10
58.112553
 20
171.048954
 30
0.0
 40
1.5
  1
Locking
  7
ROMANS
100
AcDbText
  0
TEXT
  5
239E
100
AcDbEntity
  8
DIM
100
AcDbText
 10
58.112553
 20
168.620382
 30
0.0
 40
1.5
  1
Pin
  7
ROMANS
100
AcDbText
  0
LINE
  5
239F
100
AcDbEntity
  8
DIM
100
AcDbLine
 10
66.528497
 20
171.650332
 30
0.0
 11
67.715758
 21
171.650332
 31
0.0
  0
SOLID
  5
23A0
100
AcDbEntity
  8
DIM
100
AcDbTrace
 10
63.099248
 20
177.250984
 30
0.0
 11
63.515915
 21
177.250984
 31
0.0
 12
63.307581
 22
176.000984
 32
0.0
 13
63.307581
 23
176.000984
 33
0.0
  0
LINE
  5
23A1
100
AcDbEntity
  8
DIM
100
AcDbLine
 10
77.656389
 20
179.000984
 30
0.0
 11
67.381785
 21
179.000984
 31
0.0
  0
SOLID
  5
23A2
100
AcDbEntity
  8
DIM
100
AcDbTrace
 10
67.353451
 20
180.250984
 30
0.0
 11
67.770118
 21
180.250984
 31
0.0
 12
67.561785
 22
179.000984
 32
0.0
 13
67.561785
 23
179.000984
 33
0.0
  0
TEXT
  5
23A3
100
AcDbEntity
  8
DIM
100
AcDbText
 10
109.698787
 20
154.464688
 30
0.0
 40
1.5
  1
Frogmouth Aluminum Cover
  7
ROMANS
100
AcDbText
  0
INSERT
  5
23A4
100
AcDbEntity
  8
DIM
100
AcDbBlockReference
  2
*U7
 10
-136.294155
 20
35.625471
 30
0.0
1001
ACAD
1000
DSTYLE
1002
{
1070
   272
1070
     0
1070
    40
1040
1.0
1070
   147
1040
1.25
1070
    42
1040
0.0625
1070
    41
1040
1.25
1002
}
  0
LINE
  5
23A5
100
AcDbEntity
  8
DIM
100
AcDbLine
 10
109.237276
 20
155.098942
 30
0.0
 11
106.974714
 21
155.098942
 31
0.0
  0
TEXT
  5
23A6
100
AcDbEntity
  8
15
 62
     6
100
AcDbText
 10
92.856863
 20
171.500023
 30
0.0
 40
1.5
  1
C
  7
ROMANS
100
AcDbText
  0
TEXT
  5
23A7
100
AcDbEntity
  8
15
 62
     6
100
AcDbText
 10
93.367708
 20
170.759024
 30
0.0
 40
1.5
  1
L
  7
ROMANS
100
AcDbText
  0
LINE
  5
23A8
100
AcDbEntity
  8
DIM
100
AcDbLine
 10
78.968849
 20
217.141048
 30
0.0
 11
90.222371
 21
217.141048
 31
0.0
  0
LINE
  5
23A9
100
AcDbEntity
  8
DIM
100
AcDbLine
 10
75.968869
 20
220.75089
 30
0.0
 11
91.254583
 21
220.75089
 31
0.0
  0
LINE
  5
23AA
100
AcDbEntity
  8
CENTER
100
AcDbLine
 10
115.419022
 20
194.000984
 30
0.0
 11
72.018716
 21
194.000984
 31
0.0
  0
LINE
  5
23AB
100
AcDbEntity
  8
OBJECT
100
AcDbLine
 10
109.718889
 20
209.000984
 30
0.0
 11
77.718849
 21
209.000984
 31
0.0
  0
LINE
  5
23AC
100
AcDbEntity
  8
OBJECT
100
AcDbLine
 10
112.718869
 20
212.000984
 30
0.0
 11
74.718869
 21
212.000984
 31
0.0
  0
LINE
  5
23AD
100
AcDbEntity
  8
DIM
100
AcDbLine
 10
63.307581
 20
210.750984
 30
0.0
 11
63.307581
 21
196.465269
 31
0.0
  0
LINE
  5
23AE
100
AcDbEntity
  8
DIM
100
AcDbLine
 10
77.718849
 20
209.063484
 30
0.0
 11
77.718849
 21
217.321048
 31
0.0
  0
LINE
  5
23AF
100
AcDbEntity
  8
DIM
100
AcDbLine
 10
67.561785
 20
207.750984
 30
0.0
 11
67.561785
 21
197.847502
 31
0.0
  0
INSERT
  5
23B0
100
AcDbEntity
  8
DIM
100
AcDbBlockReference
  2
*U15
 10
-136.294155
 20
35.625471
 30
0.0
  0
INSERT
  5
23B1
100
AcDbEntity
  8
DIM
100
AcDbBlockReference
  2
*U14
 10
-136.294155
 20
35.625471
 30
0.0
  0
LINE
  5
23B2
100
AcDbEntity
  8
CENTER
100
AcDbLine
 10
77.835456
 20
193.678275
 30
0.0
 11
77.835456
 21
194.323692
 31
0.0
  0
CIRCLE
  5
23B3
100
AcDbEntity
  8
OBJECT
100
AcDbCircle
 10
77.835456
 20
194.000984
 30
0.0
 40
0.116587
  0
LINE
  5
23B4
100
AcDbEntity
  8
DIM
100
AcDbLine
 10
77.656349
 20
209.000984
 30
0.0
 11
67.381785
 21
209.000984
 31
0.0
  0
SOLID
  5
23B5
100
AcDbEntity
  8
DIM
100
AcDbTrace
 10
67.353451
 20
207.750984
 30
0.0
 11
67.770118
 21
207.750984
 31
0.0
 12
67.561785
 22
209.000984
 32
0.0
 13
67.561785
 23
209.000984
 33
0.0
  0
LINE
  5
23B6
100
AcDbEntity
  8
DIM
100
AcDbLine
 10
74.718869
 20
212.063484
 30
0.0
 11
74.718869
 21
220.93089
 31
0.0
  0
SOLID
  5
23B7
100
AcDbEntity
  8
DIM
100
AcDbTrace
 10
75.968869
 20
220.959223
 30
0.0
 11
75.968869
 21
220.542556
 31
0.0
 12
74.718869
 22
220.75089
 32
0.0
 13
74.718869
 23
220.75089
 33
0.0
  0
LINE
  5
23B8
100
AcDbEntity
  8
DIM
100
AcDbLine
 10
74.656369
 20
212.000984
 30
0.0
 11
63.127581
 21
212.000984
 31
0.0
  0
SOLID
  5
23B9
100
AcDbEntity
  8
DIM
100
AcDbTrace
 10
63.099248
 20
210.750984
 30
0.0
 11
63.515915
 21
210.750984
 31
0.0
 12
63.307581
 22
212.000984
 32
0.0
 13
63.307581
 23
212.000984
 33
0.0
  0
SOLID
  5
23BA
100
AcDbEntity
  8
DIM
100
AcDbTrace
 10
78.968849
 20
217.349381
 30
0.0
 11
78.968849
 21
216.932715
 31
0.0
 12
77.718849
 22
217.141048
 32
0.0
 13
77.718849
 23
217.141048
 33
0.0
  0
LINE
  5
23BB
100
AcDbEntity
  8
DIM
100
AcDbLine
 10
109.718889
 20
209.063484
 30
0.0
 11
109.718889
 21
217.321048
 31
0.0
  0
TEXT
  5
23BC
100
AcDbEntity
  8
15
 62
     6
100
AcDbText
 10
115.813244
 20
193.387099
 30
0.0
 40
1.5
  1
C
  7
ROMANS
100
AcDbText
  0
TEXT
  5
23BD
100
AcDbEntity
  8
15
 62
     6
100
AcDbText
 10
116.324089
 20
192.646101
 30
0.0
 40
1.5
  1
L
  7
ROMANS
100
AcDbText
  0
LINE
  5
23BE
100
AcDbEntity
  8
DIM
100
AcDbLine
 10
112.718869
 20
212.063484
 30
0.0
 11
112.718869
 21
220.93089
 31
0.0
  0
SOLID
  5
23BF
100
AcDbEntity
  8
DIM
100
AcDbTrace
 10
111.468869
 20
220.959223
 30
0.0
 11
111.468869
 21
220.542556
 31
0.0
 12
112.718869
 22
220.75089
 32
0.0
 13
112.718869
 23
220.75089
 33
0.0
  0
INSERT
  5
23C0
100
AcDbEntity
  8
DIM
100
AcDbBlockReference
  2
*U12
 10
-136.294155
 20
35.625471
 30
0.0
  0
LINE
  5
23C1
100
AcDbEntity
  8
DIM
100
AcDbLine
 10
108.468889
 20
217.141048
 30
0.0
 11
97.246846
 21
217.141048
 31
0.0
  0
INSERT
  5
23C2
100
AcDbEntity
  8
DIM
100
AcDbBlockReference
  2
*U13
 10
-136.294155
 20
35.625471
 30
0.0
  0
SOLID
  5
23C3
100
AcDbEntity
  8
DIM
100
AcDbTrace
 10
108.468889
 20
217.349381
 30
0.0
 11
108.468889
 21
216.932715
 31
0.0
 12
109.718889
 22
217.141048
 32
0.0
 13
109.718889
 23
217.141048
 33
0.0
  0
LINE
  5
23C4
100
AcDbEntity
  8
DIM
100
AcDbLine
 10
111.468869
 20
220.75089
 30
0.0
 11
96.183155
 21
220.75089
 31
0.0
  0
ENDBLK
  5
23C6
100
AcDbEntity
  8
0
100
AcDbBlockEnd
  0
BLOCK
  5
2605
100
AcDbEntity
  8
0
100
AcDbBlockBegin
  2
*D20
 70
     1
 10
0.0
 20
0.0
 30
0.0
  3
*D20
  1

  0
LINE
  5
2606
100
AcDbEntity
  8
0
  6
BYBLOCK
 62
     0
100
AcDbLine
 10
115.234625
 20
93.667083
 30
0.0
 11
97.549112
 21
93.667083
 31
0.0
  0
LINE
  5
2607
100
AcDbEntity
  8
0
  6
BYBLOCK
 62
     0
100
AcDbLine
 10
114.734625
 20
129.667083
 30
0.0
 11
97.549112
 21
129.667083
 31
0.0
  0
LINE
  5
2608
100
AcDbEntity
  8
0
  6
BYBLOCK
 62
     0
100
AcDbLine
 10
98.899112
 20
94.917083
 30
0.0
 11
98.899112
 21
105.353175
 31
0.0
  0
LINE
  5
2609
100
AcDbEntity
  8
0
  6
BYBLOCK
 62
     0
100
AcDbLine
 10
98.899112
 20
128.417083
 30
0.0
 11
98.899112
 21
109.360318
 31
0.0
  0
MTEXT
  5
260A
100
AcDbEntity
  8
0
  6
BYBLOCK
 62
     0
100
AcDbMText
 10
98.899112
 20
107.356747
 30
0.0
 40
1.35
 41
0.0
 71
     5
 72
     1
  1
\A1;36"
  7
ROMAND
  0
SOLID
  5
260B
100
AcDbEntity
  8
0
  6
BYBLOCK
 62
     0
100
AcDbTrace
 10
98.690779
 20
94.917083
 30
0.0
 11
99.107445
 21
94.917083
 31
0.0
 12
98.899112
 22
93.667083
 32
0.0
 13
98.899112
 23
93.667083
 33
0.0
  0
SOLID
  5
260C
100
AcDbEntity
  8
0
  6
BYBLOCK
 62
     0
100
AcDbTrace
 10
98.690779
 20
128.417083
 30
0.0
 11
99.107445
 21
128.417083
 31
0.0
 12
98.899112
 22
129.667083
 32
0.0
 13
98.899112
 23
129.667083
 33
0.0
  0
POINT
  5
260D
100
AcDbEntity
  8
DEFPOINTS
  6
BYBLOCK
 62
     0
100
AcDbPoint
 10
115.484625
 20
93.667083
 30
0.0
  0
POINT
  5
260E
100
AcDbEntity
  8
DEFPOINTS
  6
BYBLOCK
 62
     0
100
AcDbPoint
 10
114.984625
 20
129.667083
 30
0.0
  0
POINT
  5
260F
100
AcDbEntity
  8
DEFPOINTS
  6
BYBLOCK
 62
     0
100
AcDbPoint
 10
98.899112
 20
129.667083
 30
0.0
  0
ENDBLK
  5
2610
100
AcDbEntity
  8
0
100
AcDbBlockEnd
  0
BLOCK
  5
26A3
100
AcDbEntity
  8
0
100
AcDbBlockBegin
  2
*D21
 70
     1
 10
0.0
 20
0.0
 30
0.0
  3
*D21
  1

  0
LINE
  5
26A4
100
AcDbEntity
  8
0
  6
BYBLOCK
 62
     0
100
AcDbLine
 10
124.988841
 20
44.406897
 30
0.0
 11
124.988841
 21
39.424781
 31
0.0
  0
LINE
  5
26A5
100
AcDbEntity
  8
0
  6
BYBLOCK
 62
     0
100
AcDbLine
 10
130.988841
 20
44.406897
 30
0.0
 11
130.988841
 21
39.424781
 31
0.0
  0
LINE
  5
26A6
100
AcDbEntity
  8
0
  6
BYBLOCK
 62
     0
100
AcDbLine
 10
123.738841
 20
40.774781
 30
0.0
 11
122.488841
 21
40.774781
 31
0.0
  0
LINE
  5
26A7
100
AcDbEntity
  8
0
  6
BYBLOCK
 62
     0
100
AcDbLine
 10
132.238841
 20
40.774781
 30
0.0
 11
133.488841
 21
40.774781
 31
0.0
  0
SOLID
  5
26A8
100
AcDbEntity
  8
0
  6
BYBLOCK
 62
     0
100
AcDbTrace
 10
123.738841
 20
40.983115
 30
0.0
 11
123.738841
 21
40.566448
 31
0.0
 12
124.988841
 22
40.774781
 32
0.0
 13
124.988841
 23
40.774781
 33
0.0
  0
SOLID
  5
26A9
100
AcDbEntity
  8
0
  6
BYBLOCK
 62
     0
100
AcDbTrace
 10
132.238841
 20
40.983115
 30
0.0
 11
132.238841
 21
40.566448
 31
0.0
 12
130.988841
 22
40.774781
 32
0.0
 13
130.988841
 23
40.774781
 33
0.0
  0
MTEXT
  5
26AA
100
AcDbEntity
  8
0
  6
BYBLOCK
 62
     0
100
AcDbMText
 10
135.106698
 20
40.774781
 30
0.0
 40
1.35
 41
0.0
 71
     5
 72
     1
  1
\A1;6
  7
ROMAND
  0
POINT
  5
26AB
100
AcDbEntity
  8
DEFPOINTS
  6
BYBLOCK
 62
     0
100
AcDbPoint
 10
124.988841
 20
44.656897
 30
0.0
  0
POINT
  5
26AC
100
AcDbEntity
  8
DEFPOINTS
  6
BYBLOCK
 62
     0
100
AcDbPoint
 10
130.988841
 20
44.656897
 30
0.0
  0
POINT
  5
26AD
100
AcDbEntity
  8
DEFPOINTS
  6
BYBLOCK
 62
     0
100
AcDbPoint
 10
130.988841
 20
40.774781
 30
0.0
  0
ENDBLK
  5
26AE
100
AcDbEntity
  8
0
100
AcDbBlockEnd
  0
BLOCK
  5
26BB
100
AcDbEntity
  8
0
100
AcDbBlockBegin
  2
*D22
 70
     1
 10
0.0
 20
0.0
 30
0.0
  3
*D22
  1

  0
LINE
  5
26BC
100
AcDbEntity
  8
0
  6
BYBLOCK
 62
     0
100
AcDbLine
 10
86.238841
 20
44.406897
 30
0.0
 11
86.238841
 21
29.781818
 31
0.0
  0
LINE
  5
26BD
100
AcDbEntity
  8
0
  6
BYBLOCK
 62
     0
100
AcDbLine
 10
130.988841
 20
44.406897
 30
0.0
 11
130.988841
 21
29.781818
 31
0.0
  0
LINE
  5
26BE
100
AcDbEntity
  8
0
  6
BYBLOCK
 62
     0
100
AcDbLine
 10
87.488841
 20
31.131818
 30
0.0
 11
103.074556
 21
31.131818
 31
0.0
  0
LINE
  5
26BF
100
AcDbEntity
  8
0
  6
BYBLOCK
 62
     0
100
AcDbLine
 10
129.738841
 20
31.131818
 30
0.0
 11
114.153127
 21
31.131818
 31
0.0
  0
SOLID
  5
26C0
100
AcDbEntity
  8
0
  6
BYBLOCK
 62
     0
100
AcDbTrace
 10
87.488841
 20
31.340151
 30
0.0
 11
87.488841
 21
30.923485
 31
0.0
 12
86.238841
 22
31.131818
 32
0.0
 13
86.238841
 23
31.131818
 33
0.0
  0
SOLID
  5
26C1
100
AcDbEntity
  8
0
  6
BYBLOCK
 62
     0
100
AcDbTrace
 10
129.738841
 20
31.340151
 30
0.0
 11
129.738841
 21
30.923485
 31
0.0
 12
130.988841
 22
31.131818
 32
0.0
 13
130.988841
 23
31.131818
 33
0.0
  0
MTEXT
  5
26C2
100
AcDbEntity
  8
0
  6
BYBLOCK
 62
     0
100
AcDbMText
 10
108.613841
 20
31.131818
 30
0.0
 40
1.35
 41
0.0
 71
     5
 72
     1
  1
\A1;44 3/4"
  7
ROMAND
  0
POINT
  5
26C3
100
AcDbEntity
  8
DEFPOINTS
  6
BYBLOCK
 62
     0
100
AcDbPoint
 10
86.238841
 20
44.656897
 30
0.0
  0
POINT
  5
26C4
100
AcDbEntity
  8
DEFPOINTS
  6
BYBLOCK
 62
     0
100
AcDbPoint
 10
130.988841
 20
44.656897
 30
0.0
  0
POINT
  5
26C5
100
AcDbEntity
  8
DEFPOINTS
  6
BYBLOCK
 62
     0
100
AcDbPoint
 10
130.988841
 20
31.131818
 30
0.0
  0
ENDBLK
  5
26C6
100
AcDbEntity
  8
0
100
AcDbBlockEnd
  0
BLOCK
  5
2706
100
AcDbEntity
  8
0
100
AcDbBlockBegin
  2
*D23
 70
     1
 10
0.0
 20
0.0
 30
0.0
  3
*D23
  1

  0
LINE
  5
2707
100
AcDbEntity
  8
0
  6
BYBLOCK
 62
     0
100
AcDbLine
 10
127.988841
 20
77.406897
 30
0.0
 11
127.988841
 21
81.200613
 31
0.0
  0
LINE
  5
2708
100
AcDbEntity
  8
0
  6
BYBLOCK
 62
     0
100
AcDbLine
 10
130.988841
 20
77.406897
 30
0.0
 11
130.988841
 21
81.200613
 31
0.0
  0
LINE
  5
2709
100
AcDbEntity
  8
0
  6
BYBLOCK
 62
     0
100
AcDbLine
 10
126.738841
 20
79.850613
 30
0.0
 11
125.488841
 21
79.850613
 31
0.0
  0
LINE
  5
270A
100
AcDbEntity
  8
0
  6
BYBLOCK
 62
     0
100
AcDbLine
 10
132.238841
 20
79.850613
 30
0.0
 11
133.488841
 21
79.850613
 31
0.0
  0
SOLID
  5
270B
100
AcDbEntity
  8
0
  6
BYBLOCK
 62
     0
100
AcDbTrace
 10
126.738841
 20
80.058947
 30
0.0
 11
126.738841
 21
79.64228
 31
0.0
 12
127.988841
 22
79.850613
 32
0.0
 13
127.988841
 23
79.850613
 33
0.0
  0
SOLID
  5
270C
100
AcDbEntity
  8
0
  6
BYBLOCK
 62
     0
100
AcDbTrace
 10
132.238841
 20
80.058947
 30
0.0
 11
132.238841
 21
79.64228
 31
0.0
 12
130.988841
 22
79.850613
 32
0.0
 13
130.988841
 23
79.850613
 33
0.0
  0
MTEXT
  5
270D
100
AcDbEntity
  8
0
  6
BYBLOCK
 62
     0
100
AcDbMText
 10
135.138841
 20
79.850613
 30
0.0
 40
1.35
 41
0.0
 71
     5
 72
     1
  1
\A1;3
  7
ROMAND
  0
POINT
  5
270E
100
AcDbEntity
  8
DEFPOINTS
  6
BYBLOCK
 62
     0
100
AcDbPoint
 10
127.988841
 20
77.156897
 30
0.0
  0
POINT
  5
270F
100
AcDbEntity
  8
DEFPOINTS
  6
BYBLOCK
 62
     0
100
AcDbPoint
 10
130.988841
 20
77.156897
 30
0.0
  0
POINT
  5
2710
100
AcDbEntity
  8
DEFPOINTS
  6
BYBLOCK
 62
     0
100
AcDbPoint
 10
130.988841
 20
79.850613
 30
0.0
  0
ENDBLK
  5
2711
100
AcDbEntity
  8
0
100
AcDbBlockEnd
  0
BLOCK
  5
2714
100
AcDbEntity
  8
0
100
AcDbBlockBegin
  2
*D24
 70
     1
 10
0.0
 20
0.0
 30
0.0
  3
*D24
  1

  0
LINE
  5
2715
100
AcDbEntity
  8
0
  6
BYBLOCK
 62
     0
100
AcDbLine
 10
127.988841
 20
44.644508
 30
0.0
 11
127.988841
 21
36.573532
 31
0.0
  0
LINE
  5
2716
100
AcDbEntity
  8
0
  6
BYBLOCK
 62
     0
100
AcDbLine
 10
107.988841
 20
43.13011
 30
0.0
 11
107.988841
 21
36.573532
 31
0.0
  0
LINE
  5
2717
100
AcDbEntity
  8
0
  6
BYBLOCK
 62
     0
100
AcDbLine
 10
126.738841
 20
37.923532
 30
0.0
 11
120.281698
 21
37.923532
 31
0.0
  0
LINE
  5
2718
100
AcDbEntity
  8
0
  6
BYBLOCK
 62
     0
100
AcDbLine
 10
109.238841
 20
37.923532
 30
0.0
 11
115.695984
 21
37.923532
 31
0.0
  0
SOLID
  5
2719
100
AcDbEntity
  8
0
  6
BYBLOCK
 62
     0
100
AcDbTrace
 10
126.738841
 20
38.131865
 30
0.0
 11
126.738841
 21
37.715198
 31
0.0
 12
127.988841
 22
37.923532
 32
0.0
 13
127.988841
 23
37.923532
 33
0.0
  0
SOLID
  5
271A
100
AcDbEntity
  8
0
  6
BYBLOCK
 62
     0
100
AcDbTrace
 10
109.238841
 20
38.131865
 30
0.0
 11
109.238841
 21
37.715198
 31
0.0
 12
107.988841
 22
37.923532
 32
0.0
 13
107.988841
 23
37.923532
 33
0.0
  0
MTEXT
  5
271B
100
AcDbEntity
  8
0
  6
BYBLOCK
 62
     0
100
AcDbMText
 10
117.988841
 20
37.923532
 30
0.0
 40
1.35
 41
0.0
 71
     5
 72
     1
  1
\A1;20
  7
ROMAND
  0
POINT
  5
271C
100
AcDbEntity
  8
DEFPOINTS
  6
BYBLOCK
 62
     0
100
AcDbPoint
 10
127.988841
 20
44.894508
 30
0.0
  0
POINT
  5
271D
100
AcDbEntity
  8
DEFPOINTS
  6
BYBLOCK
 62
     0
100
AcDbPoint
 10
107.988841
 20
43.38011
 30
0.0
  0
POINT
  5
271E
100
AcDbEntity
  8
DEFPOINTS
  6
BYBLOCK
 62
     0
100
AcDbPoint
 10
107.988841
 20
37.923532
 30
0.0
  0
ENDBLK
  5
271F
100
AcDbEntity
  8
0
100
AcDbBlockEnd
  0
ENDSEC
  0
SECTION
  2
ENTITIES
  0
LINE
  5
ECC
100
AcDbEntity
  8
OBJECT
100
AcDbLine
 10
88.238841
 20
112.014081
 30
0.0
 11
127.738841
 21
112.014081
 31
0.0
  0
LINE
  5
ECD
100
AcDbEntity
  8
OBJECT
100
AcDbLine
 10
127.988841
 20
112.264081
 30
0.0
 11
127.988841
 21
147.764081
 31
0.0
  0
LINE
  5
ECE
100
AcDbEntity
  8
OBJECT
100
AcDbLine
 10
87.988841
 20
112.264081
 30
0.0
 11
87.988841
 21
147.764081
 31
0.0
  0
LINE
  5
ECF
100
AcDbEntity
  8
OBJECT
100
AcDbLine
 10
85.988841
 20
148.014081
 30
0.0
 11
87.738841
 21
148.014081
 31
0.0
  0
LINE
  5
ED0
100
AcDbEntity
  8
OBJECT
100
AcDbLine
 10
87.988841
 20
180.785316
 30
0.0
 11
87.988841
 21
210.785316
 31
0.0
  0
LINE
  5
ED1
100
AcDbEntity
  8
OBJECT
100
AcDbLine
 10
127.988841
 20
180.785316
 30
0.0
 11
127.988841
 21
210.785316
 31
0.0
  0
LINE
  5
ED2
100
AcDbEntity
  8
OBJECT
100
AcDbLine
 10
87.988841
 20
210.785316
 30
0.0
 11
127.988841
 21
210.785316
 31
0.0
  0
LINE
  5
ED3
100
AcDbEntity
  8
OBJECT
100
AcDbLine
 10
87.988841
 20
180.785316
 30
0.0
 11
127.988841
 21
180.785316
 31
0.0
  0
LINE
  5
ED4
100
AcDbEntity
  8
OBJECT
100
AcDbLine
 10
130.988841
 20
147.514081
 30
0.0
 11
130.988841
 21
148.014081
 31
0.0
  0
LINE
  5
ED5
100
AcDbEntity
  8
OBJECT
100
AcDbLine
 10
128.488841
 20
112.014081
 30
0.0
 11
128.488841
 21
147.014081
 31
0.0
  0
LINE
  5
ED6
100
AcDbEntity
  8
OBJECT
100
AcDbLine
 10
128.988841
 20
147.514081
 30
0.0
 11
130.988841
 21
147.514081
 31
0.0
  0
ARC
  5
ED7
100
AcDbEntity
  8
OBJECT
100
AcDbCircle
 10
128.988841
 20
147.014081
 30
0.0
 40
0.5
100
AcDbArc
 50
90.0
 51
180.0
  0
LINE
  5
ED8
100
AcDbEntity
  8
OBJECT
100
AcDbLine
 10
86.988841
 20
147.514081
 30
0.0
 11
85.988841
 21
147.514081
 31
0.0
  0
ARC
  5
ED9
100
AcDbEntity
  8
OBJECT
100
AcDbCircle
 10
86.988841
 20
147.014081
 30
0.0
 40
0.5
100
AcDbArc
 50
0.0
 51
90.0
  0
LINE
  5
EDA
100
AcDbEntity
  8
OBJECT
100
AcDbLine
 10
85.988841
 20
147.514081
 30
0.0
 11
85.988841
 21
148.014081
 31
0.0
  0
LINE
  5
EDB
100
AcDbEntity
  8
OBJECT
100
AcDbLine
 10
87.488841
 20
112.014081
 30
0.0
 11
87.488841
 21
147.014081
 31
0.0
  0
LINE
  5
EDC
100
AcDbEntity
  8
OBJECT
100
AcDbLine
 10
87.988841
 20
111.514081
 30
0.0
 11
127.988841
 21
111.514081
 31
0.0
  0
ARC
  5
EDD
100
AcDbEntity
  8
OBJECT
100
AcDbCircle
 10
88.238841
 20
112.264081
 30
0.0
 40
0.25
100
AcDbArc
 50
180.0
 51
270.0
  0
ARC
  5
EDE
100
AcDbEntity
  8
OBJECT
100
AcDbCircle
 10
127.738841
 20
112.264081
 30
0.0
 40
0.25
100
AcDbArc
 50
270.0
 51
0.0
  0
ARC
  5
EDF
100
AcDbEntity
  8
OBJECT
100
AcDbCircle
 10
87.988841
 20
112.014081
 30
0.0
 40
0.5
100
AcDbArc
 50
180.0
 51
270.0
  0
ARC
  5
EE0
100
AcDbEntity
  8
OBJECT
100
AcDbCircle
 10
127.988841
 20
112.014081
 30
0.0
 40
0.5
100
AcDbArc
 50
270.0
 51
0.0
  0
LINE
  5
EE1
100
AcDbEntity
  8
OBJECT
100
AcDbLine
 10
128.238841
 20
148.014081
 30
0.0
 11
130.988841
 21
148.014081
 31
0.0
  0
ARC
  5
EE2
100
AcDbEntity
  8
OBJECT
100
AcDbCircle
 10
87.738841
 20
147.764081
 30
0.0
 40
0.25
100
AcDbArc
 50
0.0
 51
90.0
  0
ARC
  5
EE3
100
AcDbEntity
  8
OBJECT
100
AcDbCircle
 10
128.238841
 20
147.764081
 30
0.0
 40
0.25
100
AcDbArc
 50
90.0
 51
180.0
  0
LINE
  5
EE4
100
AcDbEntity
  8
OBJECT
100
AcDbLine
 10
87.738841
 20
148.014081
 30
0.0
 11
128.238841
 21
148.014081
 31
0.0
  0
LINE
  5
EE5
100
AcDbEntity
  8
CENTER
100
AcDbLine
 10
107.988841
 20
175.144325
 30
0.0
 11
107.988841
 21
216.426307
 31
0.0
  0
LINE
  5
EE6
100
AcDbEntity
  8
CENTER
100
AcDbLine
 10
136.372496
 20
195.785316
 30
0.0
 11
79.605187
 21
195.785316
 31
0.0
  0
LINE
  5
EF3
100
AcDbEntity
  8
CENTER
100
AcDbLine
 10
107.988841
 20
110.284023
 30
0.0
 11
107.988841
 21
151.256616
 31
0.0
  0
LINE
  5
F19
100
AcDbEntity
  8
OBJECT
 62
     2
100
AcDbLine
 10
86.238841
 20
212.035316
 30
0.0
 11
86.238841
 21
179.535316
 31
0.0
  0
LINE
  5
F1A
100
AcDbEntity
  8
OBJECT
 62
     2
100
AcDbLine
 10
86.238841
 20
179.535316
 30
0.0
 11
130.988841
 21
179.535316
 31
0.0
  0
LINE
  5
F1B
100
AcDbEntity
  8
OBJECT
 62
     2
100
AcDbLine
 10
130.988841
 20
179.535316
 30
0.0
 11
130.988841
 21
212.035316
 31
0.0
  0
LINE
  5
F1C
100
AcDbEntity
  8
OBJECT
 62
     2
100
AcDbLine
 10
130.988841
 20
212.035316
 30
0.0
 11
86.238841
 21
212.035316
 31
0.0
  0
LINE
  5
F1D
100
AcDbEntity
  8
OBJECT
 62
     2
100
AcDbLine
 10
130.988841
 20
44.656897
 30
0.0
 11
130.988841
 21
77.156897
 31
0.0
  0
LINE
  5
F1E
100
AcDbEntity
  8
OBJECT
 62
     2
100
AcDbLine
 10
86.238841
 20
44.656897
 30
0.0
 11
130.988841
 21
44.656897
 31
0.0
  0
LINE
  5
F1F
100
AcDbEntity
  8
OBJECT
 62
     2
100
AcDbLine
 10
86.238841
 20
77.156897
 30
0.0
 11
86.238841
 21
44.656897
 31
0.0
  0
LINE
  5
F20
100
AcDbEntity
  8
OBJECT
 62
     2
100
AcDbLine
 10
130.988841
 20
77.156897
 30
0.0
 11
86.238841
 21
77.156897
 31
0.0
  0
LINE
  5
F21
100
AcDbEntity
  8
CENTER
100
AcDbLine
 10
107.988841
 20
43.38011
 30
0.0
 11
107.988841
 21
83.790551
 31
0.0
  0
LINE
  5
F22
100
AcDbEntity
  8
CENTER
100
AcDbLine
 10
136.872496
 20
60.906897
 30
0.0
 11
80.105187
 21
60.906897
 31
0.0
  0
LINE
  5
F23
100
AcDbEntity
  8
OBJECT
 62
     2
100
AcDbLine
 10
124.988841
 20
44.656897
 30
0.0
 11
124.988841
 21
48.656897
 31
0.0
  0
CIRCLE
  5
F2C
100
AcDbEntity
  8
OBJECT
100
AcDbCircle
 10
88.488841
 20
60.906897
 30
0.0
 40
0.5
  0
LINE
  5
F2D
100
AcDbEntity
  8
DIM
 62
     2
100
AcDbLine
 39
20.0
 10
126.363841
 20
69.156897
 30
0.0
 11
126.363841
 21
73.156897
 31
0.0
  0
LINE
  5
F2E
100
AcDbEntity
  8
DIM
 62
     2
100
AcDbLine
 39
20.0
 10
124.488841
 20
73.156897
 30
0.0
 11
124.238841
 21
73.156897
 31
0.0
  0
LINE
  5
F2F
100
AcDbEntity
  8
DIM
 62
     2
100
AcDbLine
 39
20.0
 10
124.488841
 20
69.156897
 30
0.0
 11
124.238841
 21
69.156897
 31
0.0
  0
LINE
  5
F30
100
AcDbEntity
  8
DIM
 62
     2
100
AcDbLine
 39
20.0
 10
124.238841
 20
73.156897
 30
0.0
 11
124.238841
 21
69.156897
 31
0.0
  0
LINE
  5
F31
100
AcDbEntity
  8
DIM
 62
     2
100
AcDbLine
 39
20.0
 10
124.488841
 20
73.156897
 30
0.0
 11
124.488841
 21
69.156897
 31
0.0
  0
LINE
  5
F32
100
AcDbEntity
  8
DIM
 62
     2
100
AcDbLine
 39
20.0
 10
122.363841
 20
69.156897
 30
0.0
 11
122.363841
 21
73.156897
 31
0.0
  0
LINE
  5
F33
100
AcDbEntity
  8
OBJECT
100
AcDbLine
 10
124.488841
 20
73.156897
 30
0.0
 11
126.363841
 21
73.156897
 31
0.0
  0
LINE
  5
F34
100
AcDbEntity
  8
OBJECT
100
AcDbLine
 10
124.488841
 20
69.156897
 30
0.0
 11
126.363841
 21
69.156897
 31
0.0
  0
LINE
  5
F35
100
AcDbEntity
  8
OBJECT
100
AcDbLine
 10
122.363841
 20
73.156897
 30
0.0
 11
124.238841
 21
73.156897
 31
0.0
  0
LINE
  5
F36
100
AcDbEntity
  8
OBJECT
100
AcDbLine
 10
122.363841
 20
69.156897
 30
0.0
 11
124.238841
 21
69.156897
 31
0.0
  0
LINE
  5
F37
100
AcDbEntity
  8
15
 62
     2
100
AcDbLine
 10
124.488841
 20
70.029692
 30
0.0
 11
124.238841
 21
70.029692
 31
0.0
  0
LINE
  5
F38
100
AcDbEntity
  8
15
 62
     2
100
AcDbLine
 10
124.488841
 20
69.967192
 30
0.0
 11
124.238841
 21
69.967192
 31
0.0
  0
LINE
  5
F39
100
AcDbEntity
  8
15
 62
     2
100
AcDbLine
 10
124.488841
 20
70.781185
 30
0.0
 11
124.238841
 21
70.781185
 31
0.0
  0
LINE
  5
F3A
100
AcDbEntity
  8
15
 62
     2
100
AcDbLine
 10
124.488841
 20
70.843685
 30
0.0
 11
124.238841
 21
70.843685
 31
0.0
  0
LINE
  5
F3B
100
AcDbEntity
  8
15
 62
     2
100
AcDbLine
 10
124.488841
 20
72.346601
 30
0.0
 11
124.238841
 21
72.346601
 31
0.0
  0
LINE
  5
F3C
100
AcDbEntity
  8
15
 62
     2
100
AcDbLine
 10
124.488841
 20
72.284101
 30
0.0
 11
124.238841
 21
72.284101
 31
0.0
  0
LINE
  5
F3D
100
AcDbEntity
  8
15
 62
     2
100
AcDbLine
 10
124.488841
 20
71.468685
 30
0.0
 11
124.238841
 21
71.468685
 31
0.0
  0
LINE
  5
F3E
100
AcDbEntity
  8
15
 62
     2
100
AcDbLine
 10
124.488841
 20
71.531185
 30
0.0
 11
124.238841
 21
71.531185
 31
0.0
  0
LINE
  5
F3F
100
AcDbEntity
  8
DIM
 62
     2
100
AcDbLine
 39
20.0
 10
126.363841
 20
52.656897
 30
0.0
 11
126.363841
 21
48.656897
 31
0.0
  0
LINE
  5
F40
100
AcDbEntity
  8
DIM
 62
     2
100
AcDbLine
 39
20.0
 10
124.488841
 20
48.656897
 30
0.0
 11
124.238841
 21
48.656897
 31
0.0
  0
LINE
  5
F41
100
AcDbEntity
  8
DIM
 62
     2
100
AcDbLine
 39
20.0
 10
124.488841
 20
52.656897
 30
0.0
 11
124.238841
 21
52.656897
 31
0.0
  0
LINE
  5
F42
100
AcDbEntity
  8
DIM
 62
     2
100
AcDbLine
 39
20.0
 10
124.238841
 20
48.656897
 30
0.0
 11
124.238841
 21
52.656897
 31
0.0
  0
LINE
  5
F43
100
AcDbEntity
  8
DIM
 62
     2
100
AcDbLine
 39
20.0
 10
124.488841
 20
48.656897
 30
0.0
 11
124.488841
 21
52.656897
 31
0.0
  0
LINE
  5
F44
100
AcDbEntity
  8
DIM
 62
     2
100
AcDbLine
 39
20.0
 10
122.363841
 20
52.656897
 30
0.0
 11
122.363841
 21
48.656897
 31
0.0
  0
LINE
  5
F45
100
AcDbEntity
  8
15
 62
     2
100
AcDbLine
 10
124.488841
 20
49.467192
 30
0.0
 11
124.238841
 21
49.467192
 31
0.0
  0
LINE
  5
F46
100
AcDbEntity
  8
15
 62
     2
100
AcDbLine
 10
124.488841
 20
49.529692
 30
0.0
 11
124.238841
 21
49.529692
 31
0.0
  0
LINE
  5
F47
100
AcDbEntity
  8
15
 62
     2
100
AcDbLine
 10
124.488841
 20
51.784101
 30
0.0
 11
124.238841
 21
51.784101
 31
0.0
  0
LINE
  5
F48
100
AcDbEntity
  8
15
 62
     2
100
AcDbLine
 10
124.488841
 20
51.846601
 30
0.0
 11
124.238841
 21
51.846601
 31
0.0
  0
LINE
  5
F49
100
AcDbEntity
  8
15
 62
     2
100
AcDbLine
 10
124.488841
 20
51.032608
 30
0.0
 11
124.238841
 21
51.032608
 31
0.0
  0
LINE
  5
F4A
100
AcDbEntity
  8
15
 62
     2
100
AcDbLine
 10
124.488841
 20
50.970108
 30
0.0
 11
124.238841
 21
50.970108
 31
0.0
  0
LINE
  5
F4B
100
AcDbEntity
  8
15
 62
     2
100
AcDbLine
 10
124.488841
 20
50.345108
 30
0.0
 11
124.238841
 21
50.345108
 31
0.0
  0
LINE
  5
F4C
100
AcDbEntity
  8
15
 62
     2
100
AcDbLine
 10
124.488841
 20
50.282608
 30
0.0
 11
124.238841
 21
50.282608
 31
0.0
  0
LINE
  5
F4D
100
AcDbEntity
  8
OBJECT
100
AcDbLine
 10
122.363841
 20
52.656897
 30
0.0
 11
124.238841
 21
52.656897
 31
0.0
  0
LINE
  5
F4E
100
AcDbEntity
  8
OBJECT
100
AcDbLine
 10
122.363841
 20
48.656897
 30
0.0
 11
124.238841
 21
48.656897
 31
0.0
  0
LINE
  5
F4F
100
AcDbEntity
  8
OBJECT
100
AcDbLine
 10
124.488841
 20
52.656897
 30
0.0
 11
126.363841
 21
52.656897
 31
0.0
  0
LINE
  5
F50
100
AcDbEntity
  8
OBJECT
100
AcDbLine
 10
124.488841
 20
48.656897
 30
0.0
 11
126.363841
 21
48.656897
 31
0.0
  0
LINE
  5
F51
100
AcDbEntity
  8
OBJECT
 62
     2
100
AcDbLine
 10
124.988841
 20
52.656897
 30
0.0
 11
124.988841
 21
69.156897
 31
0.0
  0
LINE
  5
F52
100
AcDbEntity
  8
OBJECT
 62
     2
100
AcDbLine
 10
124.988841
 20
73.156897
 30
0.0
 11
124.988841
 21
77.156897
 31
0.0
  0
DIMENSION
  5
1490
100
AcDbEntity
  8
DIM
100
AcDbDimension
  2
*D0
 10
127.988841
 20
107.311623
 30
0.0
 11
107.988841
 21
107.311623
 31
0.0
 12
119.948045
 22
26.146368
 32
0.0
  1
40"
100
AcDbAlignedDimension
 13
87.988841
 23
112.264081
 33
0.0
 14
127.988841
 24
112.264081
 34
0.0
100
AcDbRotatedDimension
  0
DIMENSION
  5
1491
100
AcDbEntity
  8
DIM
100
AcDbDimension
  2
*D20
 10
71.653328
 20
148.014081
 30
0.0
 11
71.653328
 21
125.703744
 31
0.0
 12
-27.245784
 22
18.346998
 32
0.0
 70
   160
  1
36"
  3
STANDARD
100
AcDbAlignedDimension
 13
88.238841
 23
112.014081
 33
0.0
 14
87.738841
 24
148.014081
 34
0.0
 50
90.0
100
AcDbRotatedDimension
1001
ACAD
1000
DSTYLE
1002
{
1070
   340
1005
2F
1070
   147
1040
1.2
1070
   287
1070
     5
1070
    42
1040
0.25
1070
    44
1040
1.35
1070
    41
1040
1.25
1002
}
  0
DIMENSION
  5
1494
100
AcDbEntity
  8
DIM
100
AcDbDimension
  2
*D1
 10
77.387448
 20
210.785316
 30
0.0
 11
77.387448
 21
195.785316
 31
0.0
 12
119.948045
 22
43.503251
 32
0.0
  1
30"
100
AcDbAlignedDimension
 13
87.988841
 23
180.785316
 33
0.0
 14
87.988841
 24
210.785316
 34
0.0
 50
90.0
100
AcDbRotatedDimension
  0
DIMENSION
  5
1495
100
AcDbEntity
  8
DIM
100
AcDbDimension
  2
*D22
 10
130.988841
 20
31.131818
 30
0.0
 11
108.613841
 21
31.131818
 31
0.0
 70
    32
  1
44 3/4"
  3
STANDARD
100
AcDbAlignedDimension
 13
86.238841
 23
44.656897
 33
0.0
 14
130.988841
 24
44.656897
 34
0.0
100
AcDbRotatedDimension
1001
ACAD
1000
DSTYLE
1002
{
1070
   270
1070
     7
1070
   340
1005
2F
1070
   147
1040
1.2
1070
   287
1070
     0
1070
    42
1040
0.25
1070
    44
1040
1.35
1070
    41
1040
1.25
1002
}
  0
DIMENSION
  5
1497
100
AcDbEntity
  8
DIM
100
AcDbDimension
  2
*D2
 10
75.962869
 20
77.156897
 30
0.0
 11
75.962869
 21
60.906897
 31
0.0
 12
88.646529
 22
10.837552
 32
0.0
  1
32 1/2"
100
AcDbAlignedDimension
 13
86.238841
 23
44.656897
 33
0.0
 14
86.238841
 24
77.156897
 34
0.0
 50
90.0
100
AcDbRotatedDimension
  0
TEXT
  5
14A2
100
AcDbEntity
  8
DIM
100
AcDbText
 10
93.600793
 20
81.050094
 30
0.0
 40
1.35
  1
7/8" HOLE
  7
ROMAND
 11
93.600793
 21
81.725094
 31
0.0
100
AcDbText
 73
     2
  0
LINE
  5
14A3
100
AcDbEntity
  8
DIM
100
AcDbLine
 10
91.150793
 20
81.725094
 30
0.0
 11
92.400793
 21
81.725094
 31
0.0
  0
TEXT
  5
14A6
100
AcDbEntity
  8
DIM
100
AcDbText
 10
108.167071
 20
87.379773
 30
0.0
 40
1.35
  1
3" x 3" Stainless Steel Hinges
  7
ROMAND
 11
108.167071
 21
88.054773
 31
0.0
100
AcDbText
 73
     2
  0
LINE
  5
14A7
100
AcDbEntity
  8
DIM
100
AcDbLine
 10
105.717071
 20
88.054773
 30
0.0
 11
106.967071
 21
88.054773
 31
0.0
  0
SOLID
  5
14A8
100
AcDbEntity
  8
DIM
100
AcDbTrace
 10
121.534658
 20
72.305043
 30
0.0
 11
121.268675
 21
71.984318
 31
0.0
 12
122.363841
 22
71.346734
 32
0.0
 13
122.363841
 23
71.346734
 33
0.0
  0
LINE
  5
14A9
100
AcDbEntity
  8
DIM
100
AcDbLine
 10
121.401666
 20
72.144681
 30
0.0
 11
105.717071
 21
88.054773
 31
0.0
  0
LWPOLYLINE
  5
1C52
100
AcDbEntity
  8
BORDER
 62
     5
100
AcDbPolyline
 90
        2
 70
     0
 43
0.482362
 10
200.992879
 20
230.974947
 10
29.937559
 20
230.974947
  0
LINE
  5
1C53
100
AcDbEntity
  8
BORDER
 62
     5
100
AcDbLine
 10
200.992879
 20
230.974947
 30
0.0
 11
29.937559
 21
230.974947
 31
0.0
  0
TEXT
  5
1C54
100
AcDbEntity
  8
BORDER
 62
     6
100
AcDbText
 10
117.964216
 20
6.690975
 30
0.0
 40
1.38679
  1
02/24/04
  7
ROMAND
100
AcDbText
  0
LINE
  5
1C55
100
AcDbEntity
  8
BORDER
100
AcDbLine
 10
105.770684
 20
11.224866
 30
0.0
 11
132.979863
 21
11.224866
 31
0.0
  0
LINE
  5
1C56
100
AcDbEntity
  8
BORDER
100
AcDbLine
 10
105.770684
 20
5.721969
 30
0.0
 11
132.979863
 21
5.721969
 31
0.0
  0
LWPOLYLINE
  5
1C57
100
AcDbEntity
  8
BORDER
 62
     5
100
AcDbPolyline
 90
        2
 70
     0
 43
1.205905
 10
198.098708
 20
3.31016
 10
32.83173
 20
3.31016
  0
TEXT
  5
1C58
100
AcDbEntity
  8
BORDER
 62
     6
100
AcDbText
 10
123.97116
 20
13.619015
 30
0.0
 40
0.905227
  1
in this print by any other source than TOPP INDUSTRIES, INC.
 41
0.839168
  7
ROMANS
 72
     5
 11
161.265719
 21
13.619015
 31
0.0
100
AcDbText
  0
TEXT
  5
1C59
100
AcDbEntity
  8
BORDER
 62
     6
100
AcDbText
 10
123.97116
 20
15.08462
 30
0.0
 40
0.905227
  1
and will not be used to manufacture or procure the manufacture of the items shown
 41
0.600404
  7
ROMANS
 72
     5
 11
161.265719
 21
15.08462
 31
0.0
100
AcDbText
  0
TEXT
  5
1C5A
100
AcDbEntity
  8
BORDER
 62
     6
100
AcDbText
 10
123.97116
 20
16.550225
 30
0.0
 40
0.905227
  1
be used as a record or to identify or inspect parts or for other information purposes
 41
0.596266
  7
ROMANS
 72
     5
 11
161.265719
 21
16.550225
 31
0.0
100
AcDbText
  0
TEXT
  5
1C5B
100
AcDbEntity
  8
BORDER
 62
     6
100
AcDbText
 10
123.97116
 20
18.01583
 30
0.0
 40
0.905227
  1
restriction includes, but is not limited to the condition that this print will not only
 41
0.626489
  7
ROMANS
 72
     5
 11
161.265719
 21
18.01583
 31
0.0
100
AcDbText
  0
TEXT
  5
1C5C
100
AcDbEntity
  8
BORDER
 62
     6
100
AcDbText
 10
123.97116
 20
19.481435
 30
0.0
 40
0.905227
  1
by TOPP INDUSTRIES, INC. It is furnished on a strictly confidential basis.  This
 41
0.659437
  7
ROMANS
 72
     5
 11
161.265719
 21
19.481435
 31
0.0
100
AcDbText
  0
TEXT
  5
1C5D
100
AcDbEntity
  8
BORDER
 62
     6
100
AcDbText
 10
123.97116
 20
20.94704
 30
0.0
 40
0.905227
  1
This print is and contains confidential proprietary information owned exclusively
 41
0.656934
  7
ROMANS
 72
     5
 11
161.265719
 21
20.94704
 31
0.0
100
AcDbText
  0
LINE
  5
1C5E
100
AcDbEntity
  8
BORDER
100
AcDbLine
 10
105.770684
 20
12.957396
 30
0.0
 11
161.921572
 21
12.957396
 31
0.0
  0
LWPOLYLINE
  5
1C5F
100
AcDbEntity
  8
BORDER
 62
     5
100
AcDbPolyline
 90
        2
 70
     0
 43
1.205905
 10
71.420675
 20
25.016442
 10
159.509763
 20
25.016442
  0
LINE
  5
1C60
100
AcDbEntity
  8
BORDER
100
AcDbLine
 10
105.770684
 20
22.604633
 30
0.0
 11
159.509763
 21
22.604633
 31
0.0
  0
LWPOLYLINE
  5
1C61
100
AcDbEntity
  8
BORDER
 62
     5
100
AcDbPolyline
 90
        6
 70
     0
 43
0.859445
 10
28.008111
 20
25.936661
 10
28.008111
 20
229.0455
 42
-0.414214
 10
29.937559
 20
230.974947
 10
200.992879
 20
230.974947
 42
-0.414214
 10
202.922327
 20
229.0455
 10
202.922327
 20
25.936661
  0
LINE
  5
1C62
100
AcDbEntity
  8
LIMITS
 62
     7
100
AcDbLine
 10
24.149217
 20
-1.513458
 30
0.0
 11
206.781221
 21
-1.513458
 31
0.0
  0
LINE
  5
1C63
100
AcDbEntity
  8
LIMITS
 62
     7
100
AcDbLine
 10
206.781221
 20
234.833841
 30
0.0
 11
24.149217
 21
234.833841
 31
0.0
  0
LWPOLYLINE
  5
1C6F
100
AcDbEntity
  8
BORDER
 62
     5
100
AcDbPolyline
 90
        2
 70
     0
 43
0.482362
 10
28.008111
 20
25.936661
 10
28.008111
 20
229.0455
  0
LINE
  5
1C70
100
AcDbEntity
  8
LIMITS
 62
     7
100
AcDbLine
 10
24.149217
 20
234.833841
 30
0.0
 11
24.149217
 21
-1.513458
 31
0.0
  0
LWPOLYLINE
  5
1C73
100
AcDbEntity
  8
BORDER
 62
     5
100
AcDbPolyline
 90
        2
 70
     0
 43
1.205905
 10
59.36163
 20
25.016442
 42
-0.414214
 10
64.185248
 20
20.192824
 42
0.560527
  0
ARC
  5
1C74
100
AcDbEntity
  8
BORDER
100
AcDbCircle
 10
32.83173
 20
20.192824
 30
0.0
 40
2.411809
100
AcDbArc
 50
90.0
 51
180.0
  0
ARC
  5
1C75
100
AcDbEntity
  8
BORDER
100
AcDbCircle
 10
32.83173
 20
8.133778
 30
0.0
 40
2.411809
100
AcDbArc
 50
180.0
 51
270.0
  0
LWPOLYLINE
  5
1C76
100
AcDbEntity
  8
BORDER
 62
     5
100
AcDbPolyline
 90
        2
 70
     0
 43
1.205905
 10
32.83173
 20
3.31016
 42
-0.414214
 10
28.008111
 20
8.133778
 42
0.560527
  0
LWPOLYLINE
  5
1C77
100
AcDbEntity
  8
BORDER
 62
     5
100
AcDbPolyline
 90
        2
 70
     0
 43
1.205905
 10
32.83173
 20
25.016442
 42
0.414214
 10
28.008111
 20
20.192824
 42
-0.560527
  0
LINE
  5
1C78
100
AcDbEntity
  8
BORDER
100
AcDbLine
 10
30.419921
 20
8.133778
 30
0.0
 11
30.419921
 21
20.192824
 31
0.0
  0
LWPOLYLINE
  5
1C79
100
AcDbEntity
  8
BORDER
 62
     5
100
AcDbPolyline
 90
        2
 70
     0
 43
1.205905
 10
28.008111
 20
20.192824
 10
28.008111
 20
8.133778
  0
LINE
  5
1C7A
100
AcDbEntity
  8
BORDER
100
AcDbLine
 10
61.773439
 20
5.721969
 30
0.0
 11
61.773439
 21
20.192824
 31
0.0
  0
LINE
  5
1C7B
100
AcDbEntity
  8
BORDER
100
AcDbLine
 10
32.83173
 20
5.721969
 30
0.0
 11
61.773439
 21
5.721969
 31
0.0
  0
LINE
  5
1C7C
100
AcDbEntity
  8
BORDER
100
AcDbLine
 10
47.345879
 20
17.670632
 30
0.0
 11
46.353353
 21
19.148902
 31
0.0
  0
SPLINE
  5
1C7D
100
AcDbEntity
  8
BORDER
100
AcDbSpline
210
0.0
220
0.0
230
1.0
 70
    11
 71
     3
 72
    24
 73
    20
 74
     0
 42
0.0000001
 43
0.0000001
 40
0.0
 40
0.0
 40
0.0
 40
0.0
 40
0.474866629778075
 40
0.474866629778075
 40
1.277791044886493
 40
1.277791044886493
 40
2.080715459994911
 40
2.080715459994911
 40
2.883639875103329
 40
2.883639875103329
 40
3.686564290211747
 40
3.686564290211747
 40
4.489488705320165
 40
4.489488705320165
 40
5.292413120428583
 40
5.292413120428583
 40
6.095337535537001
 40
6.095337535537001
 40
6.283185307179586
 40
6.283185307179586
 40
6.283185307179586
 40
6.283185307179586
 10
46.83815059886232
 20
10.22740896611679
 30
0.0
 10
46.6773784831336
 20
10.22740896611679
 30
0.0
 10
46.51674179356959
 20
10.18841098949792
 30
0.0
 10
46.13201671375196
 20
9.989995613859024
 30
0.0
 10
45.94432360452263
 20
9.763911656523845
 30
0.0
 10
45.78732814108315
 20
9.241873279930608
 30
0.0
 10
45.819069511957
 20
8.949416433232102
 30
0.0
 10
46.08439272814905
 20
8.473488101358336
 30
0.0
 10
46.31620650845753
 20
8.293212836590878
 30
0.0
 10
46.84189025443913
 20
8.154081790704616
 30
0.0
 10
47.13221886061174
 20
8.196170660904336
 30
0.0
 10
47.59711131458804
 20
8.478885348613866
 30
0.0
 10
47.768553412987
 20
8.717597846984157
 30
0.0
 10
47.88871020277136
 20
9.249381340913252
 30
0.0
 10
47.83662649501272
 20
9.538891349948166
 30
0.0
 10
47.53871806746376
 20
9.995013564780922
 30
0.0
 10
47.29488044488934
 20
10.15855962709037
 30
0.0
 10
46.965345762162
 20
10.22139905527802
 30
0.0
 10
46.9017488426386
 20
10.22740896611679
 30
0.0
 10
46.83815059886232
 20
10.22740896611679
 30
0.0
  0
HATCH
  5
1C7E
100
AcDbEntity
  8
BORDER
100
AcDbHatch
 10
0.0
 20
0.0
 30
0.0
210
0.0
220
0.0
230
1.0
  2
ANSI37
 70
     0
 71
     1
 91
        2
 92
        5
 93
        1
 72
     3
 10
46.727948
 20
13.80484
 11
0.0
 21
2.693975
 40
0.93822
 50
0.0
 51
360.0
 73
     1
 97
        1
330
1C7F
 92
       20
 93
        1
 72
     3
 10
46.727948
 20
13.82019
 11
0.0
 21
2.41767
 40
0.683214
 50
0.0
 51
360.0
 73
     1
 97
        1
330
1C80
 75
     0
 76
     1
 52
0.0
 41
0.037367
 77
     0
 78
     2
 53
45.0
 43
26.551869
 44
-123.730926
 45
-0.0033028411367012
 46
0.0033028411367012
 79
     0
 53
135.0
 43
26.551869
 44
-123.730926
 45
-0.0033028411367012
 46
-0.0033028411367012
 79
     0
 47
0.027301
 98
        2
 10
44.91008
 20
14.901335
 10
44.91008
 20
14.901335
  0
ELLIPSE
  5
1C7F
102
{ACAD_REACTORS
330
1C7E
102
}
100
AcDbEntity
  8
BORDER
100
AcDbEllipse
 10
46.727948
 20
13.80484
 30
0.0
 11
0.0000000000000182
 21
2.6939748737956
 31
0.0
210
0.0
220
0.0
230
1.0
 40
0.93822
 41
0.0
 42
6.283185307179586
  0
ELLIPSE
  5
1C80
102
{ACAD_REACTORS
330
1C7E
102
}
100
AcDbEntity
  8
BORDER
100
AcDbEllipse
 10
46.727948
 20
13.82019
 30
0.0
 11
0.0000000000000182
 21
2.417669856324653
 31
0.0
210
0.0
220
0.0
230
1.0
 40
0.683214
 41
0.0
 42
6.283185307179586
  0
LINE
  5
1C81
100
AcDbEntity
  8
BORDER
100
AcDbLine
 10
34.042719
 20
10.838656
 30
0.0
 11
58.285859
 21
10.838656
 31
0.0
  0
LINE
  5
1C82
100
AcDbEntity
  8
BORDER
100
AcDbLine
 10
34.042719
 20
10.838656
 30
0.0
 11
58.285859
 21
10.838656
 31
0.0
  0
LWPOLYLINE
  5
1C83
100
AcDbEntity
  8
BORDER
 62
     5
100
AcDbPolyline
 90
        2
 70
     0
 43
1.205905
 10
32.83173
 20
25.016442
 10
59.36163
 20
25.016442
  0
LINE
  5
1C84
100
AcDbEntity
  8
BORDER
100
AcDbLine
 10
32.83173
 20
22.604633
 30
0.0
 11
59.36163
 21
22.604633
 31
0.0
  0
LINE
  5
1C85
100
AcDbEntity
  8
BORDER
100
AcDbLine
 10
45.355708
 20
17.003579
 30
0.0
 11
57.715445
 21
17.003579
 31
0.0
  0
LINE
  5
1C86
102
{ACAD_REACTORS
330
1C8B
102
}
100
AcDbEntity
  8
BORDER
100
AcDbLine
 10
38.017318
 20
19.435606
 30
0.0
 11
39.100767
 21
19.435606
 31
0.0
  0
ARC
  5
1C87
102
{ACAD_REACTORS
330
1C8B
102
}
100
AcDbEntity
  8
BORDER
100
AcDbCircle
 10
37.869832
 20
12.661005
 30
0.0
 40
1.230935
100
AcDbArc
 50
270.0
 51
0.0
  0
LINE
  5
1C88
102
{ACAD_REACTORS
330
1C8B
102
}
100
AcDbEntity
  8
BORDER
100
AcDbLine
 10
37.473413
 20
11.173312
 30
0.0
 11
42.855504
 21
11.173312
 31
0.0
  0
ARC
  5
1C89
100
AcDbEntity
  8
BORDER
100
AcDbCircle
 10
38.936443
 20
9.224268
 30
0.0
 40
0.976489
100
AcDbArc
 50
44.321228
 51
180.91508
  0
ARC
  5
1C8A
100
AcDbEntity
  8
BORDER
100
AcDbCircle
 10
38.86593
 20
9.125242
 30
0.0
 40
0.909686
100
AcDbArc
 50
174.737783
 51
327.723969
  0
HATCH
  5
1C8B
100
AcDbEntity
  8
BORDER
100
AcDbHatch
 10
0.0
 20
0.0
 30
0.0
210
0.0
220
0.0
230
1.0
  2
ANSI37
 70
     0
 71
     1
 91
        1
 92
        7
 72
     1
 73
     1
 93
       18
 10
39.1007668731201
 20
12.66100489170307
 42
-0.4142135623730715
 10
37.86983150631053
 20
11.43006952489361
 42
0.0
 10
37.47341336412846
 20
11.43006952489359
 42
0.0
 10
37.47341336412843
 20
11.1733123411083
 42
0.0
 10
42.85550395107796
 20
11.17331234110828
 42
0.0
 10
42.85550395107796
 20
11.43006952489361
 42
0.0
 10
42.45908580889522
 20
11.43006952489361
 42
-0.4142135623730579
 10
41.22815044208581
 20
12.66100489170318
 42
0.0
 10
41.22815044208581
 20
19.4356057110607
 42
0.0
 10
42.31159949957677
 20
19.4356057110607
 42
-0.4138200196737667
 10
44.76835615706997
 20
16.9821482901188
 42
0.0
 10
45.02530862973418
 20
16.98214829011878
 42
0.0
 10
45.02530862973475
 20
20.0632344955371
 42
0.0
 10
35.30360868547166
 20
20.06323449553711
 42
0.0
 10
35.30360868547166
 20
16.9821482901188
 42
0.0
 10
35.56056115813646
 20
16.9821482901188
 42
-0.4138200196737668
 10
38.01731781562967
 20
19.4356057110607
 42
0.0
 10
39.1007668731201
 20
19.43560571106068
 42
0.0
 97
       18
330
1CA8
330
1CA7
330
1CAA
330
1CA9
330
1C8C
330
1C95
330
1C97
330
1C96
330
1C86
330
1C98
330
1C87
330
1C94
330
1C93
330
1C88
330
1CA6
330
1C9A
330
1C9F
330
1C99
 75
     0
 76
     1
 52
0.0
 41
0.037367
 77
     0
 78
     2
 53
45.0
 43
26.551869
 44
-123.730926
 45
-0.0033028411367012
 46
0.0033028411367012
 79
     0
 53
135.0
 43
26.551869
 44
-123.730926
 45
-0.0033028411367012
 46
-0.0033028411367012
 79
     0
 47
0.049862
 98
        1
 10
39.903384
 20
15.916883
  0
LINE
  5
1C8C
102
{ACAD_REACTORS
330
1C8B
102
}
100
AcDbEntity
  8
BORDER
100
AcDbLine
 10
35.303609
 20
20.063234
 30
0.0
 11
45.025309
 21
20.063234
 31
0.0
  0
LINE
  5
1C8D
100
AcDbEntity
  8
BORDER
100
AcDbLine
 10
37.494808
 20
8.216841
 30
0.0
 11
35.974921
 21
10.200504
 31
0.0
  0
LINE
  5
1C8E
100
AcDbEntity
  8
BORDER
100
AcDbLine
 10
35.974921
 20
10.200504
 30
0.0
 11
35.974921
 21
8.216841
 31
0.0
  0
LINE
  5
1C8F
100
AcDbEntity
  8
BORDER
100
AcDbLine
 10
34.700229
 20
10.200504
 30
0.0
 11
35.5126
 21
10.200504
 31
0.0
  0
LINE
  5
1C90
100
AcDbEntity
  8
BORDER
100
AcDbLine
 10
34.700229
 20
8.216841
 30
0.0
 11
35.5126
 21
8.216841
 31
0.0
  0
LINE
  5
1C91
100
AcDbEntity
  8
BORDER
100
AcDbLine
 10
35.106415
 20
10.200504
 30
0.0
 11
35.106415
 21
8.216841
 31
0.0
  0
LINE
  5
1C92
100
AcDbEntity
  8
BORDER
100
AcDbLine
 10
37.494808
 20
10.200504
 30
0.0
 11
37.494808
 21
8.216841
 31
0.0
  0
LINE
  5
1C93
102
{ACAD_REACTORS
330
1C8B
102
}
100
AcDbEntity
  8
BORDER
100
AcDbLine
 10
37.473413
 20
11.43007
 30
0.0
 11
37.473413
 21
11.173312
 31
0.0
  0
LINE
  5
1C94
102
{ACAD_REACTORS
330
1C8B
102
}
100
AcDbEntity
  8
BORDER
100
AcDbLine
 10
37.473413
 20
11.43007
 30
0.0
 11
37.869832
 21
11.43007
 31
0.0
  0
LINE
  5
1C95
102
{ACAD_REACTORS
330
1C8B
102
}
100
AcDbEntity
  8
BORDER
100
AcDbLine
 10
35.303609
 20
16.982148
 30
0.0
 11
35.303609
 21
20.063234
 31
0.0
  0
ARC
  5
1C96
102
{ACAD_REACTORS
330
1C8B
102
}
100
AcDbEntity
  8
BORDER
100
AcDbCircle
 10
38.017318
 20
16.978847
 30
0.0
 40
2.456759
100
AcDbArc
 50
90.0
 51
179.923004
  0
LINE
  5
1C97
102
{ACAD_REACTORS
330
1C8B
102
}
100
AcDbEntity
  8
BORDER
100
AcDbLine
 10
35.303609
 20
16.982148
 30
0.0
 11
35.560559
 21
16.982148
 31
0.0
  0
LINE
  5
1C98
102
{ACAD_REACTORS
330
1C8B
102
}
100
AcDbEntity
  8
BORDER
100
AcDbLine
 10
39.100767
 20
12.661005
 30
0.0
 11
39.100767
 21
19.435606
 31
0.0
  0
LINE
  5
1C99
102
{ACAD_REACTORS
330
1C8B
102
}
100
AcDbEntity
  8
BORDER
100
AcDbLine
 10
41.22815
 20
12.661005
 30
0.0
 11
41.22815
 21
19.435606
 31
0.0
  0
LINE
  5
1C9A
102
{ACAD_REACTORS
330
1C8B
102
}
100
AcDbEntity
  8
BORDER
100
AcDbLine
 10
42.855504
 20
11.43007
 30
0.0
 11
42.459086
 21
11.43007
 31
0.0
  0
LINE
  5
1C9B
100
AcDbEntity
  8
BORDER
100
AcDbLine
 10
43.105754
 20
10.200504
 30
0.0
 11
42.419993
 21
10.200504
 31
0.0
  0
LINE
  5
1C9C
100
AcDbEntity
  8
BORDER
100
AcDbLine
 10
42.419993
 20
9.183386
 30
0.0
 11
43.105754
 21
9.183386
 31
0.0
  0
SPLINE
  5
1C9D
100
AcDbEntity
  8
BORDER
100
AcDbSpline
210
0.0
220
0.0
230
1.0
 70
    11
 71
     3
 72
    24
 73
    20
 74
     0
 42
0.0000001
 43
0.0000001
 40
0.0
 40
0.0
 40
0.0
 40
0.0
 40
0.474866629778075
 40
0.474866629778075
 40
1.277791044886493
 40
1.277791044886493
 40
2.080715459994911
 40
2.080715459994911
 40
2.883639875103329
 40
2.883639875103329
 40
3.686564290211747
 40
3.686564290211747
 40
4.489488705320165
 40
4.489488705320165
 40
5.292413120428583
 40
5.292413120428583
 40
6.095337535537001
 40
6.095337535537001
 40
6.283185307179586
 40
6.283185307179586
 40
6.283185307179586
 40
6.283185307179586
 10
40.93585468750868
 20
10.22740896611679
 30
0.0
 10
40.77508257178048
 20
10.22740896611679
 30
0.0
 10
40.61444588221634
 20
10.18841098949792
 30
0.0
 10
40.22972080239878
 20
9.989995613859024
 30
0.0
 10
40.04202769316899
 20
9.763911656523845
 30
0.0
 10
39.8850322297294
 20
9.241873279930608
 30
0.0
 10
39.91677360060327
 20
8.949416433232102
 30
0.0
 10
40.1820968167958
 20
8.473488101358336
 30
0.0
 10
40.41391059710429
 20
8.293212836590878
 30
0.0
 10
40.93959434308588
 20
8.154081790704616
 30
0.0
 10
41.22992294925853
 20
8.196170660904336
 30
0.0
 10
41.69481540323491
 20
8.478885348613866
 30
0.0
 10
41.86625750163384
 20
8.717597846984157
 30
0.0
 10
41.98641429141765
 20
9.249381340913252
 30
0.0
 10
41.93433058365899
 20
9.538891349948166
 30
0.0
 10
41.63642215611003
 20
9.995013564780922
 30
0.0
 10
41.39258453353621
 20
10.15855962709037
 30
0.0
 10
41.06304985080877
 20
10.22139905527802
 30
0.0
 10
40.99945293128487
 20
10.22740896611679
 30
0.0
 10
40.93585468750868
 20
10.22740896611679
 30
0.0
  0
LINE
  5
1C9E
100
AcDbEntity
  8
BORDER
100
AcDbLine
 10
42.419993
 20
10.200504
 30
0.0
 11
42.419993
 21
8.216841
 31
0.0
  0
ARC
  5
1C9F
102
{ACAD_REACTORS
330
1C8B
102
}
100
AcDbEntity
  8
BORDER
100
AcDbCircle
 10
42.459086
 20
12.661005
 30
0.0
 40
1.230935
100
AcDbArc
 50
180.0
 51
270.0
  0
LINE
  5
1CA0
100
AcDbEntity
  8
BORDER
100
AcDbLine
 10
45.030335
 20
10.200504
 30
0.0
 11
44.515485
 21
10.200504
 31
0.0
  0
LINE
  5
1CA1
100
AcDbEntity
  8
BORDER
100
AcDbLine
 10
44.515485
 20
9.183386
 30
0.0
 11
45.030335
 21
9.183386
 31
0.0
  0
LINE
  5
1CA2
100
AcDbEntity
  8
BORDER
100
AcDbLine
 10
44.515485
 20
10.200504
 30
0.0
 11
44.515485
 21
8.216841
 31
0.0
  0
ARC
  5
1CA3
100
AcDbEntity
  8
BORDER
100
AcDbCircle
 10
43.105754
 20
9.691945
 30
0.0
 40
0.508559
100
AcDbArc
 50
270.0
 51
90.0
  0
LINE
  5
1CA4
100
AcDbEntity
  8
BORDER
100
AcDbLine
 10
42.962941
 20
9.183386
 30
0.0
 11
43.750455
 21
8.216841
 31
0.0
  0
ARC
  5
1CA5
100
AcDbEntity
  8
BORDER
100
AcDbCircle
 10
45.030335
 20
9.691945
 30
0.0
 40
0.508559
100
AcDbArc
 50
270.0
 51
90.0
  0
LINE
  5
1CA6
102
{ACAD_REACTORS
330
1C8B
102
}
100
AcDbEntity
  8
BORDER
100
AcDbLine
 10
42.855504
 20
11.43007
 30
0.0
 11
42.855504
 21
11.173312
 31
0.0
  0
ARC
  5
1CA7
102
{ACAD_REACTORS
330
1C8B
102
}
100
AcDbEntity
  8
BORDER
100
AcDbCircle
 10
42.311599
 20
16.978847
 30
0.0
 40
2.456759
100
AcDbArc
 50
0.076996
 51
90.0
  0
LINE
  5
1CA8
102
{ACAD_REACTORS
330
1C8B
102
}
100
AcDbEntity
  8
BORDER
100
AcDbLine
 10
42.311599
 20
19.435606
 30
0.0
 11
41.22815
 21
19.435606
 31
0.0
  0
LINE
  5
1CA9
102
{ACAD_REACTORS
330
1C8B
102
}
100
AcDbEntity
  8
BORDER
100
AcDbLine
 10
45.025309
 20
16.982148
 30
0.0
 11
45.025309
 21
20.063234
 31
0.0
  0
LINE
  5
1CAA
102
{ACAD_REACTORS
330
1C8B
102
}
100
AcDbEntity
  8
BORDER
100
AcDbLine
 10
45.025309
 20
16.982148
 30
0.0
 11
44.768358
 21
16.982148
 31
0.0
  0
LINE
  5
1CAB
100
AcDbEntity
  8
BORDER
100
AcDbLine
 10
45.698286
 20
19.118629
 30
0.0
 11
45.921197
 21
19.118629
 31
0.0
  0
LINE
  5
1CAC
100
AcDbEntity
  8
BORDER
100
AcDbLine
 10
45.475375
 20
19.118629
 30
0.0
 11
45.698286
 21
19.118629
 31
0.0
  0
LINE
  5
1CAD
100
AcDbEntity
  8
BORDER
100
AcDbLine
 10
45.475375
 20
17.670632
 30
0.0
 11
45.921197
 21
17.670632
 31
0.0
  0
LINE
  5
1CAE
100
AcDbEntity
  8
BORDER
100
AcDbLine
 10
45.698286
 20
19.118629
 30
0.0
 11
45.698286
 21
17.670632
 31
0.0
  0
LINE
  5
1CAF
100
AcDbEntity
  8
BORDER
100
AcDbLine
 10
46.353353
 20
19.148902
 30
0.0
 11
46.353353
 21
17.670632
 31
0.0
  0
LINE
  5
1CB0
102
{ACAD_REACTORS
330
1CB5
102
}
100
AcDbEntity
  8
BORDER
100
AcDbLine
 10
54.019163
 20
16.380762
 30
0.0
 11
56.399998
 21
16.380762
 31
0.0
  0
LINE
  5
1CB1
102
{ACAD_REACTORS
330
1CB5
102
}
100
AcDbEntity
  8
BORDER
100
AcDbLine
 10
54.015342
 20
11.214196
 30
0.0
 11
56.220755
 21
11.214196
 31
0.0
  0
LINE
  5
1CB2
100
AcDbEntity
  8
BORDER
100
AcDbLine
 10
54.345311
 20
10.200504
 30
0.0
 11
55.625113
 21
10.200504
 31
0.0
  0
LINE
  5
1CB3
100
AcDbEntity
  8
BORDER
100
AcDbLine
 10
55.625113
 20
8.216841
 30
0.0
 11
54.345311
 21
8.216841
 31
0.0
  0
LINE
  5
1CB4
100
AcDbEntity
  8
BORDER
100
AcDbLine
 10
54.345311
 20
9.208673
 30
0.0
 11
55.196393
 21
9.208673
 31
0.0
  0
HATCH
  5
1CB5
100
AcDbEntity
  8
BORDER
100
AcDbHatch
 10
0.0
 20
0.0
 30
0.0
210
0.0
220
0.0
230
1.0
  2
ANSI37
 70
     0
 71
     1
 91
        2
 92
        7
 72
     1
 73
     1
 93
       16
 10
54.75860310399156
 20
11.85624457398182
 42
-0.4142135623729139
 10
54.25048443513412
 20
11.3481259051247
 42
0.0
 10
54.01534236558589
 20
11.34812590512467
 42
0.0
 10
54.01534236558589
 20
11.21419592474981
 42
0.0
 10
56.22075484288143
 20
11.21419592474981
 42
0.0
 10
56.22075484288145
 20
11.34812590512473
 42
0.0
 10
55.98561277333414
 20
11.3481259051247
 42
-0.4142135623735865
 10
55.47749410447585
 20
11.85624457398213
 42
0.0
 10
55.47749410447585
 20
13.63710570803392
 42
0.0609117558027942
 10
56.36697001677688
 20
13.52752718791836
 42
0.4291497434353715
 10
57.9387831360775
 20
14.93987679586669
 42
0.3916311771498474
 10
56.39999765135979
 20
16.38076187291203
 42
0.0
 10
54.01916294833016
 20
16.38076187291203
 42
0.0
 10
54.01916294833019
 20
16.2389433984876
 42
0.0
 10
54.25048443513436
 20
16.2389433984876
 42
-0.414213562372964
 10
54.75860310399156
 20
15.73082472963017
 42
0.0
 97
       16
330
1CE1
330
1CB0
330
1CD9
330
1CDB
330
1CD8
330
1CB8
330
1CC5
330
1CC7
330
1CC6
330
1CB1
330
1CEB
330
1CEA
330
1CE8
330
1CEC
330
1CE9
330
1CE7
 92
       22
 72
     1
 73
     1
 93
        3
 10
55.47749410447585
 20
15.99913860393822
 42
-0.5287425889414161
 10
57.07367614829464
 20
14.87899967076613
 42
-0.5439228899277302
 10
55.47749410447585
 20
13.83191281353129
 42
0.0
 97
        3
330
1CE0
330
1CE6
330
1CDF
 75
     0
 76
     1
 52
0.0
 41
0.037367
 77
     0
 78
     2
 53
45.0
 43
26.551869
 44
-123.730926
 45
-0.0033028411367012
 46
0.0033028411367012
 79
     0
 53
135.0
 43
26.551869
 44
-123.730926
 45
-0.0033028411367012
 46
-0.0033028411367012
 79
     0
 47
0.027301
 98
        2
 10
55.058127
 20
14.63609
 10
55.058127
 20
14.63609
  0
HATCH
  5
1CB6
100
AcDbEntity
  8
BORDER
100
AcDbHatch
 10
0.0
 20
0.0
 30
0.0
210
0.0
220
0.0
230
1.0
  2
ANSI37
 70
     0
 71
     1
 91
        2
 92
        7
 72
     1
 73
     1
 93
       16
 10
50.42043510767971
 20
11.87581757884448
 42
-0.414213562373094
 10
49.91231643882251
 20
11.36769890998729
 42
0.0
 10
49.67717436927419
 20
11.36769890998731
 42
0.0
 10
49.67717436927417
 20
11.23376892961138
 42
0.0
 10
51.88258684657009
 20
11.23376892961137
 42
0.0
 10
51.88258684657012
 20
11.36769890998729
 42
0.0
 10
51.64744477702175
 20
11.36769890998729
 42
-0.4142135623730871
 10
51.13932610816459
 20
11.87581757884444
 42
0.0
 10
51.13932610816459
 20
13.65667871289566
 42
0.060911755802347
 10
52.0288020204591
 20
13.54710019278016
 42
0.4291497434371169
 10
53.60061513976541
 20
14.95944980073117
 42
0.3951020987304424
 10
52.04316845274068
 20
16.40033487777363
 42
0.0
 10
49.68099495201837
 20
16.40033487777363
 42
0.0
 10
49.68099495201837
 20
16.2585164033502
 42
0.0
 10
49.9123164388225
 20
16.2585164033502
 42
-0.4142135623731031
 10
50.42043510767971
 20
15.75039773449299
 42
0.0
 97
        1
330
1CB9
 92
       22
 72
     1
 73
     1
 93
        3
 10
51.13932610816459
 20
16.01871160879957
 42
-0.5287425889467374
 10
52.73550815198311
 20
14.89857267560792
 42
-0.5439228899217136
 10
51.13932610816459
 20
13.85148581839364
 42
0.0
 97
        1
330
1CB7
 75
     0
 76
     1
 52
0.0
 41
0.037367
 77
     0
 78
     2
 53
45.0
 43
26.551869
 44
-123.730926
 45
-0.0033028411367012
 46
0.0033028411367012
 79
     0
 53
135.0
 43
26.551869
 44
-123.730926
 45
-0.0033028411367012
 46
-0.0033028411367012
 79
     0
 47
0.027301
 98
        2
 10
50.708963
 20
15.084966
 10
50.708963
 20
15.084966
  0
LWPOLYLINE
  5
1CB7
102
{ACAD_REACTORS
330
1CB6
102
}
100
AcDbEntity
  8
BORDER
100
AcDbPolyline
 90
        3
 70
     1
 43
0.0
 10
51.139326
 20
13.851486
 42
0.543923
 10
52.735508
 20
14.898573
 42
0.528743
 10
51.139326
 20
16.018712
  0
LINE
  5
1CB8
102
{ACAD_REACTORS
330
1CB5
102
}
100
AcDbEntity
  8
BORDER
100
AcDbLine
 10
54.758603
 20
11.856245
 30
0.0
 11
54.758603
 21
15.730825
 31
0.0
  0
LWPOLYLINE
  5
1CB9
102
{ACAD_REACTORS
330
1CB6
102
}
100
AcDbEntity
  8
BORDER
100
AcDbPolyline
 90
       17
 70
     0
 43
0.0
 10
52.028802
 20
13.5471
 42
-0.060912
 10
51.139326
 20
13.656679
 10
51.139326
 20
11.875818
 42
0.414214
 10
51.647445
 20
11.367699
 10
51.882587
 20
11.367699
 10
51.882587
 20
11.233769
 10
49.677174
 20
11.233769
 10
49.677174
 20
11.367699
 10
49.912316
 20
11.367699
 42
0.414214
 10
50.420435
 20
11.875818
 10
50.420435
 20
15.750398
 42
0.414214
 10
49.912316
 20
16.258516
 10
49.680995
 20
16.258516
 10
49.680995
 20
16.400335
 10
52.043168
 20
16.400335
 42
-0.395102
 10
53.600615
 20
14.95945
 42
-0.42915
 10
52.028802
 20
13.5471
  0
LINE
  5
1CBA
100
AcDbEntity
  8
BORDER
100
AcDbLine
 10
50.553085
 20
8.940133
 30
0.0
 11
51.535687
 21
8.940133
 31
0.0
  0
LINE
  5
1CBB
100
AcDbEntity
  8
BORDER
100
AcDbLine
 10
51.035827
 20
10.200504
 30
0.0
 11
50.276054
 21
8.216841
 31
0.0
  0
LINE
  5
1CBC
100
AcDbEntity
  8
BORDER
100
AcDbLine
 10
48.401149
 20
9.183386
 30
0.0
 11
49.08691
 21
9.183386
 31
0.0
  0
LINE
  5
1CBD
100
AcDbEntity
  8
BORDER
100
AcDbLine
 10
49.08691
 20
10.200504
 30
0.0
 11
48.401149
 21
10.200504
 31
0.0
  0
LINE
  5
1CBE
100
AcDbEntity
  8
BORDER
100
AcDbLine
 10
48.401149
 20
10.200504
 30
0.0
 11
48.401149
 21
8.216841
 31
0.0
  0
ARC
  5
1CBF
100
AcDbEntity
  8
BORDER
100
AcDbCircle
 10
49.08691
 20
9.691945
 30
0.0
 40
0.508559
100
AcDbArc
 50
270.0
 51
90.0
  0
LINE
  5
1CC0
100
AcDbEntity
  8
BORDER
100
AcDbLine
 10
48.944097
 20
9.183386
 30
0.0
 11
49.731611
 21
8.216841
 31
0.0
  0
LINE
  5
1CC1
100
AcDbEntity
  8
BORDER
100
AcDbLine
 10
52.225961
 20
10.200504
 30
0.0
 11
53.906825
 21
10.200504
 31
0.0
  0
LINE
  5
1CC2
100
AcDbEntity
  8
BORDER
100
AcDbLine
 10
51.822543
 20
8.216841
 30
0.0
 11
51.035827
 21
10.200504
 31
0.0
  0
LINE
  5
1CC3
100
AcDbEntity
  8
BORDER
100
AcDbLine
 10
54.345311
 20
8.216841
 30
0.0
 11
54.345311
 21
10.200504
 31
0.0
  0
LINE
  5
1CC4
100
AcDbEntity
  8
BORDER
100
AcDbLine
 10
53.066393
 20
10.200504
 30
0.0
 11
53.066393
 21
8.216841
 31
0.0
  0
ARC
  5
1CC5
102
{ACAD_REACTORS
330
1CB5
102
}
100
AcDbEntity
  8
BORDER
100
AcDbCircle
 10
54.250484
 20
11.856245
 30
0.0
 40
0.508119
100
AcDbArc
 50
270.0
 51
360.0
  0
LINE
  5
1CC6
102
{ACAD_REACTORS
330
1CB5
102
}
100
AcDbEntity
  8
BORDER
100
AcDbLine
 10
54.015342
 20
11.348126
 30
0.0
 11
54.015342
 21
11.214196
 31
0.0
  0
LINE
  5
1CC7
102
{ACAD_REACTORS
330
1CB5
102
}
100
AcDbEntity
  8
BORDER
100
AcDbLine
 10
54.015342
 20
11.348126
 30
0.0
 11
54.250484
 21
11.348126
 31
0.0
  0
ARC
  5
1CC8
100
AcDbEntity
  8
BORDER
100
AcDbCircle
 10
48.269473
 20
18.394631
 30
0.0
 40
0.723999
100
AcDbArc
 50
270.0
 51
90.0
  0
LINE
  5
1CC9
100
AcDbEntity
  8
BORDER
100
AcDbLine
 10
48.269473
 20
19.118629
 30
0.0
 11
47.961245
 21
19.118629
 31
0.0
  0
LINE
  5
1CCA
100
AcDbEntity
  8
BORDER
100
AcDbLine
 10
47.961245
 20
17.670632
 30
0.0
 11
48.269473
 21
17.670632
 31
0.0
  0
LINE
  5
1CCB
100
AcDbEntity
  8
BORDER
100
AcDbLine
 10
47.345879
 20
19.118629
 30
0.0
 11
47.345879
 21
17.670632
 31
0.0
  0
LINE
  5
1CCC
100
AcDbEntity
  8
BORDER
100
AcDbLine
 10
47.961245
 20
19.118629
 30
0.0
 11
47.961245
 21
17.670632
 31
0.0
  0
LINE
  5
1CCD
100
AcDbEntity
  8
BORDER
100
AcDbLine
 10
50.482261
 20
19.118629
 30
0.0
 11
50.482261
 21
18.15697
 31
0.0
  0
LINE
  5
1CCE
100
AcDbEntity
  8
BORDER
100
AcDbLine
 10
49.509585
 20
18.15697
 30
0.0
 11
49.509585
 21
19.118629
 31
0.0
  0
ARC
  5
1CCF
100
AcDbEntity
  8
BORDER
100
AcDbCircle
 10
49.995923
 20
18.15697
 30
0.0
 40
0.486338
100
AcDbArc
 50
180.0
 51
0.0
  0
LINE
  5
1CD0
100
AcDbEntity
  8
BORDER
100
AcDbLine
 10
52.054837
 20
19.118629
 30
0.0
 11
53.244601
 21
19.118629
 31
0.0
  0
ARC
  5
1CD1
100
AcDbEntity
  8
BORDER
100
AcDbCircle
 10
51.617569
 20
18.026181
 30
0.0
 40
0.204474
100
AcDbArc
 50
331.630608
 51
60.315223
  0
ARC
  5
1CD2
100
AcDbEntity
  8
BORDER
100
AcDbCircle
 10
57.713488
 20
28.720065
 30
0.0
 40
12.104847
100
AcDbArc
 50
236.383068
 51
240.315223
  0
ARC
  5
1CD3
100
AcDbEntity
  8
BORDER
100
AcDbCircle
 10
51.38534
 20
18.129808
 30
0.0
 40
0.458452
100
AcDbArc
 50
200.502447
 51
334.026213
  0
ARC
  5
1CD4
100
AcDbEntity
  8
BORDER
100
AcDbCircle
 10
51.32705
 20
18.671094
 30
0.0
 40
0.449141
100
AcDbArc
 50
25.379638
 51
143.047804
  0
ARC
  5
1CD5
100
AcDbEntity
  8
BORDER
100
AcDbCircle
 10
51.124993
 20
18.809939
 30
0.0
 40
0.204474
100
AcDbArc
 50
140.101426
 51
236.383068
  0
LINE
  5
1CD6
100
AcDbEntity
  8
BORDER
100
AcDbLine
 10
52.649719
 20
19.118629
 30
0.0
 11
52.649719
 21
17.670632
 31
0.0
  0
ARC
  5
1CD7
100
AcDbEntity
  8
BORDER
100
AcDbCircle
 10
54.078649
 20
18.753141
 30
0.0
 40
0.365488
100
AcDbArc
 50
270.0
 51
90.0
  0
ARC
  5
1CD8
102
{ACAD_REACTORS
330
1CB5
102
}
100
AcDbEntity
  8
BORDER
100
AcDbCircle
 10
54.250484
 20
15.730825
 30
0.0
 40
0.508119
100
AcDbArc
 50
0.0
 51
90.0
  0
LINE
  5
1CD9
102
{ACAD_REACTORS
330
1CB5
102
}
100
AcDbEntity
  8
BORDER
100
AcDbLine
 10
54.019163
 20
16.380762
 30
0.0
 11
54.019163
 21
16.238943
 31
0.0
  0
LINE
  5
1CDA
100
AcDbEntity
  8
BORDER
100
AcDbLine
 10
53.977687
 20
18.387653
 30
0.0
 11
54.436926
 21
17.670632
 31
0.0
  0
LINE
  5
1CDB
102
{ACAD_REACTORS
330
1CB5
102
}
100
AcDbEntity
  8
BORDER
100
AcDbLine
 10
54.019163
 20
16.238943
 30
0.0
 11
54.250484
 21
16.238943
 31
0.0
  0
LINE
  5
1CDC
100
AcDbEntity
  8
BORDER
100
AcDbLine
 10
53.551955
 20
19.118629
 30
0.0
 11
53.551955
 21
17.670632
 31
0.0
  0
LINE
  5
1CDD
100
AcDbEntity
  8
BORDER
100
AcDbLine
 10
54.078649
 20
19.118629
 30
0.0
 11
53.551955
 21
19.118629
 31
0.0
  0
LINE
  5
1CDE
100
AcDbEntity
  8
BORDER
100
AcDbLine
 10
53.551955
 20
18.387653
 30
0.0
 11
54.078649
 21
18.387653
 31
0.0
  0
LINE
  5
1CDF
102
{ACAD_REACTORS
330
1CB5
102
}
100
AcDbEntity
  8
BORDER
100
AcDbLine
 10
55.477494
 20
15.999139
 30
0.0
 11
55.477494
 21
13.831913
 31
0.0
  0
ARC
  5
1CE0
102
{ACAD_REACTORS
330
1CB5
102
}
100
AcDbEntity
  8
BORDER
100
AcDbCircle
 10
55.894027
 20
14.895355
 30
0.0
 40
1.179762
100
AcDbArc
 50
359.205673
 51
110.674935
  0
ARC
  5
1CE1
102
{ACAD_REACTORS
330
1CB5
102
}
100
AcDbEntity
  8
BORDER
100
AcDbCircle
 10
56.390667
 20
14.828686
 30
0.0
 40
1.552104
100
AcDbArc
 50
4.10812
 51
90.34444
  0
LINE
  5
1CE2
100
AcDbEntity
  8
BORDER
100
AcDbLine
 10
56.177935
 20
8.216841
 30
0.0
 11
56.9266
 21
8.216841
 31
0.0
  0
LINE
  5
1CE3
100
AcDbEntity
  8
BORDER
100
AcDbLine
 10
56.9266
 20
10.200504
 30
0.0
 11
56.177935
 21
10.200504
 31
0.0
  0
LINE
  5
1CE4
100
AcDbEntity
  8
BORDER
100
AcDbLine
 10
56.177935
 20
10.200504
 30
0.0
 11
56.177935
 21
8.216841
 31
0.0
  0
ARC
  5
1CE5
100
AcDbEntity
  8
BORDER
100
AcDbCircle
 10
56.9266
 20
9.208673
 30
0.0
 40
0.991832
100
AcDbArc
 50
270.0
 51
90.0
  0
ARC
  5
1CE6
102
{ACAD_REACTORS
330
1CB5
102
}
100
AcDbEntity
  8
BORDER
100
AcDbCircle
 10
55.936703
 20
14.87205
 30
0.0
 40
1.136995
100
AcDbArc
 50
246.179097
 51
0.350223
  0
ARC
  5
1CE7
102
{ACAD_REACTORS
330
1CB5
102
}
100
AcDbEntity
  8
BORDER
100
AcDbCircle
 10
56.481644
 20
14.980722
 30
0.0
 40
1.457712
100
AcDbArc
 50
265.488062
 51
358.394374
  0
ARC
  5
1CE8
102
{ACAD_REACTORS
330
1CB5
102
}
100
AcDbEntity
  8
BORDER
100
AcDbCircle
 10
55.985613
 20
11.856245
 30
0.0
 40
0.508119
100
AcDbArc
 50
180.0
 51
270.0
  0
ARC
  5
1CE9
102
{ACAD_REACTORS
330
1CB5
102
}
100
AcDbEntity
  8
BORDER
100
AcDbCircle
 10
56.370306
 20
17.219446
 30
0.0
 40
3.69192
100
AcDbArc
 50
256.005504
 51
269.948223
  0
LINE
  5
1CEA
102
{ACAD_REACTORS
330
1CB5
102
}
100
AcDbEntity
  8
BORDER
100
AcDbLine
 10
55.985613
 20
11.348126
 30
0.0
 11
56.220755
 21
11.348126
 31
0.0
  0
LINE
  5
1CEB
102
{ACAD_REACTORS
330
1CB5
102
}
100
AcDbEntity
  8
BORDER
100
AcDbLine
 10
56.220755
 20
11.348126
 30
0.0
 11
56.220755
 21
11.214196
 31
0.0
  0
LINE
  5
1CEC
102
{ACAD_REACTORS
330
1CB5
102
}
100
AcDbEntity
  8
BORDER
100
AcDbLine
 10
55.477494
 20
13.637106
 30
0.0
 11
55.477494
 21
11.856245
 31
0.0
  0
LINE
  5
1CED
100
AcDbEntity
  8
BORDER
100
AcDbLine
 10
54.889398
 20
19.118629
 30
0.0
 11
55.33522
 21
19.118629
 31
0.0
  0
LINE
  5
1CEE
100
AcDbEntity
  8
BORDER
100
AcDbLine
 10
54.889398
 20
17.670632
 30
0.0
 11
55.33522
 21
17.670632
 31
0.0
  0
LINE
  5
1CEF
100
AcDbEntity
  8
BORDER
100
AcDbLine
 10
55.112309
 20
19.118629
 30
0.0
 11
55.112309
 21
17.670632
 31
0.0
  0
LINE
  5
1CF0
100
AcDbEntity
  8
BORDER
100
AcDbLine
 10
55.783406
 20
19.118629
 30
0.0
 11
56.655016
 21
19.118629
 31
0.0
  0
LINE
  5
1CF1
100
AcDbEntity
  8
BORDER
100
AcDbLine
 10
56.655016
 20
17.670632
 30
0.0
 11
55.783406
 21
17.670632
 31
0.0
  0
LINE
  5
1CF2
100
AcDbEntity
  8
BORDER
100
AcDbLine
 10
55.783406
 20
17.670632
 30
0.0
 11
55.783406
 21
19.118629
 31
0.0
  0
LINE
  5
1CF3
100
AcDbEntity
  8
BORDER
100
AcDbLine
 10
55.783406
 20
18.394631
 30
0.0
 11
56.464965
 21
18.394631
 31
0.0
  0
ARC
  5
1CF4
100
AcDbEntity
  8
BORDER
100
AcDbCircle
 10
57.640691
 20
18.026181
 30
0.0
 40
0.204474
100
AcDbArc
 50
331.630608
 51
60.315223
  0
ARC
  5
1CF5
100
AcDbEntity
  8
BORDER
100
AcDbCircle
 10
57.148116
 20
18.809939
 30
0.0
 40
0.204474
100
AcDbArc
 50
140.101426
 51
236.383068
  0
ARC
  5
1CF6
100
AcDbEntity
  8
BORDER
100
AcDbCircle
 10
63.73661
 20
28.720065
 30
0.0
 40
12.104847
100
AcDbArc
 50
236.383068
 51
240.315223
  0
ARC
  5
1CF7
100
AcDbEntity
  8
BORDER
100
AcDbCircle
 10
57.350172
 20
18.671094
 30
0.0
 40
0.449141
100
AcDbArc
 50
25.379638
 51
143.047804
  0
ARC
  5
1CF8
100
AcDbEntity
  8
BORDER
100
AcDbCircle
 10
57.408463
 20
18.129808
 30
0.0
 40
0.458452
100
AcDbArc
 50
200.502447
 51
334.026213
  0
ARC
  5
1CF9
100
AcDbEntity
  8
BORDER
100
AcDbCircle
 10
59.36163
 20
20.192824
 30
0.0
 40
2.411809
100
AcDbArc
 50
0.0
 51
90.0
  0
TEXT
  5
1D0A
100
AcDbEntity
  8
BORDER
 62
     6
100
AcDbText
 10
70.704418
 20
6.122618
 30
0.0
 40
0.919803
  1
Phone: 800/354-4534  Fax: 574/223-6106
  7
ROMANC
100
AcDbText
  0
LINE
  5
1D0B
100
AcDbEntity
  8
BORDER
100
AcDbLine
 10
69.008866
 20
17.034832
 30
0.0
 11
105.770684
 21
17.034832
 31
0.0
  0
LINE
  5
1D0C
100
AcDbEntity
  8
BORDER
100
AcDbLine
 10
69.008866
 20
11.224866
 30
0.0
 11
125.90243
 21
11.224866
 31
0.0
  0
LINE
  5
1D0D
100
AcDbEntity
  8
BORDER
100
AcDbLine
 10
69.008866
 20
12.957396
 30
0.0
 11
125.90243
 21
12.957396
 31
0.0
  0
LINE
  5
1D0E
100
AcDbEntity
  8
BORDER
100
AcDbLine
 10
71.420675
 20
22.604633
 30
0.0
 11
125.90243
 21
22.604633
 31
0.0
  0
LINE
  5
1D0F
100
AcDbEntity
  8
BORDER
100
AcDbLine
 10
69.008866
 20
5.721969
 30
0.0
 11
125.90243
 21
5.721969
 31
0.0
  0
TEXT
  5
1D11
100
AcDbEntity
  8
BORDER
 62
     6
100
AcDbText
 10
79.009013
 20
7.97253
 30
0.0
 40
0.919803
  1
Rochester, IN  46975
  7
ROMANC
100
AcDbText
  0
TEXT
  5
1D12
100
AcDbEntity
  8
BORDER
 62
     6
100
AcDbText
 10
75.048082
 20
9.606016
 30
0.0
 40
0.919803
  1
Highway 25 North P.O. Box 420
  7
ROMANC
100
AcDbText
  0
LWPOLYLINE
  5
1D14
100
AcDbEntity
  8
BORDER
 62
     5
100
AcDbPolyline
 90
        2
 70
     0
 43
1.205905
 10
64.185248
 20
5.721969
 10
64.185248
 20
20.192824
  0
LWPOLYLINE
  5
1D15
100
AcDbEntity
  8
BORDER
 62
     5
100
AcDbPolyline
 90
        2
 70
     0
 43
1.205905
 10
66.597057
 20
20.192824
 10
66.597057
 20
5.721969
  0
LINE
  5
1D16
100
AcDbEntity
  8
BORDER
100
AcDbLine
 10
69.008866
 20
5.721969
 30
0.0
 11
69.008866
 21
11.224866
 31
0.0
  0
LWPOLYLINE
  5
1D18
100
AcDbEntity
  8
BORDER
 62
     5
100
AcDbPolyline
 90
        2
 70
     0
 43
1.205905
 10
71.420675
 20
25.016442
 42
0.414214
 10
66.597057
 20
20.192824
 42
-0.560527
  0
TEXT
  5
1D19
100
AcDbEntity
  8
BORDER
 62
     6
100
AcDbText
 10
69.358331
 20
15.428085
 30
0.0
 40
1.082121
  1
Reference:
  7
ROMANC
100
AcDbText
  0
ARC
  5
1D1A
100
AcDbEntity
  8
BORDER
100
AcDbCircle
 10
71.420675
 20
20.192824
 30
0.0
 40
2.411809
100
AcDbArc
 50
90.0
 51
180.0
  0
LINE
  5
1D1B
100
AcDbEntity
  8
BORDER
100
AcDbLine
 10
69.008866
 20
12.957396
 30
0.0
 11
69.008866
 21
20.192824
 31
0.0
  0
TEXT
  5
1D1D
100
AcDbEntity
  8
BORDER
 62
     6
100
AcDbText
 10
84.663043
 20
13.62173
 30
0.0
 40
1.082121
  1
CFM30X40X36A
  7
ROMANC
100
AcDbText
  0
LINE
  5
1D26
100
AcDbEntity
  8
BORDER
100
AcDbLine
 10
105.770684
 20
5.721969
 30
0.0
 11
105.770684
 21
11.224866
 31
0.0
  0
TEXT
  5
1D27
100
AcDbEntity
  8
BORDER
 62
     6
100
AcDbText
 10
106.326701
 20
9.34192
 30
0.0
 40
1.082121
  1
Supersedes Prints
  7
ROMANC
100
AcDbText
  0
TEXT
  5
1D28
100
AcDbEntity
  8
BORDER
 62
     6
100
AcDbText
 10
106.265016
 20
15.851545
 30
0.0
 40
1.082121
  1
Appv'd By: .
  7
ROMANC
100
AcDbText
  0
TEXT
  5
1D29
100
AcDbEntity
  8
BORDER
 62
     6
100
AcDbText
 10
106.265016
 20
13.273211
 30
0.0
 40
1.082121
  1
Date: 02/24/04
  7
ROMANC
100
AcDbText
  0
TEXT
  5
1D2A
100
AcDbEntity
  8
BORDER
 62
     6
100
AcDbText
 10
106.326701
 20
7.589915
 30
0.0
 40
1.082121
  1
Prior To:
  7
ROMANC
100
AcDbText
  0
TEXT
  5
1D2B
100
AcDbEntity
  8
BORDER
 62
     6
100
AcDbText
 10
106.265016
 20
18.429879
 30
0.0
 40
1.082121
  1
Drawn By:
  7
ROMANC
100
AcDbText
  0
TEXT
  5
1D2C
100
AcDbEntity
  8
BORDER
 62
     6
100
AcDbText
 10
106.265016
 20
21.008213
 30
0.0
 40
1.082121
  1
Scale: None
  7
ROMANC
100
AcDbText
  0
LINE
  5
1D2E
100
AcDbEntity
  8
BORDER
100
AcDbLine
 10
105.770684
 20
12.957396
 30
0.0
 11
105.770684
 21
22.604633
 31
0.0
  0
TEXT
  5
1D37
100
AcDbEntity
  8
BORDER
 62
     6
100
AcDbText
 10
116.195897
 20
18.314634
 30
0.0
 40
1.475915
  1
RM
  7
COUNTRYBLUEPRINT
100
AcDbText
  0
LWPOLYLINE
  5
1E77
100
AcDbEntity
  8
BORDER
 62
     5
100
AcDbPolyline
 90
        2
 70
     0
 43
0.482362
 10
202.922327
 20
25.936661
 10
202.922327
 20
229.0455
  0
LINE
  5
1E78
100
AcDbEntity
  8
LIMITS
 62
     7
100
AcDbLine
 10
206.781221
 20
-1.513458
 30
0.0
 11
206.781221
 21
234.833841
 31
0.0
  0
LINE
  5
1E79
100
AcDbEntity
  8
LIMITS
100
AcDbLine
 10
206.781221
 20
230.020216
 30
0.0
 11
206.781221
 21
-1.513458
 31
0.0
  0
LINE
  5
1E7A
100
AcDbEntity
  8
LIMITS
100
AcDbLine
 10
206.781221
 20
-1.513458
 30
0.0
 11
206.781221
 21
230.020216
 31
0.0
  0
LINE
  5
1E7D
100
AcDbEntity
  8
BORDER
100
AcDbLine
 10
198.098708
 20
5.721969
 30
0.0
 11
169.156999
 21
5.721969
 31
0.0
  0
TEXT
  5
1E7E
100
AcDbEntity
  8
BORDER
 62
     6
100
AcDbText
 10
174.187862
 20
16.49368
 30
0.0
 40
1.205905
  1
First Released 06/27/03
  7
ROMAND
100
AcDbText
  0
LINE
  5
1E7F
100
AcDbEntity
  8
BORDER
100
AcDbLine
 10
198.098708
 20
8.653244
 30
0.0
 11
171.568808
 21
8.653244
 31
0.0
  0
LINE
  5
1E80
100
AcDbEntity
  8
BORDER
100
AcDbLine
 10
198.098708
 20
11.065053
 30
0.0
 11
171.568808
 21
11.065053
 31
0.0
  0
LINE
  5
1E81
100
AcDbEntity
  8
BORDER
100
AcDbLine
 10
198.098708
 20
13.476862
 30
0.0
 11
171.568808
 21
13.476862
 31
0.0
  0
LINE
  5
1E82
100
AcDbEntity
  8
BORDER
100
AcDbLine
 10
198.098708
 20
15.888671
 30
0.0
 11
171.568808
 21
15.888671
 31
0.0
  0
LINE
  5
1E83
100
AcDbEntity
  8
BORDER
100
AcDbLine
 10
198.098708
 20
18.30048
 30
0.0
 11
171.568808
 21
18.30048
 31
0.0
  0
LINE
  5
1E84
100
AcDbEntity
  8
BORDER
100
AcDbLine
 10
198.098708
 20
22.604633
 30
0.0
 11
171.568808
 21
22.604633
 31
0.0
  0
LWPOLYLINE
  5
1E85
100
AcDbEntity
  8
BORDER
 62
     5
100
AcDbPolyline
 90
        2
 70
     0
 43
1.205905
 10
198.098708
 20
25.016442
 10
171.568808
 20
25.016442
  0
ARC
  5
1E86
100
AcDbEntity
  8
BORDER
100
AcDbCircle
 10
159.509763
 20
20.192824
 30
0.0
 40
2.411809
100
AcDbArc
 50
0.0
 51
90.0
  0
LWPOLYLINE
  5
1E87
100
AcDbEntity
  8
BORDER
 62
     5
100
AcDbPolyline
 90
        2
 70
     0
 43
1.205905
 10
159.509763
 20
25.016442
 42
-0.414214
 10
164.333381
 20
20.192824
 42
0.560527
  0
LINE
  5
1E88
100
AcDbEntity
  8
BORDER
100
AcDbLine
 10
134.712393
 20
5.721969
 30
0.0
 11
161.921572
 21
5.721969
 31
0.0
  0
LINE
  5
1E89
100
AcDbEntity
  8
BORDER
100
AcDbLine
 10
134.712393
 20
11.224866
 30
0.0
 11
161.921572
 21
11.224866
 31
0.0
  0
LINE
  5
1E8A
100
AcDbEntity
  8
BORDER
100
AcDbLine
 10
134.712393
 20
11.224866
 30
0.0
 11
134.712393
 21
5.721969
 31
0.0
  0
LINE
  5
1E8B
100
AcDbEntity
  8
BORDER
100
AcDbLine
 10
132.979863
 20
11.224866
 30
0.0
 11
132.979863
 21
5.721969
 31
0.0
  0
TEXT
  5
1E8C
100
AcDbEntity
  8
BORDER
 62
     6
100
AcDbText
 10
135.281891
 20
7.709828
 30
0.0
 40
1.082121
  1
No:
  7
ROMANC
100
AcDbText
  0
TEXT
  5
1E8D
100
AcDbEntity
  8
BORDER
 62
     6
100
AcDbText
 10
135.281891
 20
9.461834
 30
0.0
 40
1.082121
  1
Reference
  7
ROMANC
100
AcDbText
  0
TEXT
  5
1E8E
100
AcDbEntity
  8
BORDER
 62
     6
100
AcDbText
 10
144.537366
 20
6.952153
 30
0.0
 40
3.246363
  1
11746
  7
ROMANC
100
AcDbText
  0
LINE
  5
1E8F
100
AcDbEntity
  8
BORDER
100
AcDbLine
 10
161.921572
 20
11.224866
 30
0.0
 11
161.921572
 21
5.721969
 31
0.0
  0
LINE
  5
1E90
100
AcDbEntity
  8
BORDER
100
AcDbLine
 10
169.156999
 20
5.721969
 30
0.0
 11
169.156999
 21
20.192824
 31
0.0
  0
LWPOLYLINE
  5
1E91
100
AcDbEntity
  8
BORDER
 62
     5
100
AcDbPolyline
 90
        2
 70
     0
 43
1.205905
 10
166.74519
 20
5.721969
 10
166.74519
 20
20.192824
  0
LWPOLYLINE
  5
1E92
100
AcDbEntity
  8
BORDER
 62
     5
100
AcDbPolyline
 90
        2
 70
     0
 43
1.205905
 10
164.333381
 20
5.721969
 10
164.333381
 20
20.192824
  0
LWPOLYLINE
  5
1E93
100
AcDbEntity
  8
BORDER
 62
     5
100
AcDbPolyline
 90
        2
 70
     0
 43
1.205905
 10
171.568808
 20
25.016442
 42
0.414214
 10
166.74519
 20
20.192824
 42
-0.560527
  0
LINE
  5
1E94
100
AcDbEntity
  8
BORDER
100
AcDbLine
 10
161.921572
 20
20.192824
 30
0.0
 11
161.921572
 21
12.957396
 31
0.0
  0
LINE
  5
1E95
100
AcDbEntity
  8
BORDER
100
AcDbLine
 10
171.568808
 20
18.30048
 30
0.0
 11
171.568808
 21
8.653244
 31
0.0
  0
LINE
  5
1E96
100
AcDbEntity
  8
BORDER
100
AcDbLine
 10
173.980617
 20
18.30048
 30
0.0
 11
173.980617
 21
8.653244
 31
0.0
  0
LWPOLYLINE
  5
1E97
100
AcDbEntity
  8
BORDER
100
AcDbPolyline
 90
        6
 70
     1
 43
0.0
 10
173.288182
 20
16.200276
 10
173.802019
 20
17.090268
 10
173.288182
 20
17.98026
 10
172.260508
 20
17.98026
 10
171.746671
 20
17.090268
 10
172.260508
 20
16.200276
  0
ARC
  5
1E98
100
AcDbEntity
  8
BORDER
100
AcDbCircle
 10
171.568808
 20
20.192824
 30
0.0
 40
2.411809
100
AcDbArc
 50
90.0
 51
180.0
  0
TEXT
  5
1E99
100
AcDbEntity
  8
BORDER
 62
     6
100
AcDbText
 10
172.201633
 20
16.49368
 30
0.0
 40
1.205905
  1
1
  7
ROMAND
100
AcDbText
  0
TEXT
  5
1E9A
100
AcDbEntity
  8
BORDER
 62
     6
100
AcDbText
 10
178.401272
 20
19.380639
 30
0.0
 40
1.623182
  1
Revisions
  7
ROMANC
100
AcDbText
  0
LWPOLYLINE
  5
1ED4
100
AcDbEntity
  8
BORDER
 62
     5
100
AcDbPolyline
 90
        2
 70
     0
 43
1.205905
 10
198.098708
 20
3.31016
 42
0.414214
 10
202.922327
 20
8.133778
 42
-0.560527
  0
ARC
  5
1ED5
100
AcDbEntity
  8
BORDER
100
AcDbCircle
 10
198.098708
 20
8.133778
 30
0.0
 40
2.411809
100
AcDbArc
 50
270.0
 51
0.0
  0
LWPOLYLINE
  5
1ED6
100
AcDbEntity
  8
BORDER
 62
     5
100
AcDbPolyline
 90
        2
 70
     0
 43
1.205905
 10
198.098708
 20
25.016442
 42
-0.414214
 10
202.922327
 20
20.192824
 42
0.560527
  0
ARC
  5
1ED7
100
AcDbEntity
  8
BORDER
100
AcDbCircle
 10
198.098708
 20
20.192824
 30
0.0
 40
2.411809
100
AcDbArc
 50
0.0
 51
90.0
  0
LINE
  5
1ED8
100
AcDbEntity
  8
BORDER
100
AcDbLine
 10
198.098708
 20
18.30048
 30
0.0
 11
198.098708
 21
8.653244
 31
0.0
  0
LWPOLYLINE
  5
1ED9
100
AcDbEntity
  8
BORDER
 62
     5
100
AcDbPolyline
 90
        2
 70
     0
 43
1.205905
 10
202.922327
 20
20.192824
 10
202.922327
 20
8.133778
  0
LINE
  5
1EDA
100
AcDbEntity
  8
BORDER
100
AcDbLine
 10
200.510518
 20
8.133778
 30
0.0
 11
200.510518
 21
20.192824
 31
0.0
  0
LINE
  5
25F2
100
AcDbEntity
  8
DIM
100
AcDbLine
 10
61.471152
 20
216.409482
 30
0.0
 11
154.506531
 21
216.409482
 31
0.0
  0
TEXT
  5
25F3
100
AcDbEntity
  8
DIM
100
AcDbText
 10
61.71232
 20
218.288028
 30
0.0
 40
1.6875
  1
30" X 40" X 36" RECTANGULAR FIBERGLASS VALVEBOX-FRVB30X40X36
  7
ROMANS
100
AcDbText
  0
LINE
  5
25FC
100
AcDbEntity
  8
DIM
100
AcDbLine
 10
64.839499
 20
133.074331
 30
0.0
 11
66.026761
 21
133.074331
 31
0.0
  0
TEXT
  5
25FD
100
AcDbEntity
  8
DIM
100
AcDbText
 10
56.423555
 20
130.044381
 30
0.0
 40
1.5
  1
Pin
  7
ROMANS
100
AcDbText
  0
TEXT
  5
25FE
100
AcDbEntity
  8
DIM
100
AcDbText
 10
56.423555
 20
132.472953
 30
0.0
 40
1.5
  1
Locking
  7
ROMANS
100
AcDbText
  0
LINE
  5
2600
100
AcDbEntity
  8
OBJECT
100
AcDbLine
 10
87.988841
 20
148.727556
 30
0.0
 11
88.221975
 21
148.727556
 31
0.0
  0
LINE
  5
2601
100
AcDbEntity
  8
OBJECT
100
AcDbLine
 10
87.988841
 20
147.833687
 30
0.0
 11
87.988841
 21
148.727556
 31
0.0
  0
LINE
  5
2602
100
AcDbEntity
  8
OBJECT
100
AcDbLine
 10
87.988841
 20
147.314817
 30
0.0
 11
88.221975
 21
147.314817
 31
0.0
  0
LINE
  5
2603
100
AcDbEntity
  8
OBJECT
100
AcDbLine
 10
88.221975
 20
148.727556
 30
0.0
 11
88.221975
 21
147.314817
 31
0.0
  0
LEADER
  5
2612
100
AcDbEntity
  8
DIM
100
AcDbLeader
  3
STANDARD
 76
     2
 10
87.988841
 20
147.314817
 30
0.0
 10
66.026761
 20
133.074331
 30
0.0
 77
   256
1001
ACAD
1000
DSTYLE
1002
{
1070
   340
1005
2F
1070
   147
1040
1.2
1070
   287
1070
     5
1070
    42
1040
0.25
1070
    44
1040
1.35
1070
    41
1040
1.25
1002
}
  0
LINE
  5
2616
100
AcDbEntity
  8
OBJECT
100
AcDbLine
 10
98.825293
 20
174.177629
 30
0.0
 11
124.988841
 21
148.014081
 31
0.0
  0
LINE
  5
2617
100
AcDbEntity
  8
OBJECT
100
AcDbLine
 10
99.002667
 20
174.353809
 30
0.0
 11
125.165618
 21
148.190858
 31
0.0
  0
LINE
  5
2619
100
AcDbEntity
  8
OBJECT
100
AcDbLine
 10
102.22887
 20
170.774053
 30
0.0
 11
102.405646
 21
170.950829
 31
0.0
  0
LINE
  5
261A
100
AcDbEntity
  8
OBJECT
100
AcDbLine
 10
130.988841
 20
148.264081
 30
0.0
 11
125.221839
 21
148.264081
 31
0.0
  0
LINE
  5
261B
100
AcDbEntity
  8
OBJECT
100
AcDbLine
 10
125.221839
 20
148.264081
 30
0.0
 11
125.221839
 21
148.014081
 31
0.0
  0
LINE
  5
261C
100
AcDbEntity
  8
OBJECT
100
AcDbLine
 10
124.988841
 20
148.014081
 30
0.0
 11
125.165618
 21
148.190858
 31
0.0
  0
LINE
  5
261D
100
AcDbEntity
  8
OBJECT
100
AcDbLine
 10
130.988841
 20
148.014081
 30
0.0
 11
130.988841
 21
148.264081
 31
0.0
  0
ARC
  5
261E
100
AcDbEntity
  8
OBJECT
  6
PHANTOM
100
AcDbCircle
 10
124.988841
 20
148.014081
 30
0.0
 40
37.000845
100
AcDbArc
 50
134.612872
 51
181.082874
  0
LEADER
  5
261F
100
AcDbEntity
  8
DIM
100
AcDbLeader
  3
STANDARD
 76
     2
 10
88.567269
 20
61.400707
 30
0.0
 10
91.150793
 20
81.725094
 30
0.0
 77
   256
1001
ACAD
1000
DSTYLE
1002
{
1070
   340
1005
2F
1070
   147
1040
1.2
1070
   287
1070
     5
1070
    42
1040
0.25
1070
    44
1040
1.35
1070
    41
1040
1.25
1002
}
  0
LINE
  5
2622
100
AcDbEntity
  8
OBJECT
100
AcDbLine
 10
91.597628
 20
58.843088
 30
0.0
 11
91.597628
 21
60.405588
 31
0.0
  0
LINE
  5
2623
100
AcDbEntity
  8
OBJECT
100
AcDbLine
 10
90.660128
 20
60.405588
 30
0.0
 11
90.660128
 21
58.843088
 31
0.0
  0
LINE
  5
2624
100
AcDbEntity
  8
OBJECT
100
AcDbLine
 10
90.753878
 20
62.874338
 30
0.0
 11
90.753878
 21
58.936838
 31
0.0
  0
LINE
  5
2625
100
AcDbEntity
  8
OBJECT
100
AcDbLine
 10
91.503878
 20
58.936838
 30
0.0
 11
91.503878
 21
62.874338
 31
0.0
  0
LINE
  5
2626
100
AcDbEntity
  8
CENTER
100
AcDbLine
 10
91.128878
 20
58.416814
 30
0.0
 11
91.128878
 21
63.39698
 31
0.0
  0
LINE
  5
2627
100
AcDbEntity
  8
OBJECT
100
AcDbLine
 10
91.503878
 20
58.936838
 30
0.0
 11
90.753878
 21
58.936838
 31
0.0
  0
LINE
  5
2628
100
AcDbEntity
  8
OBJECT
100
AcDbLine
 10
90.660128
 20
58.843088
 30
0.0
 11
91.597628
 21
58.843088
 31
0.0
  0
LINE
  5
2629
100
AcDbEntity
  8
OBJECT
100
AcDbLine
 10
91.503878
 20
62.874338
 30
0.0
 11
90.753878
 21
62.874338
 31
0.0
  0
LINE
  5
262A
100
AcDbEntity
  8
OBJECT
100
AcDbLine
 10
91.597628
 20
62.968088
 30
0.0
 11
90.660128
 21
62.968088
 31
0.0
  0
ARC
  5
262B
100
AcDbEntity
  8
OBJECT
100
AcDbCircle
 10
91.597628
 20
60.905588
 30
0.0
 40
0.5
100
AcDbArc
 50
270.0
 51
90.0
  0
LINE
  5
262C
100
AcDbEntity
  8
CENTER
100
AcDbLine
 10
92.308641
 20
60.905588
 30
0.0
 11
89.970206
 21
60.905588
 31
0.0
  0
ARC
  5
262D
100
AcDbEntity
  8
OBJECT
100
AcDbCircle
 10
90.660128
 20
60.905588
 30
0.0
 40
0.5
100
AcDbArc
 50
90.0
 51
270.0
  0
LINE
  5
262E
100
AcDbEntity
  8
OBJECT
100
AcDbLine
 10
90.660128
 20
62.968088
 30
0.0
 11
90.660128
 21
61.405588
 31
0.0
  0
LINE
  5
262F
100
AcDbEntity
  8
OBJECT
100
AcDbLine
 10
91.597628
 20
61.405588
 30
0.0
 11
91.597628
 21
62.968088
 31
0.0
  0
DIMENSION
  5
264C
100
AcDbEntity
  8
DIM
100
AcDbDimension
  2
*D21
 10
130.988841
 20
40.774781
 30
0.0
 11
135.106698
 21
40.774781
 31
0.0
 70
    32
  3
STANDARD
100
AcDbAlignedDimension
 13
124.988841
 23
44.656897
 33
0.0
 14
130.988841
 24
44.656897
 34
0.0
100
AcDbRotatedDimension
1001
ACAD
1000
DSTYLE
1002
{
1070
   270
1070
     7
1070
   340
1005
2F
1070
   147
1040
1.2
1070
   287
1070
     0
1070
    42
1040
0.25
1070
    44
1040
1.35
1070
    41
1040
1.25
1002
}
  0
TEXT
  5
2667
100
AcDbEntity
  8
BORDER
 62
     6
100
AcDbText
 10
69.68775
 20
20.421884
 30
0.0
 40
0.946648
  1
30"x40"x36" Rectangular Fiberglass Valvebox
  7
ROMANC
100
AcDbText
  0
TEXT
  5
2668
100
AcDbEntity
  8
BORDER
 62
     6
100
AcDbText
 10
77.16273
 20
17.984119
 30
0.0
 40
0.946648
  1
Frogmouth Alum. Cover 
  7
ROMANC
100
AcDbText
  0
TEXT
  5
2669
100
AcDbEntity
  8
DIM
100
AcDbText
 10
71.113742
 20
95.294493
 30
0.0
 40
2.25
  1
FROGMOUTH ALUMINUM COVER-CFM30X40X36A
  7
ROMANS
100
AcDbText
  0
LINE
  5
266A
100
AcDbEntity
  8
DIM
100
AcDbLine
 10
69.286377
 20
93.263722
 30
0.0
 11
151.351787
 21
93.263722
 31
0.0
  0
LINE
  5
266D
100
AcDbEntity
  8
CENTER
100
AcDbLine
 10
127.601452
 20
76.531897
 30
0.0
 11
127.988841
 21
76.531897
 31
0.0
  0
LINE
  5
266E
100
AcDbEntity
  8
CENTER
100
AcDbLine
 10
127.988841
 20
76.144508
 30
0.0
 11
127.988841
 21
76.531897
 31
0.0
  0
LINE
  5
266F
100
AcDbEntity
  8
CENTER
100
AcDbLine
 10
128.37623
 20
76.531897
 30
0.0
 11
127.988841
 21
76.531897
 31
0.0
  0
CIRCLE
  5
2670
100
AcDbEntity
  8
OBJECT
100
AcDbCircle
 10
127.988841
 20
76.531897
 30
0.0
 40
0.19
  0
LINE
  5
2671
100
AcDbEntity
  8
CENTER
100
AcDbLine
 10
127.988841
 20
76.919286
 30
0.0
 11
127.988841
 21
76.531897
 31
0.0
  0
LINE
  5
267A
100
AcDbEntity
  8
CENTER
100
AcDbLine
 10
129.488841
 20
69.710952
 30
0.0
 11
129.488841
 21
69.323563
 31
0.0
  0
CIRCLE
  5
267B
100
AcDbEntity
  8
OBJECT
100
AcDbCircle
 10
129.488841
 20
69.323563
 30
0.0
 40
0.19
  0
LINE
  5
267C
100
AcDbEntity
  8
CENTER
100
AcDbLine
 10
129.87623
 20
69.323563
 30
0.0
 11
129.488841
 21
69.323563
 31
0.0
  0
LINE
  5
267D
100
AcDbEntity
  8
CENTER
100
AcDbLine
 10
129.488841
 20
68.936174
 30
0.0
 11
129.488841
 21
69.323563
 31
0.0
  0
LINE
  5
267E
100
AcDbEntity
  8
CENTER
100
AcDbLine
 10
129.101452
 20
69.323563
 30
0.0
 11
129.488841
 21
69.323563
 31
0.0
  0
LINE
  5
267F
100
AcDbEntity
  8
CENTER
100
AcDbLine
 10
129.488841
 20
52.877619
 30
0.0
 11
129.488841
 21
52.49023
 31
0.0
  0
CIRCLE
  5
2680
100
AcDbEntity
  8
OBJECT
100
AcDbCircle
 10
129.488841
 20
52.49023
 30
0.0
 40
0.19
  0
LINE
  5
2681
100
AcDbEntity
  8
CENTER
100
AcDbLine
 10
129.87623
 20
52.49023
 30
0.0
 11
129.488841
 21
52.49023
 31
0.0
  0
LINE
  5
2682
100
AcDbEntity
  8
CENTER
100
AcDbLine
 10
129.488841
 20
52.102841
 30
0.0
 11
129.488841
 21
52.49023
 31
0.0
  0
LINE
  5
2683
100
AcDbEntity
  8
CENTER
100
AcDbLine
 10
129.101452
 20
52.49023
 30
0.0
 11
129.488841
 21
52.49023
 31
0.0
  0
TEXT
  5
2684
100
AcDbEntity
  8
DIM
100
AcDbText
 10
149.460701
 20
58.546325
 30
0.0
 40
1.5
  1
Holes 
  7
ROMANS
100
AcDbText
  0
TEXT
  5
2685
100
AcDbEntity
  8
DIM
100
AcDbText
 10
149.460701
 20
60.974897
 30
0.0
 40
1.5
  1
(4)9/16 Dia.
  7
ROMANS
100
AcDbText
  0
LEADER
  5
2686
100
AcDbEntity
  8
DIM
100
AcDbLeader
  3
STANDARD
 76
     2
 10
129.676374
 20
69.293041
 30
0.0
 10
147.143143
 20
61.636216
 30
0.0
 77
   256
1001
ACAD
1000
DSTYLE
1002
{
1070
    78
1070
     8
1070
   270
1070
     7
1070
   140
1040
1.5
1070
    74
1070
     0
1070
   172
1070
     1
1070
    73
1070
     0
1070
   147
1040
1.5
1070
    41
1040
2.0
1002
}
  0
LINE
  5
2687
100
AcDbEntity
  8
DIM
100
AcDbLine
 10
149.129621
 20
61.636216
 30
0.0
 11
147.143143
 21
61.636216
 31
0.0
  0
TEXT
  5
26EB
100
AcDbEntity
  8
BORDER
 62
     6
100
AcDbText
 10
84.663043
 20
15.254678
 30
0.0
 40
1.082121
  1
FRVB30X40X36
  7
ROMANC
100
AcDbText
  0
LINE
  5
2700
100
AcDbEntity
  8
CENTER
100
AcDbLine
 10
127.601452
 20
45.281897
 30
0.0
 11
127.988841
 21
45.281897
 31
0.0
  0
LINE
  5
2701
100
AcDbEntity
  8
CENTER
100
AcDbLine
 10
127.988841
 20
45.669286
 30
0.0
 11
127.988841
 21
45.281897
 31
0.0
  0
LINE
  5
2702
100
AcDbEntity
  8
CENTER
100
AcDbLine
 10
128.37623
 20
45.281897
 30
0.0
 11
127.988841
 21
45.281897
 31
0.0
  0
CIRCLE
  5
2703
100
AcDbEntity
  8
OBJECT
100
AcDbCircle
 10
127.988841
 20
45.281897
 30
0.0
 40
0.19
  0
LINE
  5
2704
100
AcDbEntity
  8
CENTER
100
AcDbLine
 10
127.988841
 20
44.894508
 30
0.0
 11
127.988841
 21
45.281897
 31
0.0
  0
DIMENSION
  5
2712
100
AcDbEntity
  8
DIM
100
AcDbDimension
  2
*D23
 10
130.988841
 20
79.850613
 30
0.0
 11
135.138841
 21
79.850613
 31
0.0
 70
    32
  3
STANDARD
100
AcDbAlignedDimension
 13
127.988841
 23
77.156897
 33
0.0
 14
130.988841
 24
77.156897
 34
0.0
100
AcDbRotatedDimension
1001
ACAD
1000
DSTYLE
1002
{
1070
   270
1070
     7
1070
   340
1005
2F
1070
   147
1040
1.2
1070
   287
1070
     0
1070
    42
1040
0.25
1070
    44
1040
1.35
1070
    41
1040
1.25
1002
}
  0
DIMENSION
  5
2720
100
AcDbEntity
  8
DIM
100
AcDbDimension
  2
*D24
 10
107.988841
 20
37.923532
 30
0.0
 11
117.988841
 21
37.923532
 31
0.0
 70
    32
  3
STANDARD
100
AcDbAlignedDimension
 13
127.988841
 23
44.894508
 33
0.0
 14
107.988841
 24
43.38011
 34
0.0
100
AcDbRotatedDimension
1001
ACAD
1000
DSTYLE
1002
{
1070
   270
1070
     7
1070
   340
1005
2F
1070
   147
1040
1.2
1070
   287
1070
     0
1070
    42
1040
0.25
1070
    44
1040
1.35
1070
    41
1040
1.25
1002
}
  0
ENDSEC
  0
SECTION
  2
OBJECTS
  0
DICTIONARY
  5
C
100
AcDbDictionary
  3
ACAD_GROUP
350
D
  3
ACAD_MLINESTYLE
350
1A
  3
ACDBVARIABLEDICTIONARY
350
45
  0
DICTIONARY
  5
D
102
{ACAD_REACTORS
330
C
102
}
100
AcDbDictionary
  0
DICTIONARY
  5
1A
102
{ACAD_REACTORS
330
C
102
}
100
AcDbDictionary
  3
STANDARD
350
1B
  0
DICTIONARY
  5
45
102
{ACAD_REACTORS
330
C
102
}
100
AcDbDictionary
  3
DIMADEC
350
46
  0
MLINESTYLE
  5
1B
102
{ACAD_REACTORS
330
1A
102
}
100
AcDbMlineStyle
  2
STANDARD
 70
     0
  3

 62
   256
 51
90.0
 52
90.0
 71
     2
 49
0.5
 62
   256
  6
BYLAYER
 49
-0.5
 62
   256
  6
BYLAYER
  0
DICTIONARYVAR
  5
46
102
{ACAD_REACTORS
330
45
102
}
100
DictionaryVariables
280
     0
  1
0
  0
ENDSEC
  0
EOF
