  0
SECTION
  2
HEADER
  9
$ACADVER
  1
AC1014
  9
$ACADMAINTVER
 70
     0
  9
$DWGCODEPAGE
  3
ANSI_1252
  9
$INSBASE
 10
0.0
 20
0.0
 30
0.0
  9
$EXTMIN
 10
255.785197
 20
-39.035416
 30
0.0
  9
$EXTMAX
 10
375.606382
 20
116.027295
 30
25.0
  9
$LIMMIN
 10
-24.570069
 20
-51.494639
  9
$LIMMAX
 10
97.815793
 20
108.428532
  9
$ORTHOMODE
 70
     1
  9
$REGENMODE
 70
     1
  9
$FILLMODE
 70
     1
  9
$QTEXTMODE
 70
     0
  9
$MIRRTEXT
 70
     1
  9
$DRAGMODE
 70
     2
  9
$LTSCALE
 40
4.0
  9
$OSMODE
 70
   675
  9
$ATTMODE
 70
     1
  9
$TEXTSIZE
 40
1.5
  9
$TRACEWID
 40
0.05
  9
$TEXTSTYLE
  7
ROMAND
  9
$CLAYER
  8
DIM
  9
$CELTYPE
  6
BYLAYER
  9
$CECOLOR
 62
     6
  9
$CELTSCALE
 40
1.0
  9
$DELOBJ
 70
     1
  9
$DISPSILH
 70
     0
  9
$DIMSCALE
 40
1.0
  9
$DIMASZ
 40
1.5
  9
$DIMEXO
 40
0.75
  9
$DIMDLI
 40
0.38
  9
$DIMRND
 40
0.0
  9
$DIMDLE
 40
0.0
  9
$DIMEXE
 40
1.5
  9
$DIMTP
 40
0.0
  9
$DIMTM
 40
0.0
  9
$DIMTXT
 40
0.18
  9
$DIMCEN
 40
-1.5
  9
$DIMTSZ
 40
0.0
  9
$DIMTOL
 70
     0
  9
$DIMLIM
 70
     0
  9
$DIMTIH
 70
     1
  9
$DIMTOH
 70
     1
  9
$DIMSE1
 70
     0
  9
$DIMSE2
 70
     0
  9
$DIMTAD
 70
     0
  9
$DIMZIN
 70
     0
  9
$DIMBLK
  1

  9
$DIMASO
 70
     1
  9
$DIMSHO
 70
     1
  9
$DIMPOST
  1

  9
$DIMAPOST
  1

  9
$DIMALT
 70
     0
  9
$DIMALTD
 70
     2
  9
$DIMALTF
 40
25.4
  9
$DIMLFAC
 40
1.0
  9
$DIMTOFL
 70
     0
  9
$DIMTVP
 40
0.0
  9
$DIMTIX
 70
     1
  9
$DIMSOXD
 70
     0
  9
$DIMSAH
 70
     0
  9
$DIMBLK1
  1

  9
$DIMBLK2
  1

  9
$DIMSTYLE
  2
STANDARD
  9
$DIMCLRD
 70
     0
  9
$DIMCLRE
 70
     0
  9
$DIMCLRT
 70
     0
  9
$DIMTFAC
 40
1.0
  9
$DIMGAP
 40
0.75
  9
$DIMJUST
 70
     0
  9
$DIMSD1
 70
     0
  9
$DIMSD2
 70
     0
  9
$DIMTOLJ
 70
     1
  9
$DIMTZIN
 70
     0
  9
$DIMALTZ
 70
     0
  9
$DIMALTTZ
 70
     0
  9
$DIMFIT
 70
     5
  9
$DIMUPT
 70
     0
  9
$DIMUNIT
 70
     2
  9
$DIMDEC
 70
     4
  9
$DIMTDEC
 70
     4
  9
$DIMALTU
 70
     2
  9
$DIMALTTD
 70
     2
  9
$DIMTXSTY
  7
ROMAND
  9
$DIMAUNIT
 70
     0
  9
$LUNITS
 70
     2
  9
$LUPREC
 70
     4
  9
$SKETCHINC
 40
0.1
  9
$FILLETRAD
 40
0.0
  9
$AUNITS
 70
     0
  9
$AUPREC
 70
     0
  9
$MENU
  1
acad
  9
$ELEVATION
 40
0.0
  9
$PELEVATION
 40
0.0
  9
$THICKNESS
 40
20.0
  9
$LIMCHECK
 70
     0
  9
$BLIPMODE
 70
     0
  9
$CHAMFERA
 40
0.025
  9
$CHAMFERB
 40
0.025
  9
$CHAMFERC
 40
0.0
  9
$CHAMFERD
 40
0.0
  9
$SKPOLY
 70
     0
  9
$TDCREATE
 40
2449609.390435069
  9
$TDUPDATE
 40
2452935.470001585
  9
$TDINDWG
 40
0.1119562037
  9
$TDUSRTIMER
 40
0.1119562037
  9
$USRTIMER
 70
     1
  9
$ANGBASE
 50
0.0
  9
$ANGDIR
 70
     0
  9
$PDMODE
 70
     0
  9
$PDSIZE
 40
0.0
  9
$PLINEWID
 40
0.25
  9
$COORDS
 70
     0
  9
$SPLFRAME
 70
     0
  9
$SPLINETYPE
 70
     6
  9
$SPLINESEGS
 70
     8
  9
$ATTDIA
 70
     0
  9
$ATTREQ
 70
     1
  9
$HANDLING
 70
     1
  9
$HANDSEED
  5
2D61
  9
$SURFTAB1
 70
     6
  9
$SURFTAB2
 70
     6
  9
$SURFTYPE
 70
     6
  9
$SURFU
 70
     6
  9
$SURFV
 70
     6
  9
$UCSNAME
  2

  9
$UCSORG
 10
0.0
 20
0.0
 30
0.0
  9
$UCSXDIR
 10
1.0
 20
0.0
 30
0.0
  9
$UCSYDIR
 10
0.0
 20
1.0
 30
0.0
  9
$PUCSNAME
  2

  9
$PUCSORG
 10
0.0
 20
0.0
 30
0.0
  9
$PUCSXDIR
 10
1.0
 20
0.0
 30
0.0
  9
$PUCSYDIR
 10
0.0
 20
1.0
 30
0.0
  9
$USERI1
 70
     0
  9
$USERI2
 70
     0
  9
$USERI3
 70
     0
  9
$USERI4
 70
     0
  9
$USERI5
 70
     0
  9
$USERR1
 40
0.0
  9
$USERR2
 40
0.0
  9
$USERR3
 40
0.0
  9
$USERR4
 40
0.0
  9
$USERR5
 40
0.0
  9
$WORLDVIEW
 70
     1
  9
$SHADEDGE
 70
     3
  9
$SHADEDIF
 70
    70
  9
$TILEMODE
 70
     1
  9
$MAXACTVP
 70
    16
  9
$PINSBASE
 10
0.0
 20
0.0
 30
0.0
  9
$PLIMCHECK
 70
     0
  9
$PEXTMIN
 10
1.000000E+20
 20
1.000000E+20
 30
1.000000E+20
  9
$PEXTMAX
 10
-1.000000E+20
 20
-1.000000E+20
 30
-1.000000E+20
  9
$PLIMMIN
 10
0.0
 20
0.0
  9
$PLIMMAX
 10
12.0
 20
9.0
  9
$UNITMODE
 70
     0
  9
$VISRETAIN
 70
     0
  9
$PLINEGEN
 70
     0
  9
$PSLTSCALE
 70
     1
  9
$TREEDEPTH
 70
  3020
  9
$PICKSTYLE
 70
     1
  9
$CMLSTYLE
  2
STANDARD
  9
$CMLJUST
 70
     0
  9
$CMLSCALE
 40
1.0
  9
$PROXYGRAPHICS
 70
     1
  9
$MEASUREMENT
 70
     0
  0
ENDSEC
  0
SECTION
  2
CLASSES
  0
CLASS
  1
DICTIONARYVAR
  2
AcDbDictionaryVar
  3
"AutoCAD"
 90
        0
280
     0
281
     0
  0
CLASS
  1
LWPOLYLINE
  2
AcDbPolyline
  3
"AutoCAD"
 90
        0
280
     0
281
     1
  0
CLASS
  1
HATCH
  2
AcDbHatch
  3
"ACAD_SEDONA"
 90
        0
280
     0
281
     1
  0
ENDSEC
  0
SECTION
  2
TABLES
  0
TABLE
  2
VPORT
  5
8
100
AcDbSymbolTable
 70
     1
  0
VPORT
  5
2D59
100
AcDbSymbolTableRecord
100
AcDbViewportTableRecord
  2
*ACTIVE
 70
     0
 10
0.0
 20
0.0
 11
1.0
 21
1.0
 12
315.696548
 22
38.499435
 13
0.0
 23
0.0
 14
2.0
 24
2.0
 15
20.0
 25
20.0
 16
0.0
 26
0.0
 36
1.0
 17
0.0
 27
0.0
 37
0.0
 40
156.724481
 41
1.71048
 42
50.0
 43
0.0
 44
0.0
 50
0.0
 51
0.0
 71
     0
 72
   100
 73
     1
 74
     0
 75
     0
 76
     0
 77
     0
 78
     1
  0
ENDTAB
  0
TABLE
  2
LTYPE
  5
5
100
AcDbSymbolTable
 70
     3
  0
LTYPE
  5
11
100
AcDbSymbolTableRecord
100
AcDbLinetypeTableRecord
  2
BYBLOCK
 70
     0
  3

 72
    65
 73
     0
 40
0.0
  0
LTYPE
  5
12
100
AcDbSymbolTableRecord
100
AcDbLinetypeTableRecord
  2
BYLAYER
 70
     0
  3

 72
    65
 73
     0
 40
0.0
  0
LTYPE
  5
13
100
AcDbSymbolTableRecord
100
AcDbLinetypeTableRecord
  2
CONTINUOUS
 70
     0
  3
Solid line
 72
    65
 73
     0
 40
0.0
  0
LTYPE
  5
37
100
AcDbSymbolTableRecord
100
AcDbLinetypeTableRecord
  2
CENTER
 70
     0
  3
____ _ ____ _ ____ _ ____ _ ____ _ ____ _ ____ 
 72
    65
 73
     4
 40
2.0
 49
1.25
 74
     0
 49
-0.25
 74
     0
 49
0.25
 74
     0
 49
-0.25
 74
     0
  0
LTYPE
  5
38
100
AcDbSymbolTableRecord
100
AcDbLinetypeTableRecord
  2
HIDDEN
 70
     0
  3
__ __ __ __ __ __ __ __ __ __ __ __ __ __ __ __
 72
    65
 73
     2
 40
0.375
 49
0.25
 74
     0
 49
-0.125
 74
     0
  0
ENDTAB
  0
TABLE
  2
LAYER
  5
2
100
AcDbSymbolTable
 70
     8
  0
LAYER
  5
E
100
AcDbSymbolTableRecord
100
AcDbLayerTableRecord
  2
0
 70
     0
 62
     7
  6
CONTINUOUS
  0
LAYER
  5
3B
100
AcDbSymbolTableRecord
100
AcDbLayerTableRecord
  2
OBJECT
 70
     0
 62
     2
  6
CONTINUOUS
  0
LAYER
  5
3C
100
AcDbSymbolTableRecord
100
AcDbLayerTableRecord
  2
DIM
 70
     0
 62
     6
  6
CONTINUOUS
  0
LAYER
  5
3D
100
AcDbSymbolTableRecord
100
AcDbLayerTableRecord
  2
HIDDEN
 70
     0
 62
     1
  6
HIDDEN
  0
LAYER
  5
3E
100
AcDbSymbolTableRecord
100
AcDbLayerTableRecord
  2
CENTER
 70
     0
 62
     3
  6
CENTER
  0
LAYER
  5
3F
100
AcDbSymbolTableRecord
100
AcDbLayerTableRecord
  2
DEFPOINTS
 70
     0
 62
     7
  6
CONTINUOUS
  0
LAYER
  5
40
100
AcDbSymbolTableRecord
100
AcDbLayerTableRecord
  2
BORDER
 70
     0
 62
     5
  6
CONTINUOUS
  0
LAYER
  5
1380
100
AcDbSymbolTableRecord
100
AcDbLayerTableRecord
  2
LIMITS
 70
     0
 62
     7
  6
CONTINUOUS
  0
ENDTAB
  0
TABLE
  2
STYLE
  5
3
100
AcDbSymbolTable
 70
     5
  0
STYLE
  5
F
100
AcDbSymbolTableRecord
100
AcDbTextStyleTableRecord
  2
STANDARD
 70
     0
 40
0.0
 41
1.0
 50
0.0
 71
     0
 42
0.2
  3
txt
  4

  0
STYLE
  5
32
100
AcDbSymbolTableRecord
100
AcDbTextStyleTableRecord
  2
ROMANS
 70
     0
 40
1.5
 41
1.0
 50
0.0
 71
     0
 42
1.5
  3
ROMANS.SHX
  4

  0
STYLE
  5
34
100
AcDbSymbolTableRecord
100
AcDbTextStyleTableRecord
  2
ROMAND
 70
     0
 40
1.5
 41
1.0
 50
0.0
 71
     0
 42
1.5
  3
ROMAND.SHX
  4

  0
STYLE
  5
35
100
AcDbSymbolTableRecord
100
AcDbTextStyleTableRecord
  2
ROMANC
 70
     0
 40
0.0531
 41
1.0
 50
0.0
 71
     0
 42
0.0531
  3
romanc
  4

  0
STYLE
  5
1381
100
AcDbSymbolTableRecord
100
AcDbTextStyleTableRecord
  2
COUNTRYBLUEPRINT
 70
     0
 40
0.061059
 41
1.0
 50
0.0
 71
     0
 42
0.061059
  3
cobt____.pfb
  4

  0
ENDTAB
  0
TABLE
  2
VIEW
  5
6
100
AcDbSymbolTable
 70
     0
  0
ENDTAB
  0
TABLE
  2
UCS
  5
7
100
AcDbSymbolTable
 70
     0
  0
ENDTAB
  0
TABLE
  2
APPID
  5
9
100
AcDbSymbolTable
 70
     1
  0
APPID
  5
10
100
AcDbSymbolTableRecord
100
AcDbRegAppTableRecord
  2
ACAD
 70
     0
  0
ENDTAB
  0
TABLE
  2
DIMSTYLE
  5
A
100
AcDbSymbolTable
 70
     1
  0
DIMSTYLE
105
127D
100
AcDbSymbolTableRecord
100
AcDbDimStyleTableRecord
  2
STANDARD
 70
     0
  3

  4

  5

  6

  7

 40
1.0
 41
0.18
 42
0.0625
 43
0.38
 44
0.18
 45
0.0
 46
0.0
 47
0.0
 48
0.0
140
0.18
141
0.09
142
0.0
143
25.4
144
1.0
145
0.0
146
1.0
147
0.09
 71
     0
 72
     0
 73
     1
 74
     1
 75
     0
 76
     0
 77
     0
 78
     0
170
     0
171
     2
172
     0
173
     0
174
     0
175
     0
176
     0
177
     0
178
     0
270
     2
271
     4
272
     4
273
     2
274
     2
340
F
275
     0
280
     0
281
     0
282
     0
283
     1
284
     0
285
     0
286
     0
287
     3
288
     0
  0
ENDTAB
  0
TABLE
  2
BLOCK_RECORD
  5
1
100
AcDbSymbolTable
 70
     5
  0
BLOCK_RECORD
  5
17
100
AcDbSymbolTableRecord
100
AcDbBlockTableRecord
  2
*MODEL_SPACE
  0
BLOCK_RECORD
  5
14
100
AcDbSymbolTableRecord
100
AcDbBlockTableRecord
  2
*PAPER_SPACE
  0
BLOCK_RECORD
  5
2A
100
AcDbSymbolTableRecord
100
AcDbBlockTableRecord
  2
*D0
  0
BLOCK_RECORD
  5
2B
100
AcDbSymbolTableRecord
100
AcDbBlockTableRecord
  2
*D1
  0
BLOCK_RECORD
  5
2C
100
AcDbSymbolTableRecord
100
AcDbBlockTableRecord
  2
*D2
  0
BLOCK_RECORD
  5
2D
100
AcDbSymbolTableRecord
100
AcDbBlockTableRecord
  2
*D3
  0
BLOCK_RECORD
  5
2E
100
AcDbSymbolTableRecord
100
AcDbBlockTableRecord
  2
*D4
  0
ENDTAB
  0
ENDSEC
  0
SECTION
  2
BLOCKS
  0
BLOCK
  5
43
100
AcDbEntity
  8
0
 62
     6
100
AcDbBlockBegin
  2
*MODEL_SPACE
 70
     0
 10
0.0
 20
0.0
 30
0.0
  3
*MODEL_SPACE
  1

  0
ENDBLK
  5
44
100
AcDbEntity
  8
0
 62
     6
100
AcDbBlockEnd
  0
BLOCK
  5
41
100
AcDbEntity
 67
     1
  8
0
 62
     6
100
AcDbBlockBegin
  2
*PAPER_SPACE
 70
     0
 10
0.0
 20
0.0
 30
0.0
  3
*PAPER_SPACE
  1

  0
ENDBLK
  5
42
100
AcDbEntity
 67
     1
  8
0
 62
     6
100
AcDbBlockEnd
  0
BLOCK
  5
954
100
AcDbEntity
  8
0
100
AcDbBlockBegin
  2
*D0
 70
     1
 10
0.0
 20
0.0
 30
0.0
  3
*D0
  1

  0
LINE
  5
955
100
AcDbEntity
  8
0
  6
BYBLOCK
 62
     0
100
AcDbLine
 10
5.397553
 20
64.605715
 30
0.0
 11
27.896176
 21
64.605715
 31
0.0
  0
LINE
  5
956
100
AcDbEntity
  8
0
  6
BYBLOCK
 62
     0
100
AcDbLine
 10
20.585053
 20
53.605715
 30
0.0
 11
27.896176
 21
53.605715
 31
0.0
  0
LINE
  5
957
100
AcDbEntity
  8
0
  6
BYBLOCK
 62
     0
100
AcDbLine
 10
26.396176
 20
63.105715
 30
0.0
 11
26.396176
 21
60.695715
 31
0.0
  0
LINE
  5
958
100
AcDbEntity
  8
0
  6
BYBLOCK
 62
     0
100
AcDbLine
 10
26.396176
 20
55.105715
 30
0.0
 11
26.396176
 21
57.515715
 31
0.0
  0
SOLID
  5
959
100
AcDbEntity
  8
0
  6
BYBLOCK
 62
     0
100
AcDbTrace
 10
26.146176
 20
63.105715
 30
0.0
 11
26.646176
 21
63.105715
 31
0.0
 12
26.396176
 22
64.605715
 32
0.0
 13
26.396176
 23
64.605715
 33
0.0
  0
SOLID
  5
95A
100
AcDbEntity
  8
0
  6
BYBLOCK
 62
     0
100
AcDbTrace
 10
26.146176
 20
55.105715
 30
0.0
 11
26.646176
 21
55.105715
 31
0.0
 12
26.396176
 22
53.605715
 32
0.0
 13
26.396176
 23
53.605715
 33
0.0
  0
TEXT
  5
95B
100
AcDbEntity
  8
0
  6
BYBLOCK
 62
     0
100
AcDbText
 10
26.074747
 20
58.355715
 30
0.0
 40
1.5
  1
I
  7
ROMAND
 72
     1
 11
26.396176
 21
59.105715
 31
0.0
100
AcDbText
 73
     2
  0
POINT
  5
95C
100
AcDbEntity
  8
DEFPOINTS
  6
BYBLOCK
 62
     0
100
AcDbPoint
 10
4.647553
 20
64.605715
 30
0.0
  0
POINT
  5
95D
100
AcDbEntity
  8
DEFPOINTS
  6
BYBLOCK
 62
     0
100
AcDbPoint
 10
19.835053
 20
53.605715
 30
0.0
  0
POINT
  5
95E
100
AcDbEntity
  8
DEFPOINTS
  6
BYBLOCK
 62
     0
100
AcDbPoint
 10
26.396176
 20
53.605715
 30
0.0
  0
ENDBLK
  5
95F
100
AcDbEntity
  8
0
100
AcDbBlockEnd
  0
BLOCK
  5
960
100
AcDbEntity
  8
0
100
AcDbBlockBegin
  2
*D1
 70
     1
 10
0.0
 20
0.0
 30
0.0
  3
*D1
  1

  0
LINE
  5
961
100
AcDbEntity
  8
0
  6
BYBLOCK
 62
     0
100
AcDbLine
 10
20.585053
 20
53.605715
 30
0.0
 11
27.896176
 21
53.605715
 31
0.0
  0
LINE
  5
962
100
AcDbEntity
  8
0
  6
BYBLOCK
 62
     0
100
AcDbLine
 10
8.585053
 20
43.002486
 30
0.0
 11
27.896176
 21
43.002486
 31
0.0
  0
LINE
  5
963
100
AcDbEntity
  8
0
  6
BYBLOCK
 62
     0
100
AcDbLine
 10
26.396176
 20
52.105715
 30
0.0
 11
26.396176
 21
49.8941
 31
0.0
  0
LINE
  5
964
100
AcDbEntity
  8
0
  6
BYBLOCK
 62
     0
100
AcDbLine
 10
26.396176
 20
44.502486
 30
0.0
 11
26.396176
 21
46.7141
 31
0.0
  0
SOLID
  5
965
100
AcDbEntity
  8
0
  6
BYBLOCK
 62
     0
100
AcDbTrace
 10
26.146176
 20
52.105715
 30
0.0
 11
26.646176
 21
52.105715
 31
0.0
 12
26.396176
 22
53.605715
 32
0.0
 13
26.396176
 23
53.605715
 33
0.0
  0
SOLID
  5
966
100
AcDbEntity
  8
0
  6
BYBLOCK
 62
     0
100
AcDbTrace
 10
26.146176
 20
44.502486
 30
0.0
 11
26.646176
 21
44.502486
 31
0.0
 12
26.396176
 22
43.002486
 32
0.0
 13
26.396176
 23
43.002486
 33
0.0
  0
TEXT
  5
967
100
AcDbEntity
  8
0
  6
BYBLOCK
 62
     0
100
AcDbText
 10
25.646176
 20
47.5541
 30
0.0
 40
1.5
  1
G
  7
ROMAND
 72
     1
 11
26.396176
 21
48.3041
 31
0.0
100
AcDbText
 73
     2
  0
POINT
  5
968
100
AcDbEntity
  8
DEFPOINTS
  6
BYBLOCK
 62
     0
100
AcDbPoint
 10
19.835053
 20
53.605715
 30
0.0
  0
POINT
  5
969
100
AcDbEntity
  8
DEFPOINTS
  6
BYBLOCK
 62
     0
100
AcDbPoint
 10
7.835053
 20
43.002486
 30
0.0
  0
POINT
  5
96A
100
AcDbEntity
  8
DEFPOINTS
  6
BYBLOCK
 62
     0
100
AcDbPoint
 10
26.396176
 20
43.002486
 30
0.0
  0
ENDBLK
  5
96B
100
AcDbEntity
  8
0
100
AcDbBlockEnd
  0
BLOCK
  5
96C
100
AcDbEntity
  8
0
100
AcDbBlockBegin
  2
*D2
 70
     1
 10
0.0
 20
0.0
 30
0.0
  3
*D2
  1

  0
LINE
  5
96D
100
AcDbEntity
  8
0
  6
BYBLOCK
 62
     0
100
AcDbLine
 10
1.335053
 20
72.855715
 30
0.0
 11
1.335053
 21
78.515137
 31
0.0
  0
LINE
  5
96E
100
AcDbEntity
  8
0
  6
BYBLOCK
 62
     0
100
AcDbLine
 10
9.335053
 20
63.855715
 30
0.0
 11
9.335053
 21
78.515137
 31
0.0
  0
LINE
  5
96F
100
AcDbEntity
  8
0
  6
BYBLOCK
 62
     0
100
AcDbLine
 10
2.835053
 20
77.015137
 30
0.0
 11
3.400336
 21
77.015137
 31
0.0
  0
LINE
  5
970
100
AcDbEntity
  8
0
  6
BYBLOCK
 62
     0
100
AcDbLine
 10
7.835053
 20
77.015137
 30
0.0
 11
7.400336
 21
77.015137
 31
0.0
  0
SOLID
  5
971
100
AcDbEntity
  8
0
  6
BYBLOCK
 62
     0
100
AcDbTrace
 10
2.835053
 20
77.265137
 30
0.0
 11
2.835053
 21
76.765137
 31
0.0
 12
1.335053
 22
77.015137
 32
0.0
 13
1.335053
 23
77.015137
 33
0.0
  0
SOLID
  5
972
100
AcDbEntity
  8
0
  6
BYBLOCK
 62
     0
100
AcDbTrace
 10
7.835053
 20
77.265137
 30
0.0
 11
7.835053
 21
76.765137
 31
0.0
 12
9.335053
 22
77.015137
 32
0.0
 13
9.335053
 23
77.015137
 33
0.0
  0
TEXT
  5
973
100
AcDbEntity
  8
0
  6
BYBLOCK
 62
     0
100
AcDbText
 10
4.614622
 20
76.265137
 30
0.0
 40
1.5
  1
H
  7
ROMAND
 72
     1
 11
5.400336
 21
77.015137
 31
0.0
100
AcDbText
 73
     2
  0
POINT
  5
974
100
AcDbEntity
  8
DEFPOINTS
  6
BYBLOCK
 62
     0
100
AcDbPoint
 10
1.335053
 20
72.105715
 30
0.0
  0
POINT
  5
975
100
AcDbEntity
  8
DEFPOINTS
  6
BYBLOCK
 62
     0
100
AcDbPoint
 10
9.335053
 20
63.105715
 30
0.0
  0
POINT
  5
976
100
AcDbEntity
  8
DEFPOINTS
  6
BYBLOCK
 62
     0
100
AcDbPoint
 10
9.335053
 20
77.015137
 30
0.0
  0
ENDBLK
  5
977
100
AcDbEntity
  8
0
100
AcDbBlockEnd
  0
BLOCK
  5
978
100
AcDbEntity
  8
0
100
AcDbBlockBegin
  2
*D3
 70
     1
 10
0.0
 20
0.0
 30
0.0
  3
*D3
  1

  0
LINE
  5
979
100
AcDbEntity
  8
0
  6
BYBLOCK
 62
     0
100
AcDbLine
 10
-11.664947
 20
55.855715
 30
0.0
 11
-11.664947
 21
78.515137
 31
0.0
  0
LINE
  5
97A
100
AcDbEntity
  8
0
  6
BYBLOCK
 62
     0
100
AcDbLine
 10
-6.664947
 20
63.855715
 30
0.0
 11
-6.664947
 21
78.515137
 31
0.0
  0
LINE
  5
97B
100
AcDbEntity
  8
0
  6
BYBLOCK
 62
     0
100
AcDbLine
 10
-10.164947
 20
77.015137
 30
0.0
 11
-8.164947
 21
77.015137
 31
0.0
  0
SOLID
  5
97C
100
AcDbEntity
  8
0
  6
BYBLOCK
 62
     0
100
AcDbTrace
 10
-10.164947
 20
77.265137
 30
0.0
 11
-10.164947
 21
76.765137
 31
0.0
 12
-11.664947
 22
77.015137
 32
0.0
 13
-11.664947
 23
77.015137
 33
0.0
  0
SOLID
  5
97D
100
AcDbEntity
  8
0
  6
BYBLOCK
 62
     0
100
AcDbTrace
 10
-8.164947
 20
77.265137
 30
0.0
 11
-8.164947
 21
76.765137
 31
0.0
 12
-6.664947
 22
77.015137
 32
0.0
 13
-6.664947
 23
77.015137
 33
0.0
  0
TEXT
  5
97E
100
AcDbEntity
  8
0
  6
BYBLOCK
 62
     0
100
AcDbText
 10
-9.914346
 20
77.641632
 30
0.0
 40
1.5
  1
5"
  7
ROMAND
 72
     1
 11
-8.592917
 21
78.391632
 31
0.0
100
AcDbText
 73
     2
  0
POINT
  5
97F
100
AcDbEntity
  8
DEFPOINTS
  6
BYBLOCK
 62
     0
100
AcDbPoint
 10
-11.664947
 20
55.105715
 30
0.0
  0
POINT
  5
980
100
AcDbEntity
  8
DEFPOINTS
  6
BYBLOCK
 62
     0
100
AcDbPoint
 10
-6.664947
 20
63.105715
 30
0.0
  0
POINT
  5
981
100
AcDbEntity
  8
DEFPOINTS
  6
BYBLOCK
 62
     0
100
AcDbPoint
 10
-6.664947
 20
77.015137
 30
0.0
  0
ENDBLK
  5
982
100
AcDbEntity
  8
0
100
AcDbBlockEnd
  0
BLOCK
  5
983
100
AcDbEntity
  8
0
100
AcDbBlockBegin
  2
*D4
 70
     1
 10
0.0
 20
0.0
 30
0.0
  3
*D4
  1

  0
LINE
  5
984
100
AcDbEntity
  8
0
  6
BYBLOCK
 62
     0
100
AcDbLine
 10
-6.664947
 20
63.855715
 30
0.0
 11
-6.664947
 21
78.517711
 31
0.0
  0
LINE
  5
985
100
AcDbEntity
  8
0
  6
BYBLOCK
 62
     0
100
AcDbLine
 10
-1.664947
 20
55.855715
 30
0.0
 11
-1.664947
 21
78.517711
 31
0.0
  0
LINE
  5
986
100
AcDbEntity
  8
0
  6
BYBLOCK
 62
     0
100
AcDbLine
 10
-5.164947
 20
77.017711
 30
0.0
 11
-3.164947
 21
77.017711
 31
0.0
  0
SOLID
  5
987
100
AcDbEntity
  8
0
  6
BYBLOCK
 62
     0
100
AcDbTrace
 10
-5.164947
 20
77.267711
 30
0.0
 11
-5.164947
 21
76.767711
 31
0.0
 12
-6.664947
 22
77.017711
 32
0.0
 13
-6.664947
 23
77.017711
 33
0.0
  0
SOLID
  5
988
100
AcDbEntity
  8
0
  6
BYBLOCK
 62
     0
100
AcDbTrace
 10
-3.164947
 20
77.267711
 30
0.0
 11
-3.164947
 21
76.767711
 31
0.0
 12
-1.664947
 22
77.017711
 32
0.0
 13
-1.664947
 23
77.017711
 33
0.0
  0
TEXT
  5
989
100
AcDbEntity
  8
0
  6
BYBLOCK
 62
     0
100
AcDbText
 10
-4.763922
 20
77.503835
 30
0.0
 40
1.5
  1
5"
  7
ROMAND
 72
     1
 11
-3.442493
 21
78.253835
 31
0.0
100
AcDbText
 73
     2
  0
POINT
  5
98A
100
AcDbEntity
  8
DEFPOINTS
  6
BYBLOCK
 62
     0
100
AcDbPoint
 10
-6.664947
 20
63.105715
 30
0.0
  0
POINT
  5
98B
100
AcDbEntity
  8
DEFPOINTS
  6
BYBLOCK
 62
     0
100
AcDbPoint
 10
-1.664947
 20
55.105715
 30
0.0
  0
POINT
  5
98C
100
AcDbEntity
  8
DEFPOINTS
  6
BYBLOCK
 62
     0
100
AcDbPoint
 10
-1.664947
 20
77.017711
 30
0.0
  0
ENDBLK
  5
98D
100
AcDbEntity
  8
0
100
AcDbBlockEnd
  0
ENDSEC
  0
SECTION
  2
ENTITIES
  0
TEXT
  5
9B9
100
AcDbEntity
  8
0
  6
BYBLOCK
 62
     0
100
AcDbText
 10
137.771014
 20
144.465313
 30
0.0
 40
1.5
  1
   
  7
ROMANS
 72
     1
 11
140.021014
 21
145.215313
 31
0.0
100
AcDbText
 73
     2
  0
TEXT
  5
9BB
100
AcDbEntity
  8
0
  6
BYBLOCK
 62
     0
100
AcDbText
 10
105.136326
 20
196.25
 30
0.0
 40
1.5
  1
  
  7
ROMANS
 72
     1
 11
106.636326
 21
197.0
 31
0.0
100
AcDbText
 73
     2
  0
TEXT
  5
9BC
100
AcDbEntity
  8
0
  6
BYBLOCK
 62
     0
100
AcDbText
 10
105.11769
 20
187.25
 30
0.0
 40
1.5
  1
  
  7
ROMANS
 72
     1
 11
106.61769
 21
188.0
 31
0.0
100
AcDbText
 73
     2
  0
TEXT
  5
9BD
100
AcDbEntity
  8
0
  6
BYBLOCK
 62
     0
100
AcDbText
 10
64.365403
 20
158.766292
 30
0.0
 40
1.5
  1
  
  7
ROMANS
 72
     1
 11
65.865403
 21
159.516292
 31
0.0
100
AcDbText
 73
     2
  0
TEXT
  5
A4B
100
AcDbEntity
  8
0
  6
BYBLOCK
 62
     0
100
AcDbText
 10
1645.803088
 20
1700.549558
 30
0.0
 40
18.0
  1
   
  7
ROMANS
 72
     1
 11
1672.803088
 21
1709.549558
 31
0.0
100
AcDbText
 73
     2
  0
TEXT
  5
A4C
100
AcDbEntity
  8
0
  6
BYBLOCK
 62
     0
100
AcDbText
 10
1254.186831
 20
2321.965808
 30
0.0
 40
18.0
  1
  
  7
ROMANS
 72
     1
 11
1272.186831
 21
2330.965808
 31
0.0
100
AcDbText
 73
     2
  0
TEXT
  5
A4D
100
AcDbEntity
  8
0
  6
BYBLOCK
 62
     0
100
AcDbText
 10
1253.963199
 20
2213.965808
 30
0.0
 40
18.0
  1
  
  7
ROMANS
 72
     1
 11
1271.963199
 21
2222.965808
 31
0.0
100
AcDbText
 73
     2
  0
TEXT
  5
A4E
100
AcDbEntity
  8
0
  6
BYBLOCK
 62
     0
100
AcDbText
 10
764.935753
 20
1872.161312
 30
0.0
 40
18.0
  1
  
  7
ROMANS
 72
     1
 11
782.935753
 21
1881.161312
 31
0.0
100
AcDbText
 73
     2
  0
TEXT
  5
B85
100
AcDbEntity
  8
BORDER
 62
     7
100
AcDbText
 10
68.242206
 20
-45.529548
 30
0.0
 40
1.031594
  1

  7
ROMANC
100
AcDbText
  0
TEXT
  5
EEA
100
AcDbEntity
  8
DIM
 62
     6
100
AcDbText
 10
291.883643
 20
-1.630179
 30
0.0
 40
1.275
  1
30
  7
ROMANS
100
AcDbText
  0
TEXT
  5
EEC
100
AcDbEntity
  8
DIM
 62
     6
100
AcDbText
 10
291.883643
 20
-6.730179
 30
0.0
 40
1.275
  1
36
  7
ROMANS
100
AcDbText
  0
TEXT
  5
EF6
100
AcDbEntity
  8
DIM
 62
     6
100
AcDbText
 10
271.186762
 20
-1.630179
 30
0.0
 40
1.0
  1
C30-12DSA
  7
ROMANS
100
AcDbText
  0
TEXT
  5
EF8
100
AcDbEntity
  8
DIM
 62
     6
100
AcDbText
 10
271.186762
 20
-6.730179
 30
0.0
 40
1.0
  1
C36-12DSA 
  7
ROMANS
100
AcDbText
  0
TEXT
  5
EFC
100
AcDbEntity
  8
DIM
 62
     6
100
AcDbText
 10
281.815074
 20
-1.630179
 30
0.0
 40
1.275
  1
ROUND
  7
ROMANS
100
AcDbText
  0
TEXT
  5
EFE
100
AcDbEntity
  8
DIM
 62
     6
100
AcDbText
 10
281.815074
 20
-6.730179
 30
0.0
 40
1.275
  1
ROUND
  7
ROMANS
100
AcDbText
  0
TEXT
  5
F14
100
AcDbEntity
  8
DIM
 62
     6
100
AcDbText
 10
299.954311
 20
-1.630179
 30
0.0
 40
1.275
  1
34
  7
ROMANS
100
AcDbText
  0
TEXT
  5
F15
100
AcDbEntity
  8
DIM
 62
     6
100
AcDbText
 10
299.954311
 20
-6.730179
 30
0.0
 40
1.275
  1
40
  7
ROMANS
100
AcDbText
  0
TEXT
  5
F1A
100
AcDbEntity
  8
DIM
 62
     6
100
AcDbText
 10
307.525482
 20
-1.630179
 30
0.0
 40
1.275
  1
32.5
  7
ROMANS
100
AcDbText
  0
TEXT
  5
F1B
100
AcDbEntity
  8
DIM
 62
     6
100
AcDbText
 10
307.525482
 20
-6.730179
 30
0.0
 40
1.275
  1
38.5
  7
ROMANS
100
AcDbText
  0
TEXT
  5
F21
100
AcDbEntity
  8
DIM
 62
     6
100
AcDbText
 10
318.775534
 20
-1.630179
 30
0.0
 40
1.275
  1
12
  7
ROMANS
100
AcDbText
  0
TEXT
  5
F25
100
AcDbEntity
  8
DIM
 62
     6
100
AcDbText
 10
318.775534
 20
-6.730179
 30
0.0
 40
1.275
  1
12
  7
ROMANS
100
AcDbText
  0
CIRCLE
  5
F2C
100
AcDbEntity
  8
DIM
 62
     6
100
AcDbCircle
 39
17.0
 10
321.126525
 20
9.235455
 30
0.0
 40
1.008846
  0
CIRCLE
  5
F2D
100
AcDbEntity
  8
DIM
 62
     6
100
AcDbCircle
 39
17.0
 10
312.283289
 20
9.246018
 30
0.0
 40
1.008846
  0
CIRCLE
  5
F2E
100
AcDbEntity
  8
DIM
 62
     6
100
AcDbCircle
 39
17.0
 10
302.642259
 20
9.240424
 30
0.0
 40
1.008846
  0
TEXT
  5
F2F
100
AcDbEntity
  8
DIM
 62
     6
100
AcDbText
 10
271.498497
 20
-10.518228
 30
0.0
 40
0.95625
  1
ALL DIMENSIONS IN INCHES
  7
ROMANS
100
AcDbText
  0
TEXT
  5
F31
100
AcDbEntity
  8
DIM
 62
     6
100
AcDbText
 10
268.491764
 20
91.989033
 30
0.0
 40
3.0
  1
12-GAUGE DUPLEX STEEL BASIN COVER
  7
ROMAND
 72
     1
 11
315.563193
 21
91.989033
 31
0.0
100
AcDbText
  0
CIRCLE
  5
FF2
100
AcDbEntity
  8
HIDDEN
 62
     1
100
AcDbCircle
 39
20.0
 10
283.497837
 20
52.2769
 30
0.0
 40
15.0
  0
CIRCLE
  5
FF3
100
AcDbEntity
  8
OBJECT
 62
     2
100
AcDbCircle
 39
20.0
 10
283.497837
 20
52.2769
 30
0.0
 40
17.0
  0
CIRCLE
  5
FF4
100
AcDbEntity
  8
CENTER
 62
     3
100
AcDbCircle
 39
20.0
 10
283.497837
 20
52.2769
 30
0.0
 40
16.0
  0
LINE
  5
FF5
100
AcDbEntity
  8
CENTER
 62
     3
100
AcDbLine
 10
281.997837
 20
52.2769
 30
0.0
 11
284.997837
 21
52.2769
 31
0.0
  0
LINE
  5
FF6
100
AcDbEntity
  8
CENTER
 62
     3
100
AcDbLine
 10
283.497837
 20
50.7769
 30
0.0
 11
283.497837
 21
53.7769
 31
0.0
  0
LINE
  5
FF7
100
AcDbEntity
  8
CENTER
 62
     3
100
AcDbLine
 10
280.497837
 20
52.2769
 30
0.0
 11
264.997837
 21
52.2769
 31
0.0
  0
LINE
  5
FF8
100
AcDbEntity
  8
CENTER
 62
     3
100
AcDbLine
 10
286.497837
 20
52.2769
 30
0.0
 11
301.997837
 21
52.2769
 31
0.0
  0
LINE
  5
FF9
100
AcDbEntity
  8
CENTER
 62
     3
100
AcDbLine
 10
283.497837
 20
49.2769
 30
0.0
 11
283.497837
 21
33.7769
 31
0.0
  0
LINE
  5
FFA
100
AcDbEntity
  8
CENTER
 62
     3
100
AcDbLine
 10
283.497837
 20
55.2769
 30
0.0
 11
283.497837
 21
70.7769
 31
0.0
  0
LWPOLYLINE
  5
FFB
100
AcDbEntity
  8
OBJECT
 62
     2
100
AcDbPolyline
 90
        6
 70
     1
 43
0.0
 39
20.0
 10
283.389584
 20
36.4644
 10
283.281331
 20
36.2769
 10
283.389584
 20
36.0894
 10
283.606091
 20
36.0894
 10
283.714344
 20
36.2769
 10
283.606091
 20
36.4644
  0
LWPOLYLINE
  5
1003
100
AcDbEntity
  8
OBJECT
 62
     2
100
AcDbPolyline
 90
        6
 70
     1
 43
0.0
 39
20.0
 10
297.137737
 20
44.2769
 10
297.245991
 20
44.0894
 10
297.462497
 20
44.0894
 10
297.57075
 20
44.2769
 10
297.462497
 20
44.4644
 10
297.245991
 20
44.4644
  0
LWPOLYLINE
  5
100B
100
AcDbEntity
  8
OBJECT
 62
     2
100
AcDbPolyline
 90
        6
 70
     1
 43
0.0
 39
20.0
 10
297.245991
 20
60.0894
 10
297.462497
 20
60.0894
 10
297.57075
 20
60.2769
 10
297.462497
 20
60.4644
 10
297.245991
 20
60.4644
 10
297.137737
 20
60.2769
  0
LWPOLYLINE
  5
1013
100
AcDbEntity
  8
OBJECT
 62
     2
100
AcDbPolyline
 90
        6
 70
     1
 43
0.0
 39
20.0
 10
283.606091
 20
68.0894
 10
283.714344
 20
68.2769
 10
283.606091
 20
68.4644
 10
283.389584
 20
68.4644
 10
283.281331
 20
68.2769
 10
283.389584
 20
68.0894
  0
LWPOLYLINE
  5
101B
100
AcDbEntity
  8
OBJECT
 62
     2
100
AcDbPolyline
 90
        6
 70
     1
 43
0.0
 39
20.0
 10
269.857937
 20
60.2769
 10
269.749684
 20
60.4644
 10
269.533178
 20
60.4644
 10
269.424925
 20
60.2769
 10
269.533178
 20
60.0894
 10
269.749684
 20
60.0894
  0
LWPOLYLINE
  5
1023
100
AcDbEntity
  8
OBJECT
 62
     2
100
AcDbPolyline
 90
        6
 70
     1
 43
0.0
 39
20.0
 10
269.749684
 20
44.4644
 10
269.533178
 20
44.4644
 10
269.424925
 20
44.2769
 10
269.533178
 20
44.0894
 10
269.749684
 20
44.0894
 10
269.857937
 20
44.2769
  0
LINE
  5
102B
100
AcDbEntity
  8
CENTER
 62
     3
100
AcDbLine
 10
291.497837
 20
61.7769
 30
0.0
 11
291.497837
 21
42.7769
 31
0.0
  0
CIRCLE
  5
102C
100
AcDbEntity
  8
HIDDEN
 62
     1
100
AcDbCircle
 39
20.0
 10
291.497837
 20
52.2769
 30
0.0
 40
7.0
  0
CIRCLE
  5
102D
100
AcDbEntity
  8
OBJECT
 62
     2
100
AcDbCircle
 39
20.0
 10
291.497837
 20
52.2769
 30
0.0
 40
8.0
  0
CIRCLE
  5
102E
100
AcDbEntity
  8
OBJECT
 62
     2
100
AcDbCircle
 39
20.0
 10
286.497837
 20
52.2769
 30
0.0
 40
0.2188
  0
CIRCLE
  5
102F
100
AcDbEntity
  8
OBJECT
 62
     2
100
AcDbCircle
 39
20.0
 10
286.497837
 20
52.2769
 30
0.0
 40
1.375
  0
LWPOLYLINE
  5
1030
100
AcDbEntity
  8
OBJECT
 62
     2
100
AcDbPolyline
 90
        6
 70
     1
 43
0.0
 39
20.0
 10
296.584632
 20
57.5802
 10
296.692885
 20
57.3927
 10
296.909391
 20
57.3927
 10
297.017645
 20
57.5802
 10
296.909391
 20
57.7677
 10
296.692885
 20
57.7677
  0
LWPOLYLINE
  5
1038
100
AcDbEntity
  8
OBJECT
 62
     2
100
AcDbPolyline
 90
        6
 70
     1
 43
0.0
 39
20.0
 10
286.194536
 20
57.363694
 10
286.382036
 20
57.471947
 10
286.382036
 20
57.688454
 10
286.194536
 20
57.796707
 10
286.007036
 20
57.688454
 10
286.007036
 20
57.471947
  0
LWPOLYLINE
  5
1040
100
AcDbEntity
  8
OBJECT
 62
     2
100
AcDbPolyline
 90
        6
 70
     1
 43
0.0
 39
20.0
 10
286.411043
 20
46.973599
 10
286.30279
 20
47.161099
 10
286.086283
 20
47.161099
 10
285.97803
 20
46.973599
 10
286.086283
 20
46.786099
 10
286.30279
 20
46.786099
  0
LWPOLYLINE
  5
1048
100
AcDbEntity
  8
OBJECT
 62
     2
100
AcDbPolyline
 90
        6
 70
     1
 43
0.0
 39
20.0
 10
296.801138
 20
47.190105
 10
296.613638
 20
47.081852
 10
296.613638
 20
46.865346
 10
296.801138
 20
46.757092
 10
296.988638
 20
46.865346
 10
296.988638
 20
47.081852
  0
LWPOLYLINE
  5
1050
100
AcDbEntity
  8
OBJECT
 62
     2
100
AcDbPolyline
 90
        6
 70
     1
 43
0.0
 39
20.0
 10
280.801138
 20
57.363694
 10
280.613638
 20
57.471947
 10
280.613638
 20
57.688454
 10
280.801138
 20
57.796707
 10
280.988638
 20
57.688454
 10
280.988638
 20
57.471947
  0
CIRCLE
  5
1058
100
AcDbEntity
  8
HIDDEN
 62
     1
100
AcDbCircle
 39
20.0
 10
275.497837
 20
52.2769
 30
0.0
 40
7.0
  0
CIRCLE
  5
1059
100
AcDbEntity
  8
OBJECT
 62
     2
100
AcDbCircle
 39
20.0
 10
275.497837
 20
52.2769
 30
0.0
 40
8.0
  0
LWPOLYLINE
  5
105A
100
AcDbEntity
  8
OBJECT
 62
     2
100
AcDbPolyline
 90
        6
 70
     1
 43
0.0
 39
20.0
 10
280.584632
 20
46.973599
 10
280.692885
 20
47.161099
 10
280.909391
 20
47.161099
 10
281.017645
 20
46.973599
 10
280.909391
 20
46.786099
 10
280.692885
 20
46.786099
  0
CIRCLE
  5
1062
100
AcDbEntity
  8
OBJECT
 62
     2
100
AcDbCircle
 39
20.0
 10
280.497837
 20
52.2769
 30
0.0
 40
1.375
  0
CIRCLE
  5
1063
100
AcDbEntity
  8
OBJECT
 62
     2
100
AcDbCircle
 39
20.0
 10
280.497837
 20
52.2769
 30
0.0
 40
0.2188
  0
LWPOLYLINE
  5
1064
100
AcDbEntity
  8
OBJECT
 62
     2
100
AcDbPolyline
 90
        6
 70
     1
 43
0.0
 39
20.0
 10
270.194536
 20
47.190105
 10
270.382036
 20
47.081852
 10
270.382036
 20
46.865346
 10
270.194536
 20
46.757092
 10
270.007036
 20
46.865346
 10
270.007036
 20
47.081852
  0
LWPOLYLINE
  5
106C
100
AcDbEntity
  8
OBJECT
 62
     2
100
AcDbPolyline
 90
        6
 70
     1
 43
0.0
 39
20.0
 10
270.411043
 20
57.5802
 10
270.30279
 20
57.3927
 10
270.086283
 20
57.3927
 10
269.97803
 20
57.5802
 10
270.086283
 20
57.7677
 10
270.30279
 20
57.7677
  0
LINE
  5
1074
100
AcDbEntity
  8
CENTER
 62
     3
100
AcDbLine
 10
276.997837
 20
41.673671
 30
0.0
 11
289.997837
 21
41.673671
 31
0.0
  0
CIRCLE
  5
1075
100
AcDbEntity
  8
HIDDEN
 62
     1
100
AcDbCircle
 39
20.0
 10
283.497837
 20
41.673671
 30
0.0
 40
4.0
  0
CIRCLE
  5
1076
100
AcDbEntity
  8
OBJECT
 62
     2
100
AcDbCircle
 39
20.0
 10
283.497837
 20
41.673671
 30
0.0
 40
5.0
  0
LWPOLYLINE
  5
1077
100
AcDbEntity
  8
OBJECT
 62
     2
100
AcDbPolyline
 90
        6
 70
     1
 43
0.0
 39
20.0
 10
286.896324
 20
44.855651
 10
286.788071
 20
45.043151
 10
286.571565
 20
45.043151
 10
286.463312
 20
44.855651
 10
286.571565
 20
44.668151
 10
286.788071
 20
44.668151
  0
LWPOLYLINE
  5
107F
100
AcDbEntity
  8
OBJECT
 62
     2
100
AcDbPolyline
 90
        6
 70
     1
 43
0.0
 39
20.0
 10
280.315857
 20
45.072158
 10
280.128357
 20
44.963905
 10
280.128357
 20
44.747398
 10
280.315857
 20
44.639145
 10
280.503357
 20
44.747398
 10
280.503357
 20
44.963905
  0
LWPOLYLINE
  5
1087
100
AcDbEntity
  8
OBJECT
 62
     2
100
AcDbPolyline
 90
        6
 70
     1
 43
0.0
 39
20.0
 10
286.679818
 20
38.275184
 10
286.867318
 20
38.383437
 10
286.867318
 20
38.599944
 10
286.679818
 20
38.708197
 10
286.492318
 20
38.599944
 10
286.492318
 20
38.383437
  0
LINE
  5
108F
100
AcDbEntity
  8
CENTER
 62
     3
100
AcDbLine
 39
20.0
 10
275.497837
 20
61.7769
 30
0.0
 11
275.497837
 21
42.7769
 31
0.0
  0
DIMENSION
  5
1090
100
AcDbEntity
  8
DIM
 62
     6
100
AcDbDimension
  2
*D2
 10
291.497837
 20
75.686321
 30
0.0
 11
287.563121
 21
75.686321
 31
0.0
 12
282.162785
 22
-1.328815
 32
0.0
 70
   128
  1
H
100
AcDbAlignedDimension
 13
283.497837
 23
70.7769
 33
0.0
 14
291.497837
 24
61.7769
 34
0.0
100
AcDbRotatedDimension
  0
DIMENSION
  5
1091
100
AcDbEntity
  8
DIM
 62
     6
100
AcDbDimension
  2
*D0
 10
308.558961
 20
52.2769
 30
0.0
 11
308.558961
 21
57.7769
 31
0.0
 12
282.162785
 22
-1.328815
 32
0.0
  1
I
100
AcDbAlignedDimension
 13
286.810337
 23
63.2769
 33
0.0
 14
301.997837
 24
52.2769
 34
0.0
 50
90.0
100
AcDbRotatedDimension
  0
DIMENSION
  5
1092
100
AcDbEntity
  8
DIM
 62
     6
100
AcDbDimension
  2
*D1
 10
308.558961
 20
41.673671
 30
0.0
 11
308.558961
 21
46.975285
 31
0.0
 12
282.162785
 22
-1.328815
 32
0.0
  1
G
100
AcDbAlignedDimension
 13
301.997837
 23
52.2769
 33
0.0
 14
289.997837
 24
41.673671
 34
0.0
 50
90.0
100
AcDbRotatedDimension
  0
LINE
  5
1093
100
AcDbEntity
  8
CENTER
 62
     3
100
AcDbLine
 10
278.997837
 20
52.2769
 30
0.0
 11
281.997837
 21
52.2769
 31
0.0
  0
LINE
  5
1094
100
AcDbEntity
  8
CENTER
 62
     3
100
AcDbLine
 10
280.497837
 20
50.7769
 30
0.0
 11
280.497837
 21
53.7769
 31
0.0
  0
LINE
  5
1095
100
AcDbEntity
  8
CENTER
 62
     3
100
AcDbLine
 10
284.997837
 20
52.2769
 30
0.0
 11
287.997837
 21
52.2769
 31
0.0
  0
LINE
  5
1096
100
AcDbEntity
  8
CENTER
 62
     3
100
AcDbLine
 10
286.497837
 20
50.7769
 30
0.0
 11
286.497837
 21
53.7769
 31
0.0
  0
DIMENSION
  5
1097
100
AcDbEntity
  8
DIM
 62
     6
100
AcDbDimension
  2
*D3
 10
275.497837
 20
75.686321
 30
0.0
 11
273.569868
 21
77.062816
 31
0.0
 12
282.162785
 22
-1.328815
 32
0.0
 70
   128
  1
5"
100
AcDbAlignedDimension
 13
270.497837
 23
53.7769
 33
0.0
 14
275.497837
 24
61.7769
 34
0.0
100
AcDbRotatedDimension
  0
DIMENSION
  5
1098
100
AcDbEntity
  8
DIM
 62
     6
100
AcDbDimension
  2
*D4
 10
280.497837
 20
75.688896
 30
0.0
 11
278.720292
 21
76.92502
 31
0.0
 12
282.162785
 22
-1.328815
 32
0.0
 70
   128
  1
5"
100
AcDbAlignedDimension
 13
275.497837
 23
61.7769
 33
0.0
 14
280.497837
 24
53.7769
 34
0.0
100
AcDbRotatedDimension
  0
TEXT
  5
1099
100
AcDbEntity
  8
DIM
 62
     6
100
AcDbText
 10
305.639771
 20
65.265986
 30
0.0
 40
1.5
  1
C
  7
ROMAND
 11
305.639771
 21
66.015986
 31
0.0
100
AcDbText
 73
     2
  0
CIRCLE
  5
109A
100
AcDbEntity
  8
DIM
 62
     6
100
AcDbCircle
 39
20.0
 10
306.454042
 20
66.05102
 30
0.0
 40
1.186877
  0
TEXT
  5
109B
100
AcDbEntity
  8
DIM
 62
     6
100
AcDbText
 10
305.771306
 20
69.034789
 30
0.0
 40
1.5
  1
F
  7
ROMAND
 11
305.771306
 21
69.784789
 31
0.0
100
AcDbText
 73
     2
  0
TEXT
  5
109C
100
AcDbEntity
  8
DIM
 62
     6
100
AcDbText
 10
305.705539
 20
73.292064
 30
0.0
 40
1.5
  1
E
  7
ROMAND
 11
305.705539
 21
74.042064
 31
0.0
100
AcDbText
 73
     2
  0
CIRCLE
  5
109D
100
AcDbEntity
  8
DIM
 62
     6
100
AcDbCircle
 39
20.0
 10
306.454042
 20
77.65012
 30
0.0
 40
1.186877
  0
TEXT
  5
109E
100
AcDbEntity
  8
DIM
 62
     6
100
AcDbText
 10
305.776543
 20
77.001698
 30
0.0
 40
1.5
  1
A
  7
ROMAND
 11
305.776543
 21
77.751698
 31
0.0
100
AcDbText
 73
     2
  0
CIRCLE
  5
109F
100
AcDbEntity
  8
DIM
 62
     6
100
AcDbCircle
 39
20.0
 10
306.454042
 20
74.06082
 30
0.0
 40
1.186877
  0
CIRCLE
  5
10A0
100
AcDbEntity
  8
DIM
 62
     6
100
AcDbCircle
 39
20.0
 10
306.454042
 20
69.885512
 30
0.0
 40
1.186877
  0
LINE
  5
10A1
100
AcDbEntity
  8
DIM
 62
     6
100
AcDbLine
 10
302.642413
 20
66.038011
 30
0.0
 11
304.142413
 21
66.038011
 31
0.0
  0
LINE
  5
10A2
100
AcDbEntity
  8
DIM
 62
     6
100
AcDbLine
 10
302.642413
 20
78.038011
 30
0.0
 11
304.142413
 21
78.038011
 31
0.0
  0
LINE
  5
10A3
100
AcDbEntity
  8
DIM
 62
     6
100
AcDbLine
 10
302.642413
 20
74.038011
 30
0.0
 11
304.142413
 21
74.038011
 31
0.0
  0
LINE
  5
10A4
100
AcDbEntity
  8
DIM
 62
     6
100
AcDbLine
 10
302.642413
 20
70.038011
 30
0.0
 11
304.142413
 21
70.038011
 31
0.0
  0
TEXT
  5
10A5
100
AcDbEntity
  8
DIM
 62
     6
100
AcDbText
 10
305.701455
 20
37.679582
 30
0.0
 40
1.5
  1
B
  7
ROMAND
 11
305.701455
 21
38.429582
 31
0.0
100
AcDbText
 73
     2
  0
CIRCLE
  5
10A6
100
AcDbEntity
  8
DIM
 62
     6
100
AcDbCircle
 39
20.0
 10
306.454042
 20
38.453005
 30
0.0
 40
1.186877
  0
LINE
  5
10A7
100
AcDbEntity
  8
DIM
 62
     6
100
AcDbLine
 10
302.776543
 20
38.302312
 30
0.0
 11
304.276543
 21
38.302312
 31
0.0
  0
SOLID
  5
10A8
100
AcDbEntity
  8
DIM
 62
     6
100
AcDbTrace
 10
298.713806
 20
61.304929
 30
0.0
 11
298.342368
 21
61.639644
 31
0.0
 12
297.523942
 22
60.357973
 32
0.0
 13
297.523942
 23
60.357973
 33
0.0
  0
LINE
  5
10A9
100
AcDbEntity
  8
DIM
 62
     6
100
AcDbLine
 10
298.528087
 20
61.472287
 30
0.0
 11
302.642413
 21
66.038011
 31
0.0
  0
SOLID
  5
10AA
100
AcDbEntity
  8
DIM
 62
     6
100
AcDbTrace
 10
295.500883
 20
59.707859
 30
0.0
 11
295.09534
 21
60.000322
 31
0.0
 12
294.42072
 22
58.637462
 32
0.0
 13
294.42072
 23
58.637462
 33
0.0
  0
LINE
  5
10AB
100
AcDbEntity
  8
DIM
 62
     6
100
AcDbLine
 10
295.298111
 20
59.85409
 30
0.0
 11
302.642413
 21
70.038011
 31
0.0
  0
SOLID
  5
10AC
100
AcDbEntity
  8
DIM
 62
     6
100
AcDbTrace
 10
294.538431
 20
61.140038
 30
0.0
 11
294.119487
 21
61.412958
 31
0.0
 12
293.510198
 22
60.019664
 32
0.0
 13
293.510198
 23
60.019664
 33
0.0
  0
LINE
  5
10AD
100
AcDbEntity
  8
DIM
 62
     6
100
AcDbLine
 10
294.328959
 20
61.276498
 30
0.0
 11
302.642413
 21
74.038011
 31
0.0
  0
SOLID
  5
10AE
100
AcDbEntity
  8
DIM
 62
     6
100
AcDbTrace
 10
293.487123
 20
65.409206
 30
0.0
 11
293.087065
 21
65.709128
 31
0.0
 12
292.387329
 22
64.358991
 32
0.0
 13
292.387329
 23
64.358991
 33
0.0
  0
LINE
  5
10AF
100
AcDbEntity
  8
DIM
 62
     6
100
AcDbLine
 10
293.287094
 20
65.559167
 30
0.0
 11
302.642413
 21
78.038011
 31
0.0
  0
SOLID
  5
10B0
100
AcDbEntity
  8
DIM
 62
     6
100
AcDbTrace
 10
297.241708
 20
39.93148
 30
0.0
 11
297.403543
 21
40.404565
 31
0.0
 12
295.903371
 22
40.65353
 32
0.0
 13
295.903371
 23
40.65353
 33
0.0
  0
LINE
  5
10B1
100
AcDbEntity
  8
DIM
 62
     6
100
AcDbLine
 10
297.322625
 20
40.168022
 30
0.0
 11
302.776543
 21
38.302312
 31
0.0
  0
TEXT
  5
10B2
100
AcDbEntity
  8
DIM
 62
     6
100
AcDbText
 10
289.99967
 20
41.760015
 30
0.0
 40
1.5
  1
~
 50
258.499384
  7
ROMAND
100
AcDbText
  0
TEXT
  5
1191
100
AcDbEntity
  8
DIM
 62
     6
100
AcDbText
 10
327.092182
 20
-6.730179
 30
0.0
 40
1.275
  1
18
  7
ROMANS
100
AcDbText
  0
TEXT
  5
1193
100
AcDbEntity
  8
DIM
 62
     6
100
AcDbText
 10
327.092182
 20
-1.630179
 30
0.0
 40
1.275
  1
16
  7
ROMANS
100
AcDbText
  0
CIRCLE
  5
1195
100
AcDbEntity
  8
DIM
 62
     6
100
AcDbCircle
 39
17.0
 10
328.508101
 20
9.240114
 30
0.0
 40
1.008846
  0
TEXT
  5
119E
100
AcDbEntity
  8
DIM
 62
     6
100
AcDbText
 10
335.156181
 20
-6.730179
 30
0.0
 40
1.275
  1
16
  7
ROMANS
100
AcDbText
  0
TEXT
  5
11A0
100
AcDbEntity
  8
DIM
 62
     6
100
AcDbText
 10
335.156181
 20
-1.630179
 30
0.0
 40
1.275
  1
14
  7
ROMANS
100
AcDbText
  0
CIRCLE
  5
11A2
100
AcDbEntity
  8
DIM
 62
     6
100
AcDbCircle
 39
17.0
 10
336.386127
 20
9.256626
 30
0.0
 40
1.008846
  0
TEXT
  5
11AB
100
AcDbEntity
  8
DIM
 62
     6
100
AcDbText
 10
341.742541
 20
-6.730179
 30
0.0
 40
1.275
  1
13.00
  7
ROMANS
100
AcDbText
  0
TEXT
  5
11AD
100
AcDbEntity
  8
DIM
 62
     6
100
AcDbText
 10
341.742541
 20
-1.630179
 30
0.0
 40
1.275
  1
10.50
  7
ROMANS
100
AcDbText
  0
CIRCLE
  5
11AF
100
AcDbEntity
  8
DIM
 62
     6
100
AcDbCircle
 39
17.0
 10
344.496371
 20
9.268269
 30
0.0
 40
1.008846
  0
TEXT
  5
11B1
100
AcDbEntity
  8
DIM
 62
     6
100
AcDbText
 10
349.166268
 20
-1.630179
 30
0.0
 40
1.275
  1
8.00
  7
ROMANS
100
AcDbText
  0
TEXT
  5
11B3
100
AcDbEntity
  8
DIM
 62
     6
100
AcDbText
 10
349.166268
 20
-6.730179
 30
0.0
 40
1.275
  1
10.00
  7
ROMANS
100
AcDbText
  0
CIRCLE
  5
11BC
100
AcDbEntity
  8
DIM
 62
     6
100
AcDbCircle
 39
17.0
 10
352.322933
 20
9.247628
 30
0.0
 40
1.008846
  0
TEXT
  5
11C1
100
AcDbEntity
  8
DIM
 62
     6
100
AcDbText
 10
357.751957
 20
-6.59774
 30
0.0
 40
1.275
  1
14
  7
ROMANS
100
AcDbText
  0
TEXT
  5
11C3
100
AcDbEntity
  8
DIM
 62
     6
100
AcDbText
 10
357.751957
 20
-1.49774
 30
0.0
 40
1.275
  1
11
  7
ROMANS
100
AcDbText
  0
CIRCLE
  5
11C9
100
AcDbEntity
  8
DIM
 62
     6
100
AcDbCircle
 39
17.0
 10
359.015292
 20
9.236302
 30
0.0
 40
1.008846
  0
LWPOLYLINE
  5
11CA
100
AcDbEntity
  8
DIM
 62
     6
100
AcDbPolyline
 90
        2
 70
     0
 43
0.2125
 39
17.0
 10
270.567003
 20
1.490133
 10
361.846246
 20
1.490133
  0
LWPOLYLINE
  5
11CE
100
AcDbEntity
  8
DIM
 62
     6
100
AcDbPolyline
 90
        2
 70
     0
 43
0.2125
 39
17.0
 10
270.567003
 20
-3.609867
 10
361.846246
 20
-3.609867
  0
LWPOLYLINE
  5
11D2
100
AcDbEntity
  8
DIM
 62
     6
100
AcDbPolyline
 90
        2
 70
     0
 43
0.2125
 39
17.0
 10
270.567003
 20
-8.709867
 10
361.846246
 20
-8.709867
  0
LWPOLYLINE
  5
11E9
100
AcDbEntity
  8
DIM
 62
     6
100
AcDbPolyline
 90
        2
 70
     0
 43
0.2125
 39
17.0
 10
270.567003
 20
10.9157
 10
361.846246
 20
10.9157
  0
LINE
  5
11ED
100
AcDbEntity
  8
DIM
 62
     6
100
AcDbLine
 39
17.0
 10
280.359537
 20
10.9157
 30
0.0
 11
280.359537
 21
1.490133
 31
0.0
  0
LINE
  5
11EE
100
AcDbEntity
  8
DIM
 62
     6
100
AcDbLine
 39
17.0
 10
290.682112
 20
10.9157
 30
0.0
 11
290.682112
 21
1.490133
 31
0.0
  0
LINE
  5
11EF
100
AcDbEntity
  8
DIM
 62
     6
100
AcDbLine
 39
17.0
 10
298.673788
 20
10.9157
 30
0.0
 11
298.673788
 21
1.490133
 31
0.0
  0
LINE
  5
11F0
100
AcDbEntity
  8
DIM
 62
     6
100
AcDbLine
 39
17.0
 10
317.82052
 20
10.9157
 30
0.0
 11
317.82052
 21
1.490133
 31
0.0
  0
LINE
  5
11F1
100
AcDbEntity
  8
DIM
 62
     6
100
AcDbLine
 39
17.0
 10
306.665464
 20
10.9157
 30
0.0
 11
306.665464
 21
1.490133
 31
0.0
  0
LINE
  5
11F2
100
AcDbEntity
  8
DIM
 62
     6
100
AcDbLine
 39
17.0
 10
324.567558
 20
10.9157
 30
0.0
 11
324.567558
 21
1.490133
 31
0.0
  0
LINE
  5
11F3
100
AcDbEntity
  8
DIM
 62
     6
100
AcDbLine
 39
17.0
 10
348.352172
 20
10.9157
 30
0.0
 11
348.352172
 21
1.490133
 31
0.0
  0
LINE
  5
11F4
100
AcDbEntity
  8
DIM
 62
     6
100
AcDbLine
 39
17.0
 10
356.153433
 20
10.9157
 30
0.0
 11
356.153433
 21
1.490133
 31
0.0
  0
LINE
  5
11F5
100
AcDbEntity
  8
DIM
 62
     6
100
AcDbLine
 39
17.0
 10
361.846246
 20
10.9157
 30
0.0
 11
361.846246
 21
1.490133
 31
0.0
  0
TEXT
  5
11F6
100
AcDbEntity
  8
DIM
 62
     6
100
AcDbText
 10
273.065056
 20
4.457281
 30
0.0
 40
1.275
  1
PART
  7
ROMAND
 72
     1
 11
275.46327
 21
4.457281
 31
0.0
100
AcDbText
  0
TEXT
  5
11F7
100
AcDbEntity
  8
DIM
 62
     6
100
AcDbText
 10
273.793627
 20
2.392995
 30
0.0
 40
1.275
  1
NO.
  7
ROMAND
 72
     1
 11
275.46327
 21
2.392995
 31
0.0
100
AcDbText
  0
TEXT
  5
11F8
100
AcDbEntity
  8
DIM
 62
     6
100
AcDbText
 10
282.727967
 20
2.384482
 30
0.0
 40
1.275
  1
STYLE
  7
ROMAND
 72
     1
 11
285.520824
 21
2.384482
 31
0.0
100
AcDbText
  0
TEXT
  5
11F9
100
AcDbEntity
  8
DIM
 62
     6
100
AcDbText
 10
294.070807
 20
8.727629
 30
0.0
 40
1.275
  1
A
  7
ROMAND
 72
     1
 11
294.67795
 21
8.727629
 31
0.0
100
AcDbText
  0
TEXT
  5
11FA
100
AcDbEntity
  8
DIM
 62
     6
100
AcDbText
 10
291.91545
 20
6.532326
 30
0.0
 40
1.275
  1
BASIN
  7
ROMAND
 72
     1
 11
294.67795
 21
6.532326
 31
0.0
100
AcDbText
  0
TEXT
  5
11FB
100
AcDbEntity
  8
DIM
 62
     6
100
AcDbText
 10
291.611879
 20
4.46804
 30
0.0
 40
1.275
  1
INSIDE
  7
ROMAND
 72
     1
 11
294.67795
 21
4.46804
 31
0.0
100
AcDbText
  0
TEXT
  5
11FC
100
AcDbEntity
  8
DIM
 62
     6
100
AcDbText
 10
292.704736
 20
2.403755
 30
0.0
 40
1.275
  1
DIM.
  7
ROMAND
 72
     1
 11
294.67795
 21
2.403755
 31
0.0
100
AcDbText
  0
CIRCLE
  5
11FD
100
AcDbEntity
  8
DIM
 62
     6
100
AcDbCircle
 39
17.0
 10
294.681756
 20
9.240424
 30
0.0
 40
1.008846
  0
TEXT
  5
11FE
100
AcDbEntity
  8
DIM
 62
     6
100
AcDbText
 10
302.032126
 20
8.566689
 30
0.0
 40
1.275
  1
B
  7
ROMAND
 72
     1
 11
302.669626
 21
8.566689
 31
0.0
100
AcDbText
  0
TEXT
  5
11FF
100
AcDbEntity
  8
DIM
 62
     6
100
AcDbText
 10
298.723198
 20
4.430203
 30
0.0
 40
1.275
  1
OUTSIDE
  7
ROMAND
 72
     1
 11
302.669626
 21
4.430203
 31
0.0
100
AcDbText
  0
TEXT
  5
1200
100
AcDbEntity
  8
DIM
 62
     6
100
AcDbText
 10
300.696412
 20
2.365917
 30
0.0
 40
1.275
  1
DIM.
  7
ROMAND
 72
     1
 11
302.669626
 21
2.365917
 31
0.0
100
AcDbText
  0
TEXT
  5
1201
100
AcDbEntity
  8
DIM
 62
     6
100
AcDbText
 10
311.605492
 20
8.612518
 30
0.0
 40
1.275
  1
C
  7
ROMAND
 72
     1
 11
312.242992
 21
8.612518
 31
0.0
100
AcDbText
  0
TEXT
  5
1202
100
AcDbEntity
  8
DIM
 62
     6
100
AcDbText
 10
309.875135
 20
4.457706
 30
0.0
 40
1.275
  1
BOLT
  7
ROMAND
 72
     1
 11
312.242992
 21
4.457706
 31
0.0
100
AcDbText
  0
TEXT
  5
1203
100
AcDbEntity
  8
DIM
 62
     6
100
AcDbText
 10
308.994778
 20
2.393421
 30
0.0
 40
1.275
  1
CIRCLE
  7
ROMAND
 72
     1
 11
312.242992
 21
2.393421
 31
0.0
100
AcDbText
  0
TEXT
  5
1204
100
AcDbEntity
  8
DIM
 62
     6
100
AcDbText
 10
320.526182
 20
8.601955
 30
0.0
 40
1.275
  1
D
  7
ROMAND
 72
     1
 11
321.194039
 21
8.601955
 31
0.0
100
AcDbText
  0
TEXT
  5
1205
100
AcDbEntity
  8
DIM
 62
     6
100
AcDbText
 10
318.068939
 20
2.390371
 30
0.0
 40
1.275
  1
GAUGE
 41
1.028417
  7
ROMAND
 72
     5
 11
324.312897
 21
2.390371
 31
0.0
100
AcDbText
  0
TEXT
  5
1206
100
AcDbEntity
  8
DIM
 62
     6
100
AcDbText
 10
327.849428
 20
8.606615
 30
0.0
 40
1.275
  1
E
  7
ROMAND
 72
     1
 11
328.456571
 21
8.606615
 31
0.0
100
AcDbText
  0
TEXT
  5
1207
100
AcDbEntity
  8
DIM
 62
     6
100
AcDbText
 10
325.602999
 20
4.459426
 30
0.0
 40
1.275
  1
PLATE
  7
ROMAND
 72
     1
 11
328.456571
 21
4.459426
 31
0.0
100
AcDbText
  0
TEXT
  5
1208
100
AcDbEntity
  8
DIM
 62
     6
100
AcDbText
 10
326.483357
 20
2.337037
 30
0.0
 40
1.275
  1
DIM.
  7
ROMAND
 72
     1
 11
328.456571
 21
2.337037
 31
0.0
100
AcDbText
  0
TEXT
  5
1209
100
AcDbEntity
  8
DIM
 62
     6
100
AcDbText
 10
325.798623
 20
6.584463
 30
0.0
 40
1.275
  1
ACCESS
 41
0.742214
  7
ROMAND
 72
     5
 11
331.116059
 21
6.584463
 31
0.0
100
AcDbText
  0
TEXT
  5
120A
100
AcDbEntity
  8
DIM
 62
     6
100
AcDbText
 10
333.798564
 20
6.581232
 30
0.0
 40
1.275
  1
CLEAR
 41
0.924657
  7
ROMAND
 72
     5
 11
339.075715
 21
6.581232
 31
0.0
100
AcDbText
  0
TEXT
  5
120B
100
AcDbEntity
  8
DIM
 62
     6
100
AcDbText
 10
333.717998
 20
4.42565
 30
0.0
 40
1.275
  1
ACCESS
 41
0.742214
  7
ROMAND
 72
     5
 11
339.035433
 21
4.42565
 31
0.0
100
AcDbText
  0
TEXT
  5
120C
100
AcDbEntity
  8
DIM
 62
     6
100
AcDbText
 10
334.644433
 20
2.351801
 30
0.0
 40
1.275
  1
DIM.
  7
ROMAND
 72
     1
 11
336.617647
 21
2.351801
 31
0.0
100
AcDbText
  0
TEXT
  5
120D
100
AcDbEntity
  8
DIM
 62
     6
100
AcDbText
 10
335.821912
 20
8.663362
 30
0.0
 40
1.275
  1
F
  7
ROMAND
 72
     1
 11
336.429055
 21
8.663362
 31
0.0
100
AcDbText
  0
TEXT
  5
120E
100
AcDbEntity
  8
DIM
 62
     6
100
AcDbText
 10
343.814041
 20
8.63477
 30
0.0
 40
1.275
  1
G
  7
ROMAND
 72
     1
 11
344.451541
 21
8.63477
 31
0.0
100
AcDbText
  0
TEXT
  5
120F
100
AcDbEntity
  8
DIM
 62
     6
100
AcDbText
 10
351.584945
 20
8.694598
 30
0.0
 40
1.275
  1
H
  7
ROMAND
 72
     1
 11
352.252802
 21
8.694598
 31
0.0
100
AcDbText
  0
TEXT
  5
1210
100
AcDbEntity
  8
DIM
 62
     6
100
AcDbText
 10
356.343755
 20
2.330321
 30
0.0
 40
1.275
  1
DISTANCE
 41
0.581694
  7
ROMAND
 72
     5
 11
361.500054
 21
2.330321
 31
0.0
100
AcDbText
  0
TEXT
  5
1211
100
AcDbEntity
  8
DIM
 62
     6
100
AcDbText
 10
358.726625
 20
8.581399
 30
0.0
 40
1.275
  1
I
  7
ROMAND
 72
     1
 11
358.99984
 21
8.581399
 31
0.0
100
AcDbText
  0
CIRCLE
  5
1212
100
AcDbEntity
  8
DIM
 62
     6
100
AcDbCircle
 39
20.0
 10
306.454042
 20
32.453005
 30
0.0
 40
1.186877
  0
TEXT
  5
1213
100
AcDbEntity
  8
DIM
 62
     6
100
AcDbText
 10
305.701455
 20
31.679582
 30
0.0
 40
1.5
  1
D
  7
ROMAND
 11
305.701455
 21
32.429582
 31
0.0
100
AcDbText
 73
     2
  0
SOLID
  5
1214
100
AcDbEntity
  8
DIM
 62
     6
100
AcDbTrace
 10
291.693457
 20
39.479376
 30
0.0
 11
291.966356
 21
39.898335
 31
0.0
 12
290.57303
 22
40.50755
 32
0.0
 13
290.57303
 23
40.50755
 33
0.0
  0
LINE
  5
1215
100
AcDbEntity
  8
DIM
 62
     6
100
AcDbLine
 10
291.829906
 20
39.688855
 30
0.0
 11
302.603584
 21
32.671185
 31
0.0
  0
LINE
  5
1216
100
AcDbEntity
  8
DIM
 62
     6
100
AcDbLine
 10
302.603584
 20
32.671185
 30
0.0
 11
304.103584
 21
32.671185
 31
0.0
  0
TEXT
  5
1217
100
AcDbEntity
  8
DIM
 62
     6
100
AcDbText
 10
264.041986
 20
51.981598
 30
0.0
 40
1.125
  1
C
  7
ROMANS
100
AcDbText
  0
TEXT
  5
1218
100
AcDbEntity
  8
DIM
 62
     6
100
AcDbText
 10
264.384919
 20
51.416067
 30
0.0
 40
1.125
  1
L
  7
ROMANS
100
AcDbText
  0
TEXT
  5
1219
100
AcDbEntity
  8
DIM
 62
     6
100
AcDbText
 10
282.849043
 20
32.697392
 30
0.0
 40
1.125
  1
C
  7
ROMANS
100
AcDbText
  0
TEXT
  5
121A
100
AcDbEntity
  8
DIM
 62
     6
100
AcDbText
 10
283.191976
 20
32.131861
 30
0.0
 40
1.125
  1
L
  7
ROMANS
100
AcDbText
  0
LWPOLYLINE
  5
121D
100
AcDbEntity
  8
DIM
 62
     6
100
AcDbPolyline
 90
        2
 70
     0
 43
0.25
 39
20.0
 10
269.691235
 20
90.865203
 10
361.736165
 20
90.865203
  0
TEXT
  5
1221
100
AcDbEntity
  8
DIM
 62
     6
100
AcDbText
 10
293.528053
 20
88.533815
 30
0.0
 40
1.5
  1
STAINLESS STEEL HARDWARE STANDARD
  7
ROMANS
 72
     1
 11
316.206625
 21
88.533815
 31
0.0
100
AcDbText
  0
TEXT
  5
1222
100
AcDbEntity
  8
DIM
 62
     6
100
AcDbText
 10
302.563767
 20
86.46335
 30
0.0
 40
1.5
  1
GASKET TAPE PROVIDED
  7
ROMANS
 72
     1
 11
316.206625
 21
86.46335
 31
0.0
100
AcDbText
  0
LWPOLYLINE
  5
1223
100
AcDbEntity
  8
DIM
 62
     6
100
AcDbPolyline
 90
        2
 70
     0
 43
0.2125
 39
17.0
 10
270.567003
 20
10.9157
 10
270.567003
 20
1.490133
  0
LWPOLYLINE
  5
1227
100
AcDbEntity
  8
DIM
 62
     6
100
AcDbPolyline
 90
        2
 70
     0
 43
0.2125
 39
17.0
 10
361.846246
 20
10.9157
 10
361.846246
 20
1.490133
  0
LINE
  5
1246
100
AcDbEntity
  8
DIM
 62
     6
100
AcDbLine
 39
17.0
 10
332.559234
 20
10.9157
 30
0.0
 11
332.559234
 21
1.490133
 31
0.0
  0
LINE
  5
1247
100
AcDbEntity
  8
DIM
 62
     6
100
AcDbLine
 39
17.0
 10
340.55091
 20
10.9157
 30
0.0
 11
340.55091
 21
1.490133
 31
0.0
  0
TEXT
  5
1248
100
AcDbEntity
  8
DIM
 62
     6
100
AcDbText
 10
349.644841
 20
2.330321
 30
0.0
 40
1.275
  1
DISTANCE
 41
0.581694
  7
ROMAND
 72
     5
 11
354.80114
 21
2.330321
 31
0.0
100
AcDbText
  0
TEXT
  5
1249
100
AcDbEntity
  8
DIM
 62
     6
100
AcDbText
 10
341.749693
 20
2.330321
 30
0.0
 40
1.275
  1
DISTANCE
 41
0.581694
  7
ROMAND
 72
     5
 11
346.905993
 21
2.330321
 31
0.0
100
AcDbText
  0
TEXT
  5
124A
100
AcDbEntity
  8
DIM
 62
     6
100
AcDbText
 10
285.795438
 20
72.894313
 30
0.0
 40
1.5
  1
TYP.
  7
ROMANS
100
AcDbText
  0
CIRCLE
  5
124B
100
AcDbEntity
  8
OBJECT
 62
     2
100
AcDbCircle
 10
270.497837
 20
52.2769
 30
0.0
 40
2.22625
  0
ARC
  5
124C
100
AcDbEntity
  8
OBJECT
 62
     2
100
AcDbCircle
 10
270.497837
 20
52.2769
 30
0.0
 40
2.715
100
AcDbArc
 50
298.703991
 51
61.296009
  0
ARC
  5
124D
100
AcDbEntity
  8
OBJECT
 62
     2
100
AcDbCircle
 10
272.402166
 20
55.754651
 30
0.0
 40
1.25
100
AcDbArc
 50
197.904648
 51
241.296009
  0
ARC
  5
124E
100
AcDbEntity
  8
OBJECT
 62
     2
100
AcDbCircle
 10
270.497837
 20
55.1394
 30
0.0
 40
0.75125
100
AcDbArc
 50
17.904648
 51
162.095352
  0
ARC
  5
124F
100
AcDbEntity
  8
OBJECT
 62
     2
100
AcDbCircle
 10
268.593509
 20
55.754651
 30
0.0
 40
1.25
100
AcDbArc
 50
298.703991
 51
342.095352
  0
CIRCLE
  5
1250
100
AcDbEntity
  8
OBJECT
 62
     2
100
AcDbCircle
 10
270.497837
 20
55.1394
 30
0.0
 40
0.3025
  0
CIRCLE
  5
1251
100
AcDbEntity
  8
OBJECT
 62
     2
100
AcDbCircle
 10
270.497837
 20
52.2769
 30
0.0
 40
1.875
  0
ARC
  5
1252
100
AcDbEntity
  8
OBJECT
 62
     2
100
AcDbCircle
 10
270.497837
 20
52.2769
 30
0.0
 40
2.715
100
AcDbArc
 50
118.703991
 51
241.296009
  0
ARC
  5
1253
100
AcDbEntity
  8
OBJECT
 62
     2
100
AcDbCircle
 10
268.593509
 20
48.799148
 30
0.0
 40
1.25
100
AcDbArc
 50
17.904648
 51
61.296009
  0
ARC
  5
1254
100
AcDbEntity
  8
OBJECT
 62
     2
100
AcDbCircle
 10
270.497837
 20
49.4144
 30
0.0
 40
0.75125
100
AcDbArc
 50
197.904648
 51
342.095352
  0
ARC
  5
1255
100
AcDbEntity
  8
OBJECT
 62
     2
100
AcDbCircle
 10
272.402166
 20
48.799148
 30
0.0
 40
1.25
100
AcDbArc
 50
118.703991
 51
162.095352
  0
CIRCLE
  5
1256
100
AcDbEntity
  8
OBJECT
 62
     2
100
AcDbCircle
 10
270.497837
 20
49.4144
 30
0.0
 40
0.3025
  0
LINE
  5
1257
100
AcDbEntity
  8
CENTER
 62
     3
100
AcDbLine
 39
20.0
 10
278.384087
 20
63.2769
 30
0.0
 11
288.611587
 21
63.2769
 31
0.0
  0
ARC
  5
1258
100
AcDbEntity
  8
OBJECT
 62
     2
100
AcDbCircle
 10
286.975589
 20
65.181228
 30
0.0
 40
1.25
100
AcDbArc
 50
208.703991
 51
252.095352
  0
ARC
  5
1259
100
AcDbEntity
  8
OBJECT
 62
     2
100
AcDbCircle
 10
286.360337
 20
63.2769
 30
0.0
 40
0.75125
100
AcDbArc
 50
287.904648
 51
72.095352
  0
ARC
  5
125A
100
AcDbEntity
  8
OBJECT
 62
     2
100
AcDbCircle
 10
286.975589
 20
61.372571
 30
0.0
 40
1.25
100
AcDbArc
 50
107.904648
 51
151.296009
  0
CIRCLE
  5
125B
100
AcDbEntity
  8
OBJECT
 62
     2
100
AcDbCircle
 10
286.360337
 20
63.2769
 30
0.0
 40
0.3025
  0
CIRCLE
  5
125C
100
AcDbEntity
  8
OBJECT
 62
     2
100
AcDbCircle
 10
283.497837
 20
63.2769
 30
0.0
 40
2.22625
  0
CIRCLE
  5
125D
100
AcDbEntity
  8
OBJECT
 62
     2
100
AcDbCircle
 10
283.497837
 20
63.2769
 30
0.0
 40
1.875
  0
ARC
  5
125E
100
AcDbEntity
  8
OBJECT
 62
     2
100
AcDbCircle
 10
283.497837
 20
63.2769
 30
0.0
 40
2.715
100
AcDbArc
 50
208.703991
 51
331.296009
  0
ARC
  5
125F
100
AcDbEntity
  8
OBJECT
 62
     2
100
AcDbCircle
 10
280.020085
 20
61.372571
 30
0.0
 40
1.25
100
AcDbArc
 50
28.703991
 51
72.095352
  0
ARC
  5
1260
100
AcDbEntity
  8
OBJECT
 62
     2
100
AcDbCircle
 10
280.635337
 20
63.2769
 30
0.0
 40
0.75125
100
AcDbArc
 50
107.904648
 51
252.095352
  0
ARC
  5
1261
100
AcDbEntity
  8
OBJECT
 62
     2
100
AcDbCircle
 10
280.020085
 20
65.181228
 30
0.0
 40
1.25
100
AcDbArc
 50
287.904648
 51
331.296009
  0
CIRCLE
  5
1262
100
AcDbEntity
  8
OBJECT
 62
     2
100
AcDbCircle
 10
280.635337
 20
63.2769
 30
0.0
 40
0.3025
  0
ARC
  5
1263
100
AcDbEntity
  8
OBJECT
 62
     2
100
AcDbCircle
 10
283.497837
 20
63.2769
 30
0.0
 40
2.715
100
AcDbArc
 50
28.703991
 51
151.296009
  0
LINE
  5
1264
100
AcDbEntity
  8
CENTER
 62
     3
100
AcDbLine
 39
20.0
 10
296.497837
 20
47.16315
 30
0.0
 11
296.497837
 21
57.39065
 31
0.0
  0
ARC
  5
1265
100
AcDbEntity
  8
OBJECT
 62
     2
100
AcDbCircle
 10
296.497837
 20
52.2769
 30
0.0
 40
2.715
100
AcDbArc
 50
118.703991
 51
241.296009
  0
CIRCLE
  5
1266
100
AcDbEntity
  8
OBJECT
 62
     2
100
AcDbCircle
 10
296.497837
 20
49.4144
 30
0.0
 40
0.3025
  0
ARC
  5
1267
100
AcDbEntity
  8
OBJECT
 62
     2
100
AcDbCircle
 10
294.593509
 20
48.799148
 30
0.0
 40
1.25
100
AcDbArc
 50
17.904648
 51
61.296009
  0
ARC
  5
1268
100
AcDbEntity
  8
OBJECT
 62
     2
100
AcDbCircle
 10
296.497837
 20
49.4144
 30
0.0
 40
0.75125
100
AcDbArc
 50
197.904648
 51
342.095352
  0
ARC
  5
1269
100
AcDbEntity
  8
OBJECT
 62
     2
100
AcDbCircle
 10
298.402166
 20
48.799148
 30
0.0
 40
1.25
100
AcDbArc
 50
118.703991
 51
162.095352
  0
ARC
  5
126A
100
AcDbEntity
  8
OBJECT
 62
     2
100
AcDbCircle
 10
296.497837
 20
52.2769
 30
0.0
 40
2.715
100
AcDbArc
 50
298.703991
 51
61.296009
  0
CIRCLE
  5
126B
100
AcDbEntity
  8
OBJECT
 62
     2
100
AcDbCircle
 10
296.497837
 20
52.2769
 30
0.0
 40
1.875
  0
CIRCLE
  5
126C
100
AcDbEntity
  8
OBJECT
 62
     2
100
AcDbCircle
 10
296.497837
 20
52.2769
 30
0.0
 40
2.22625
  0
CIRCLE
  5
126D
100
AcDbEntity
  8
OBJECT
 62
     2
100
AcDbCircle
 10
296.497837
 20
55.1394
 30
0.0
 40
0.3025
  0
ARC
  5
126E
100
AcDbEntity
  8
OBJECT
 62
     2
100
AcDbCircle
 10
298.402166
 20
55.754651
 30
0.0
 40
1.25
100
AcDbArc
 50
197.904648
 51
241.296009
  0
ARC
  5
126F
100
AcDbEntity
  8
OBJECT
 62
     2
100
AcDbCircle
 10
296.497837
 20
55.1394
 30
0.0
 40
0.75125
100
AcDbArc
 50
17.904648
 51
162.095352
  0
ARC
  5
1270
100
AcDbEntity
  8
OBJECT
 62
     2
100
AcDbCircle
 10
294.593509
 20
55.754651
 30
0.0
 40
1.25
100
AcDbArc
 50
298.703991
 51
342.095352
  0
LINE
  5
1271
100
AcDbEntity
  8
CENTER
 62
     3
100
AcDbLine
 39
20.0
 10
270.497837
 20
47.16315
 30
0.0
 11
270.497837
 21
57.39065
 31
0.0
  0
LINE
  5
1280
100
AcDbEntity
  8
DIM
 62
     6
100
AcDbLine
 10
345.729113
 20
39.651575
 30
0.0
 11
334.619054
 21
35.096803
 31
0.0
  0
CIRCLE
  5
1282
100
AcDbEntity
  8
OBJECT
 62
     2
100
AcDbCircle
 39
20.0
 10
342.301981
 20
52.2769
 30
0.0
 40
8.0
  0
CIRCLE
  5
1283
100
AcDbEntity
  8
HIDDEN
 62
     1
100
AcDbCircle
 39
20.0
 10
342.301981
 20
52.2769
 30
0.0
 40
7.0
  0
LINE
  5
1284
100
AcDbEntity
  8
CENTER
 62
     3
100
AcDbLine
 10
347.301981
 20
52.2769
 30
0.0
 11
331.801981
 21
52.2769
 31
0.0
  0
CIRCLE
  5
1285
100
AcDbEntity
  8
CENTER
 62
     3
100
AcDbCircle
 39
20.0
 10
350.301981
 20
52.2769
 30
0.0
 40
16.0
  0
CIRCLE
  5
1286
100
AcDbEntity
  8
OBJECT
 62
     2
100
AcDbCircle
 39
20.0
 10
350.301981
 20
52.2769
 30
0.0
 40
17.0
  0
CIRCLE
  5
1287
100
AcDbEntity
  8
HIDDEN
 62
     1
100
AcDbCircle
 39
20.0
 10
350.301981
 20
52.2769
 30
0.0
 40
15.0
  0
LWPOLYLINE
  5
1288
100
AcDbEntity
  8
OBJECT
 62
     2
100
AcDbPolyline
 90
        6
 70
     1
 43
0.0
 39
20.0
 10
337.215187
 20
57.5802
 10
337.106934
 20
57.3927
 10
336.890427
 20
57.3927
 10
336.782174
 20
57.5802
 10
336.890427
 20
57.7677
 10
337.106934
 20
57.7677
  0
LWPOLYLINE
  5
1289
100
AcDbEntity
  8
OBJECT
 62
     2
100
AcDbPolyline
 90
        6
 70
     1
 43
0.0
 39
20.0
 10
336.99868
 20
47.190105
 10
337.18618
 20
47.081852
 10
337.18618
 20
46.865346
 10
336.99868
 20
46.757092
 10
336.81118
 20
46.865346
 10
336.81118
 20
47.081852
  0
LWPOLYLINE
  5
128A
100
AcDbEntity
  8
OBJECT
 62
     2
100
AcDbPolyline
 90
        6
 70
     1
 43
0.0
 39
20.0
 10
336.553828
 20
44.4644
 10
336.337322
 20
44.4644
 10
336.229068
 20
44.2769
 10
336.337322
 20
44.0894
 10
336.553828
 20
44.0894
 10
336.662081
 20
44.2769
  0
LWPOLYLINE
  5
128B
100
AcDbEntity
  8
OBJECT
 62
     2
100
AcDbPolyline
 90
        6
 70
     1
 43
0.0
 39
20.0
 10
336.662081
 20
60.2769
 10
336.553828
 20
60.4644
 10
336.337322
 20
60.4644
 10
336.229068
 20
60.2769
 10
336.337322
 20
60.0894
 10
336.553828
 20
60.0894
  0
TEXT
  5
128C
100
AcDbEntity
  8
DIM
 62
     6
100
AcDbText
 10
316.539978
 20
28.257997
 30
0.0
 40
1.5
  1
ACCESS OPENING
  7
ROMANS
100
AcDbText
  0
TEXT
  5
128D
100
AcDbEntity
  8
DIM
 62
     6
100
AcDbText
 10
316.539978
 20
30.279824
 30
0.0
 40
1.5
  1
DIA. CLEAR 
  7
ROMANS
100
AcDbText
  0
TEXT
  5
128E
100
AcDbEntity
  8
DIM
 62
     6
100
AcDbText
 10
316.516368
 20
25.928603
 30
0.0
 40
1.5
  1
(OPTIONAL)
  7
ROMANS
100
AcDbText
  0
TEXT
  5
128F
100
AcDbEntity
  8
DIM
 62
     6
100
AcDbText
 10
316.539978
 20
32.434182
 30
0.0
 40
1.5
  1
PLATE w/ 8" 
  7
ROMANS
100
AcDbText
  0
TEXT
  5
1290
100
AcDbEntity
  8
DIM
 62
     6
100
AcDbText
 10
316.14533
 20
34.501952
 30
0.0
 40
1.5
  1
10" INSPECTION
  7
ROMANS
100
AcDbText
  0
LINE
  5
1291
100
AcDbEntity
  8
CENTER
 62
     3
100
AcDbLine
 39
20.0
 10
337.301981
 20
47.16315
 30
0.0
 11
337.301981
 21
57.39065
 31
0.0
  0
CIRCLE
  5
1292
100
AcDbEntity
  8
OBJECT
 62
     2
100
AcDbCircle
 10
337.301981
 20
49.4144
 30
0.0
 40
0.3025
  0
ARC
  5
1293
100
AcDbEntity
  8
OBJECT
 62
     2
100
AcDbCircle
 10
339.20631
 20
48.799148
 30
0.0
 40
1.25
100
AcDbArc
 50
118.703991
 51
162.095352
  0
ARC
  5
1294
100
AcDbEntity
  8
OBJECT
 62
     2
100
AcDbCircle
 10
337.301981
 20
49.4144
 30
0.0
 40
0.75125
100
AcDbArc
 50
197.904648
 51
342.095352
  0
ARC
  5
1295
100
AcDbEntity
  8
OBJECT
 62
     2
100
AcDbCircle
 10
335.397653
 20
48.799148
 30
0.0
 40
1.25
100
AcDbArc
 50
17.904648
 51
61.296009
  0
ARC
  5
1296
100
AcDbEntity
  8
OBJECT
 62
     2
100
AcDbCircle
 10
337.301981
 20
52.2769
 30
0.0
 40
2.715
100
AcDbArc
 50
118.703991
 51
241.296009
  0
CIRCLE
  5
1297
100
AcDbEntity
  8
OBJECT
 62
     2
100
AcDbCircle
 10
337.301981
 20
52.2769
 30
0.0
 40
1.875
  0
CIRCLE
  5
1298
100
AcDbEntity
  8
OBJECT
 62
     2
100
AcDbCircle
 10
337.301981
 20
55.1394
 30
0.0
 40
0.3025
  0
ARC
  5
1299
100
AcDbEntity
  8
OBJECT
 62
     2
100
AcDbCircle
 10
335.397653
 20
55.754651
 30
0.0
 40
1.25
100
AcDbArc
 50
298.703991
 51
342.095352
  0
ARC
  5
129A
100
AcDbEntity
  8
OBJECT
 62
     2
100
AcDbCircle
 10
337.301981
 20
55.1394
 30
0.0
 40
0.75125
100
AcDbArc
 50
17.904648
 51
162.095352
  0
ARC
  5
129B
100
AcDbEntity
  8
OBJECT
 62
     2
100
AcDbCircle
 10
339.20631
 20
55.754651
 30
0.0
 40
1.25
100
AcDbArc
 50
197.904648
 51
241.296009
  0
ARC
  5
129C
100
AcDbEntity
  8
OBJECT
 62
     2
100
AcDbCircle
 10
337.301981
 20
52.2769
 30
0.0
 40
2.715
100
AcDbArc
 50
298.703991
 51
61.296009
  0
CIRCLE
  5
129D
100
AcDbEntity
  8
OBJECT
 62
     2
100
AcDbCircle
 10
337.301981
 20
52.2769
 30
0.0
 40
2.22625
  0
TEXT
  5
129E
100
AcDbEntity
  8
DIM
 62
     6
100
AcDbText
 10
331.189063
 20
51.416067
 30
0.0
 40
1.125
  1
L
  7
ROMANS
100
AcDbText
  0
TEXT
  5
129F
100
AcDbEntity
  8
DIM
 62
     6
100
AcDbText
 10
330.84613
 20
51.981598
 30
0.0
 40
1.125
  1
C
  7
ROMANS
100
AcDbText
  0
LWPOLYLINE
  5
12A6
100
AcDbEntity
  8
OBJECT
 62
     2
100
AcDbPolyline
 90
        6
 70
     1
 43
0.0
 39
20.0
 10
353.483962
 20
38.275184
 10
353.671462
 20
38.383437
 10
353.671462
 20
38.599944
 10
353.483962
 20
38.708197
 10
353.296462
 20
38.599944
 10
353.296462
 20
38.383437
  0
LWPOLYLINE
  5
12A7
100
AcDbEntity
  8
OBJECT
 62
     2
100
AcDbPolyline
 90
        6
 70
     1
 43
0.0
 39
20.0
 10
347.120001
 20
45.072158
 10
346.932501
 20
44.963905
 10
346.932501
 20
44.747398
 10
347.120001
 20
44.639145
 10
347.307501
 20
44.747398
 10
347.307501
 20
44.963905
  0
LWPOLYLINE
  5
12A8
100
AcDbEntity
  8
OBJECT
 62
     2
100
AcDbPolyline
 90
        6
 70
     1
 43
0.0
 39
20.0
 10
353.700468
 20
44.855651
 10
353.592215
 20
45.043151
 10
353.375709
 20
45.043151
 10
353.267455
 20
44.855651
 10
353.375709
 20
44.668151
 10
353.592215
 20
44.668151
  0
CIRCLE
  5
12A9
100
AcDbEntity
  8
OBJECT
 62
     2
100
AcDbCircle
 39
20.0
 10
350.301981
 20
41.673671
 30
0.0
 40
5.0
  0
CIRCLE
  5
12AA
100
AcDbEntity
  8
HIDDEN
 62
     1
100
AcDbCircle
 39
20.0
 10
350.301981
 20
41.673671
 30
0.0
 40
4.0
  0
CIRCLE
  5
12AB
100
AcDbEntity
  8
OBJECT
 62
     2
100
AcDbCircle
 39
20.0
 10
347.301981
 20
52.2769
 30
0.0
 40
0.2188
  0
CIRCLE
  5
12AC
100
AcDbEntity
  8
OBJECT
 62
     2
100
AcDbCircle
 39
20.0
 10
347.301981
 20
52.2769
 30
0.0
 40
1.375
  0
LWPOLYLINE
  5
12AD
100
AcDbEntity
  8
OBJECT
 62
     2
100
AcDbPolyline
 90
        6
 70
     1
 43
0.0
 39
20.0
 10
347.388776
 20
46.973599
 10
347.497029
 20
47.161099
 10
347.713535
 20
47.161099
 10
347.821789
 20
46.973599
 10
347.713535
 20
46.786099
 10
347.497029
 20
46.786099
  0
LWPOLYLINE
  5
12AE
100
AcDbEntity
  8
OBJECT
 62
     2
100
AcDbPolyline
 90
        6
 70
     1
 43
0.0
 39
20.0
 10
347.605282
 20
57.363694
 10
347.417782
 20
57.471947
 10
347.417782
 20
57.688454
 10
347.605282
 20
57.796707
 10
347.792782
 20
57.688454
 10
347.792782
 20
57.471947
  0
LWPOLYLINE
  5
12AF
100
AcDbEntity
  8
OBJECT
 62
     2
100
AcDbPolyline
 90
        6
 70
     1
 43
0.0
 39
20.0
 10
363.605282
 20
47.190105
 10
363.417782
 20
47.081852
 10
363.417782
 20
46.865346
 10
363.605282
 20
46.757092
 10
363.792782
 20
46.865346
 10
363.792782
 20
47.081852
  0
LWPOLYLINE
  5
12B0
100
AcDbEntity
  8
OBJECT
 62
     2
100
AcDbPolyline
 90
        6
 70
     1
 43
0.0
 39
20.0
 10
353.215187
 20
46.973599
 10
353.106934
 20
47.161099
 10
352.890427
 20
47.161099
 10
352.782174
 20
46.973599
 10
352.890427
 20
46.786099
 10
353.106934
 20
46.786099
  0
LWPOLYLINE
  5
12B1
100
AcDbEntity
  8
OBJECT
 62
     2
100
AcDbPolyline
 90
        6
 70
     1
 43
0.0
 39
20.0
 10
352.99868
 20
57.363694
 10
353.18618
 20
57.471947
 10
353.18618
 20
57.688454
 10
352.99868
 20
57.796707
 10
352.81118
 20
57.688454
 10
352.81118
 20
57.471947
  0
LWPOLYLINE
  5
12B2
100
AcDbEntity
  8
OBJECT
 62
     2
100
AcDbPolyline
 90
        6
 70
     1
 43
0.0
 39
20.0
 10
363.388776
 20
57.5802
 10
363.497029
 20
57.3927
 10
363.713535
 20
57.3927
 10
363.821789
 20
57.5802
 10
363.713535
 20
57.7677
 10
363.497029
 20
57.7677
  0
CIRCLE
  5
12B3
100
AcDbEntity
  8
OBJECT
 62
     2
100
AcDbCircle
 39
20.0
 10
353.301981
 20
52.2769
 30
0.0
 40
1.375
  0
CIRCLE
  5
12B4
100
AcDbEntity
  8
OBJECT
 62
     2
100
AcDbCircle
 39
20.0
 10
353.301981
 20
52.2769
 30
0.0
 40
0.2188
  0
CIRCLE
  5
12B5
100
AcDbEntity
  8
OBJECT
 62
     2
100
AcDbCircle
 39
20.0
 10
358.301981
 20
52.2769
 30
0.0
 40
8.0
  0
CIRCLE
  5
12B6
100
AcDbEntity
  8
HIDDEN
 62
     1
100
AcDbCircle
 39
20.0
 10
358.301981
 20
52.2769
 30
0.0
 40
7.0
  0
LWPOLYLINE
  5
12B7
100
AcDbEntity
  8
OBJECT
 62
     2
100
AcDbPolyline
 90
        6
 70
     1
 43
0.0
 39
20.0
 10
350.410234
 20
68.0894
 10
350.518488
 20
68.2769
 10
350.410234
 20
68.4644
 10
350.193728
 20
68.4644
 10
350.085475
 20
68.2769
 10
350.193728
 20
68.0894
  0
LWPOLYLINE
  5
12B8
100
AcDbEntity
  8
OBJECT
 62
     2
100
AcDbPolyline
 90
        6
 70
     1
 43
0.0
 39
20.0
 10
364.050135
 20
60.0894
 10
364.266641
 20
60.0894
 10
364.374894
 20
60.2769
 10
364.266641
 20
60.4644
 10
364.050135
 20
60.4644
 10
363.941881
 20
60.2769
  0
LWPOLYLINE
  5
12B9
100
AcDbEntity
  8
OBJECT
 62
     2
100
AcDbPolyline
 90
        6
 70
     1
 43
0.0
 39
20.0
 10
363.941881
 20
44.2769
 10
364.050135
 20
44.0894
 10
364.266641
 20
44.0894
 10
364.374894
 20
44.2769
 10
364.266641
 20
44.4644
 10
364.050135
 20
44.4644
  0
LWPOLYLINE
  5
12BA
100
AcDbEntity
  8
OBJECT
 62
     2
100
AcDbPolyline
 90
        6
 70
     1
 43
0.0
 39
20.0
 10
350.193728
 20
36.4644
 10
350.085475
 20
36.2769
 10
350.193728
 20
36.0894
 10
350.410234
 20
36.0894
 10
350.518488
 20
36.2769
 10
350.410234
 20
36.4644
  0
LINE
  5
12C4
100
AcDbEntity
  8
CENTER
 62
     3
100
AcDbLine
 10
350.301981
 20
49.2769
 30
0.0
 11
350.301981
 21
33.7769
 31
0.0
  0
TEXT
  5
12C5
100
AcDbEntity
  8
DIM
 62
     6
100
AcDbText
 10
349.99612
 20
32.131861
 30
0.0
 40
1.125
  1
L
  7
ROMANS
100
AcDbText
  0
TEXT
  5
12C6
100
AcDbEntity
  8
DIM
 62
     6
100
AcDbText
 10
349.653187
 20
32.697392
 30
0.0
 40
1.125
  1
C
  7
ROMANS
100
AcDbText
  0
LINE
  5
12CA
100
AcDbEntity
  8
CENTER
 62
     3
100
AcDbLine
 10
353.301981
 20
52.2769
 30
0.0
 11
368.801981
 21
52.2769
 31
0.0
  0
ARC
  5
12CC
100
AcDbEntity
  8
OBJECT
 62
     2
100
AcDbCircle
 10
350.301981
 20
63.2769
 30
0.0
 40
2.715
100
AcDbArc
 50
28.703991
 51
151.296009
  0
CIRCLE
  5
12CD
100
AcDbEntity
  8
OBJECT
 62
     2
100
AcDbCircle
 10
347.439481
 20
63.2769
 30
0.0
 40
0.3025
  0
ARC
  5
12CE
100
AcDbEntity
  8
OBJECT
 62
     2
100
AcDbCircle
 10
346.824229
 20
65.181228
 30
0.0
 40
1.25
100
AcDbArc
 50
287.904648
 51
331.296009
  0
ARC
  5
12CF
100
AcDbEntity
  8
OBJECT
 62
     2
100
AcDbCircle
 10
347.439481
 20
63.2769
 30
0.0
 40
0.75125
100
AcDbArc
 50
107.904648
 51
252.095352
  0
ARC
  5
12D0
100
AcDbEntity
  8
OBJECT
 62
     2
100
AcDbCircle
 10
346.824229
 20
61.372571
 30
0.0
 40
1.25
100
AcDbArc
 50
28.703991
 51
72.095352
  0
ARC
  5
12D1
100
AcDbEntity
  8
OBJECT
 62
     2
100
AcDbCircle
 10
350.301981
 20
63.2769
 30
0.0
 40
2.715
100
AcDbArc
 50
208.703991
 51
331.296009
  0
CIRCLE
  5
12D2
100
AcDbEntity
  8
OBJECT
 62
     2
100
AcDbCircle
 10
350.301981
 20
63.2769
 30
0.0
 40
1.875
  0
CIRCLE
  5
12D3
100
AcDbEntity
  8
OBJECT
 62
     2
100
AcDbCircle
 10
350.301981
 20
63.2769
 30
0.0
 40
2.22625
  0
CIRCLE
  5
12D4
100
AcDbEntity
  8
OBJECT
 62
     2
100
AcDbCircle
 10
353.164481
 20
63.2769
 30
0.0
 40
0.3025
  0
ARC
  5
12D5
100
AcDbEntity
  8
OBJECT
 62
     2
100
AcDbCircle
 10
353.779733
 20
61.372571
 30
0.0
 40
1.25
100
AcDbArc
 50
107.904648
 51
151.296009
  0
ARC
  5
12D6
100
AcDbEntity
  8
OBJECT
 62
     2
100
AcDbCircle
 10
353.164481
 20
63.2769
 30
0.0
 40
0.75125
100
AcDbArc
 50
287.904648
 51
72.095352
  0
ARC
  5
12D7
100
AcDbEntity
  8
OBJECT
 62
     2
100
AcDbCircle
 10
353.779733
 20
65.181228
 30
0.0
 40
1.25
100
AcDbArc
 50
208.703991
 51
252.095352
  0
LINE
  5
12D8
100
AcDbEntity
  8
CENTER
 62
     3
100
AcDbLine
 39
20.0
 10
345.188231
 20
63.2769
 30
0.0
 11
355.415731
 21
63.2769
 31
0.0
  0
LINE
  5
12DB
100
AcDbEntity
  8
CENTER
 62
     3
100
AcDbLine
 10
353.301981
 20
50.7769
 30
0.0
 11
353.301981
 21
53.7769
 31
0.0
  0
LINE
  5
12DC
100
AcDbEntity
  8
CENTER
 62
     3
100
AcDbLine
 10
351.801981
 20
52.2769
 30
0.0
 11
354.801981
 21
52.2769
 31
0.0
  0
LINE
  5
12DD
100
AcDbEntity
  8
CENTER
 62
     3
100
AcDbLine
 10
347.301981
 20
50.7769
 30
0.0
 11
347.301981
 21
53.7769
 31
0.0
  0
LINE
  5
12DE
100
AcDbEntity
  8
CENTER
 62
     3
100
AcDbLine
 10
345.801981
 20
52.2769
 30
0.0
 11
348.801981
 21
52.2769
 31
0.0
  0
LINE
  5
12DF
100
AcDbEntity
  8
CENTER
 62
     3
100
AcDbLine
 39
20.0
 10
342.301981
 20
61.7769
 30
0.0
 11
342.301981
 21
42.7769
 31
0.0
  0
LINE
  5
12E0
100
AcDbEntity
  8
CENTER
 62
     3
100
AcDbLine
 10
343.801981
 20
41.673671
 30
0.0
 11
356.801981
 21
41.673671
 31
0.0
  0
LINE
  5
12E1
100
AcDbEntity
  8
CENTER
 62
     3
100
AcDbLine
 10
350.301981
 20
55.2769
 30
0.0
 11
350.301981
 21
70.7769
 31
0.0
  0
LINE
  5
12E2
100
AcDbEntity
  8
CENTER
 62
     3
100
AcDbLine
 10
350.301981
 20
50.7769
 30
0.0
 11
350.301981
 21
53.7769
 31
0.0
  0
LINE
  5
12E3
100
AcDbEntity
  8
CENTER
 62
     3
100
AcDbLine
 10
348.801981
 20
52.2769
 30
0.0
 11
351.801981
 21
52.2769
 31
0.0
  0
ARC
  5
12E4
100
AcDbEntity
  8
OBJECT
 62
     2
100
AcDbCircle
 10
361.397653
 20
55.754651
 30
0.0
 40
1.25
100
AcDbArc
 50
298.703991
 51
342.095352
  0
ARC
  5
12E5
100
AcDbEntity
  8
OBJECT
 62
     2
100
AcDbCircle
 10
363.301981
 20
55.1394
 30
0.0
 40
0.75125
100
AcDbArc
 50
17.904648
 51
162.095352
  0
ARC
  5
12E6
100
AcDbEntity
  8
OBJECT
 62
     2
100
AcDbCircle
 10
365.20631
 20
55.754651
 30
0.0
 40
1.25
100
AcDbArc
 50
197.904648
 51
241.296009
  0
CIRCLE
  5
12E7
100
AcDbEntity
  8
OBJECT
 62
     2
100
AcDbCircle
 10
363.301981
 20
55.1394
 30
0.0
 40
0.3025
  0
CIRCLE
  5
12E8
100
AcDbEntity
  8
OBJECT
 62
     2
100
AcDbCircle
 10
363.301981
 20
52.2769
 30
0.0
 40
2.22625
  0
CIRCLE
  5
12E9
100
AcDbEntity
  8
OBJECT
 62
     2
100
AcDbCircle
 10
363.301981
 20
52.2769
 30
0.0
 40
1.875
  0
ARC
  5
12EA
100
AcDbEntity
  8
OBJECT
 62
     2
100
AcDbCircle
 10
363.301981
 20
52.2769
 30
0.0
 40
2.715
100
AcDbArc
 50
298.703991
 51
61.296009
  0
ARC
  5
12EB
100
AcDbEntity
  8
OBJECT
 62
     2
100
AcDbCircle
 10
365.20631
 20
48.799148
 30
0.0
 40
1.25
100
AcDbArc
 50
118.703991
 51
162.095352
  0
ARC
  5
12EC
100
AcDbEntity
  8
OBJECT
 62
     2
100
AcDbCircle
 10
363.301981
 20
49.4144
 30
0.0
 40
0.75125
100
AcDbArc
 50
197.904648
 51
342.095352
  0
ARC
  5
12ED
100
AcDbEntity
  8
OBJECT
 62
     2
100
AcDbCircle
 10
361.397653
 20
48.799148
 30
0.0
 40
1.25
100
AcDbArc
 50
17.904648
 51
61.296009
  0
CIRCLE
  5
12EE
100
AcDbEntity
  8
OBJECT
 62
     2
100
AcDbCircle
 10
363.301981
 20
49.4144
 30
0.0
 40
0.3025
  0
ARC
  5
12EF
100
AcDbEntity
  8
OBJECT
 62
     2
100
AcDbCircle
 10
363.301981
 20
52.2769
 30
0.0
 40
2.715
100
AcDbArc
 50
118.703991
 51
241.296009
  0
LINE
  5
12F0
100
AcDbEntity
  8
CENTER
 62
     3
100
AcDbLine
 39
20.0
 10
363.301981
 20
47.16315
 30
0.0
 11
363.301981
 21
57.39065
 31
0.0
  0
LINE
  5
1301
100
AcDbEntity
  8
CENTER
 62
     3
100
AcDbLine
 10
358.301981
 20
61.7769
 30
0.0
 11
358.301981
 21
42.7769
 31
0.0
  0
LEADER
  5
1346
100
AcDbEntity
  8
DIM
 62
     6
100
AcDbLeader
  3
STANDARD
 76
     2
 10
345.729113
 20
39.651575
 30
0.0
 10
334.619054
 20
35.096803
 30
0.0
 77
     6
1001
ACAD
1000
DSTYLE
1002
{
1070
   340
1005
34
1070
   174
1070
     1
1070
   147
1040
0.75
1070
   287
1070
     5
1070
    42
1040
0.75
1070
    44
1040
1.5
1070
   141
1040
-1.5
1070
    41
1040
1.5
1002
}
  0
LINE
  5
135F
100
AcDbEntity
  8
DIM
 62
     6
100
AcDbLine
 39
17.0
 10
280.359537
 20
1.490133
 30
0.0
 11
280.359537
 21
-8.709867
 31
0.0
  0
LWPOLYLINE
  5
1360
100
AcDbEntity
  8
DIM
 62
     6
100
AcDbPolyline
 90
        2
 70
     0
 43
0.2125
 39
17.0
 10
270.567003
 20
1.490133
 10
270.567003
 20
-8.709867
  0
LINE
  5
1361
100
AcDbEntity
  8
DIM
 62
     6
100
AcDbLine
 39
17.0
 10
290.682112
 20
1.490133
 30
0.0
 11
290.682112
 21
-8.709867
 31
0.0
  0
LINE
  5
1362
100
AcDbEntity
  8
DIM
 62
     6
100
AcDbLine
 39
17.0
 10
298.673788
 20
1.490133
 30
0.0
 11
298.673788
 21
-8.709867
 31
0.0
  0
LINE
  5
1363
100
AcDbEntity
  8
DIM
 62
     6
100
AcDbLine
 39
17.0
 10
306.665464
 20
1.490133
 30
0.0
 11
306.665464
 21
-8.709867
 31
0.0
  0
LINE
  5
1364
100
AcDbEntity
  8
DIM
 62
     6
100
AcDbLine
 39
17.0
 10
317.82052
 20
1.490133
 30
0.0
 11
317.82052
 21
-8.709867
 31
0.0
  0
LINE
  5
1365
100
AcDbEntity
  8
DIM
 62
     6
100
AcDbLine
 39
17.0
 10
324.567558
 20
1.490133
 30
0.0
 11
324.567558
 21
-8.709867
 31
0.0
  0
LINE
  5
1366
100
AcDbEntity
  8
DIM
 62
     6
100
AcDbLine
 39
17.0
 10
332.559234
 20
1.490133
 30
0.0
 11
332.559234
 21
-8.709867
 31
0.0
  0
LINE
  5
1367
100
AcDbEntity
  8
DIM
 62
     6
100
AcDbLine
 39
17.0
 10
340.55091
 20
1.490133
 30
0.0
 11
340.55091
 21
-8.709867
 31
0.0
  0
LINE
  5
1368
100
AcDbEntity
  8
DIM
 62
     6
100
AcDbLine
 39
17.0
 10
348.352172
 20
1.490133
 30
0.0
 11
348.352172
 21
-8.709867
 31
0.0
  0
LINE
  5
1369
100
AcDbEntity
  8
DIM
 62
     6
100
AcDbLine
 39
17.0
 10
356.153433
 20
1.490133
 30
0.0
 11
356.153433
 21
-8.709867
 31
0.0
  0
LWPOLYLINE
  5
136A
100
AcDbEntity
  8
DIM
 62
     6
100
AcDbPolyline
 90
        2
 70
     0
 43
0.2125
 39
17.0
 10
361.846246
 20
1.490133
 10
361.846246
 20
-8.709867
  0
LINE
  5
136B
100
AcDbEntity
  8
DIM
 62
     6
100
AcDbLine
 39
17.0
 10
361.846246
 20
1.490133
 30
0.0
 11
361.846246
 21
-8.709867
 31
0.0
  0
LWPOLYLINE
  5
1466
100
AcDbEntity
  8
BORDER
 62
     5
100
AcDbPolyline
 90
        6
 70
     0
 43
0.563864
 10
258.31694
 20
-21.025944
 10
258.31694
 20
112.22968
 42
-0.414214
 10
259.582812
 20
113.495552
 10
371.808767
 20
113.495552
 42
-0.414214
 10
373.074639
 20
112.22968
 10
373.074639
 20
-21.025944
  0
LWPOLYLINE
  5
1467
100
AcDbEntity
  8
BORDER
 62
     5
100
AcDbPolyline
 90
        2
 70
     0
 43
0.316468
 10
258.31694
 20
-21.025944
 10
258.31694
 20
112.22968
  0
LINE
  5
1468
100
AcDbEntity
  8
LIMITS
 62
     7
100
AcDbLine
 10
255.785197
 20
116.027295
 30
0.0
 11
255.785197
 21
-39.035416
 31
0.0
  0
LWPOLYLINE
  5
1469
100
AcDbEntity
  8
BORDER
 62
     5
100
AcDbPolyline
 90
        2
 70
     0
 43
0.316468
 10
373.074639
 20
-21.025944
 10
373.074639
 20
112.22968
  0
LINE
  5
146A
100
AcDbEntity
  8
LIMITS
 62
     7
100
AcDbLine
 10
375.606382
 20
-39.035416
 30
0.0
 11
375.606382
 21
116.027295
 31
0.0
  0
LINE
  5
146B
100
AcDbEntity
  8
LIMITS
100
AcDbLine
 10
375.606382
 20
112.869172
 30
0.0
 11
375.606382
 21
-39.035416
 31
0.0
  0
LINE
  5
146C
100
AcDbEntity
  8
LIMITS
100
AcDbLine
 10
375.606382
 20
-39.035416
 30
0.0
 11
375.606382
 21
112.869172
 31
0.0
  0
TEXT
  5
146D
100
AcDbEntity
  8
BORDER
 62
     6
100
AcDbText
 10
286.329128
 20
-34.025539
 30
0.0
 40
0.603464
  1
Phone: 800/354-4534  Fax: 574/223-6106
  7
ROMANC
100
AcDbText
  0
LINE
  5
146E
100
AcDbEntity
  8
BORDER
100
AcDbLine
 10
285.216711
 20
-26.866255
 30
0.0
 11
309.3354
 21
-26.866255
 31
0.0
  0
LINE
  5
146F
100
AcDbEntity
  8
BORDER
100
AcDbLine
 10
285.216711
 20
-30.678057
 30
0.0
 11
322.543434
 21
-30.678057
 31
0.0
  0
LINE
  5
1470
100
AcDbEntity
  8
BORDER
100
AcDbLine
 10
285.216711
 20
-29.541379
 30
0.0
 11
322.543434
 21
-29.541379
 31
0.0
  0
LINE
  5
1471
100
AcDbEntity
  8
BORDER
100
AcDbLine
 10
286.79905
 20
-23.212021
 30
0.0
 11
322.543434
 21
-23.212021
 31
0.0
  0
LINE
  5
1472
100
AcDbEntity
  8
BORDER
100
AcDbLine
 10
285.216711
 20
-34.288397
 30
0.0
 11
322.543434
 21
-34.288397
 31
0.0
  0
LWPOLYLINE
  5
1473
100
AcDbEntity
  8
BORDER
 62
     5
100
AcDbPolyline
 90
        2
 70
     0
 43
0.79117
 10
286.79905
 20
-21.629682
 10
344.592529
 20
-21.629682
  0
LWPOLYLINE
  5
1474
100
AcDbEntity
  8
BORDER
 62
     5
100
AcDbPolyline
 90
        2
 70
     0
 43
0.79117
 10
369.90996
 20
-35.870737
 10
261.481619
 20
-35.870737
  0
LINE
  5
1475
100
AcDbEntity
  8
LIMITS
 62
     7
100
AcDbLine
 10
255.785197
 20
-39.035416
 30
0.0
 11
375.606382
 21
-39.035416
 31
0.0
  0
ARC
  5
1476
102
{ACAD_REACTORS
330
1479
102
}
100
AcDbEntity
  8
BORDER
100
AcDbCircle
 10
264.883779
 20
-26.902986
 30
0.0
 40
1.61183
100
AcDbArc
 50
90.0
 51
179.923004
  0
LINE
  5
1477
102
{ACAD_REACTORS
330
1479
102
}
100
AcDbEntity
  8
BORDER
100
AcDbLine
 10
263.103369
 20
-24.879381
 30
0.0
 11
269.481581
 21
-24.879381
 31
0.0
  0
LINE
  5
1478
100
AcDbEntity
  8
BORDER
100
AcDbLine
 10
264.540971
 20
-32.651562
 30
0.0
 11
263.543804
 21
-31.35012
 31
0.0
  0
HATCH
  5
1479
100
AcDbEntity
  8
BORDER
100
AcDbHatch
 10
0.0
 20
0.0
 30
0.0
210
0.0
220
0.0
230
1.0
  2
ANSI37
 70
     0
 71
     1
 91
        1
 92
        7
 72
     1
 73
     1
 93
       18
 10
265.5946082278189
 20
-29.73583515318271
 42
-0.4142135623730733
 10
264.7870162889434
 20
-30.54342709205817
 42
0.0
 10
264.5269343182059
 20
-30.54342709205817
 42
0.0
 10
264.526934318206
 20
-30.711880316707
 42
0.0
 10
268.0580157133111
 20
-30.711880316707
 42
0.0
 10
268.0580157133111
 20
-30.54342709205817
 42
0.0
 10
267.7979337425731
 20
-30.54342709205817
 42
-0.414213562373014
 10
266.9903418036978
 20
-29.73583515318265
 42
0.0
 10
266.9903418036978
 20
-25.291155799308
 42
0.0
 10
267.7011709411202
 20
-25.291155799308
 42
-0.4138200196737626
 10
269.312999576374
 20
-26.90081987181125
 42
0.0
 10
269.4815809261289
 20
-26.90081987181125
 42
0.0
 10
269.4815809261291
 20
-24.87938117602848
 42
0.0
 10
263.1033691053878
 20
-24.87938117602848
 42
0.0
 10
263.1033691053878
 20
-26.90081987181125
 42
0.0
 10
263.271950455143
 20
-26.90081987181125
 42
-0.4138200196737629
 10
264.8837790903968
 20
-25.291155799308
 42
0.0
 10
265.5946082278189
 20
-25.291155799308
 42
0.0
 97
       18
330
14C1
330
14C0
330
14C3
330
14BF
330
1477
330
1488
330
1489
330
1476
330
14C2
330
149A
330
14AF
330
14AE
330
14AD
330
14AC
330
14B1
330
14B0
330
14AB
330
149B
 75
     0
 76
     1
 52
0.0
 41
0.024516
 77
     0
 78
     2
 53
45.0
 43
257.361529
 44
-119.219838
 45
-0.0021669276464936
 46
0.0021669276464936
 79
     0
 53
135.0
 43
257.361529
 44
-119.219838
 45
-0.0021669276464936
 46
-0.0021669276464936
 79
     0
 47
0.049862
 98
        1
 10
266.121189
 20
-27.599719
  0
LINE
  5
147A
100
AcDbEntity
  8
BORDER
100
AcDbLine
 10
262.276125
 20
-30.931442
 30
0.0
 11
278.181561
 21
-30.931442
 31
0.0
  0
LINE
  5
147B
100
AcDbEntity
  8
BORDER
100
AcDbLine
 10
262.276125
 20
-30.931442
 30
0.0
 11
278.181561
 21
-30.931442
 31
0.0
  0
LWPOLYLINE
  5
147C
100
AcDbEntity
  8
BORDER
 62
     5
100
AcDbPolyline
 90
        2
 70
     0
 43
0.79117
 10
261.481619
 20
-21.629682
 10
278.887353
 20
-21.629682
  0
LINE
  5
147D
100
AcDbEntity
  8
BORDER
100
AcDbLine
 10
261.481619
 20
-23.212021
 30
0.0
 11
278.887353
 21
-23.212021
 31
0.0
  0
LINE
  5
147E
100
AcDbEntity
  8
BORDER
100
AcDbLine
 10
261.481619
 20
-34.288397
 30
0.0
 11
280.469692
 21
-34.288397
 31
0.0
  0
LWPOLYLINE
  5
147F
100
AcDbEntity
  8
BORDER
 62
     5
100
AcDbPolyline
 90
        2
 70
     0
 43
0.79117
 10
261.481619
 20
-35.870737
 42
-0.414214
 10
258.31694
 20
-32.706058
 42
0.560527
  0
ARC
  5
1480
100
AcDbEntity
  8
BORDER
100
AcDbCircle
 10
261.481619
 20
-32.706058
 30
0.0
 40
1.582339
100
AcDbArc
 50
180.0
 51
270.0
  0
LWPOLYLINE
  5
1481
100
AcDbEntity
  8
BORDER
 62
     5
100
AcDbPolyline
 90
        2
 70
     0
 43
0.79117
 10
261.481619
 20
-21.629682
 42
0.414214
 10
258.31694
 20
-24.79436
 42
-0.560527
  0
LWPOLYLINE
  5
1482
100
AcDbEntity
  8
BORDER
 62
     5
100
AcDbPolyline
 90
        2
 70
     0
 43
0.79117
 10
258.31694
 20
-24.79436
 10
258.31694
 20
-32.706058
  0
LINE
  5
1483
100
AcDbEntity
  8
BORDER
100
AcDbLine
 10
259.89928
 20
-32.706058
 30
0.0
 11
259.89928
 21
-24.79436
 31
0.0
  0
LINE
  5
1484
100
AcDbEntity
  8
BORDER
100
AcDbLine
 10
262.973994
 20
-31.35012
 30
0.0
 11
262.973994
 21
-32.651562
 31
0.0
  0
LINE
  5
1485
100
AcDbEntity
  8
BORDER
100
AcDbLine
 10
263.543804
 20
-31.35012
 30
0.0
 11
263.543804
 21
-32.651562
 31
0.0
  0
LINE
  5
1486
100
AcDbEntity
  8
BORDER
100
AcDbLine
 10
262.707504
 20
-31.35012
 30
0.0
 11
263.240484
 21
-31.35012
 31
0.0
  0
LINE
  5
1487
100
AcDbEntity
  8
BORDER
100
AcDbLine
 10
262.707504
 20
-32.651562
 30
0.0
 11
263.240484
 21
-32.651562
 31
0.0
  0
LINE
  5
1488
102
{ACAD_REACTORS
330
1479
102
}
100
AcDbEntity
  8
BORDER
100
AcDbLine
 10
263.103369
 20
-26.90082
 30
0.0
 11
263.103369
 21
-24.879381
 31
0.0
  0
LINE
  5
1489
102
{ACAD_REACTORS
330
1479
102
}
100
AcDbEntity
  8
BORDER
100
AcDbLine
 10
263.103369
 20
-26.90082
 30
0.0
 11
263.271949
 21
-26.90082
 31
0.0
  0
ARC
  5
148A
100
AcDbEntity
  8
BORDER
100
AcDbCircle
 10
261.481619
 20
-24.79436
 30
0.0
 40
1.582339
100
AcDbArc
 50
90.0
 51
180.0
  0
LINE
  5
148B
100
AcDbEntity
  8
BORDER
100
AcDbLine
 10
280.469692
 20
-34.288397
 30
0.0
 11
280.469692
 21
-24.79436
 31
0.0
  0
LWPOLYLINE
  5
148C
100
AcDbEntity
  8
BORDER
 62
     5
100
AcDbPolyline
 90
        2
 70
     0
 43
0.79117
 10
282.052032
 20
-34.288397
 10
282.052032
 20
-24.79436
  0
LWPOLYLINE
  5
148D
100
AcDbEntity
  8
BORDER
 62
     5
100
AcDbPolyline
 90
        2
 70
     0
 43
0.79117
 10
283.634371
 20
-24.79436
 10
283.634371
 20
-34.288397
  0
LINE
  5
148E
100
AcDbEntity
  8
BORDER
100
AcDbLine
 10
285.216711
 20
-34.288397
 30
0.0
 11
285.216711
 21
-30.678057
 31
0.0
  0
ARC
  5
148F
100
AcDbEntity
  8
BORDER
100
AcDbCircle
 10
286.79905
 20
-24.79436
 30
0.0
 40
1.582339
100
AcDbArc
 50
90.0
 51
180.0
  0
TEXT
  5
1490
100
AcDbEntity
  8
BORDER
 62
     6
100
AcDbText
 10
285.445987
 20
-27.92041
 30
0.0
 40
0.709958
  1
Reference:
  7
ROMANC
100
AcDbText
  0
LWPOLYLINE
  5
1491
100
AcDbEntity
  8
BORDER
 62
     5
100
AcDbPolyline
 90
        2
 70
     0
 43
0.79117
 10
286.79905
 20
-21.629682
 42
0.414214
 10
283.634371
 20
-24.79436
 42
-0.560527
  0
LWPOLYLINE
  5
1492
100
AcDbEntity
  8
BORDER
 62
     5
100
AcDbPolyline
 90
        2
 70
     0
 43
0.79117
 10
278.887353
 20
-21.629682
 42
-0.414214
 10
282.052032
 20
-24.79436
 42
0.560527
  0
LINE
  5
1493
100
AcDbEntity
  8
BORDER
100
AcDbLine
 10
275.421296
 20
-25.499118
 30
0.0
 11
275.075742
 21
-25.499118
 31
0.0
  0
LINE
  5
1494
100
AcDbEntity
  8
BORDER
100
AcDbLine
 10
275.075742
 20
-25.978696
 30
0.0
 11
275.421296
 21
-25.978696
 31
0.0
  0
LINE
  5
1495
100
AcDbEntity
  8
BORDER
100
AcDbLine
 10
269.698349
 20
-26.88676
 30
0.0
 11
277.807324
 21
-26.88676
 31
0.0
  0
HATCH
  5
1496
100
AcDbEntity
  8
BORDER
100
AcDbHatch
 10
0.0
 20
0.0
 30
0.0
210
0.0
220
0.0
230
1.0
  2
ANSI37
 70
     0
 71
     1
 91
        2
 92
        7
 72
     1
 73
     1
 93
       16
 10
273.0212149071523
 20
-30.25098075828089
 42
-0.4142135623730878
 10
272.6878484672679
 20
-30.58434719816542
 42
0.0
 10
272.5335764843691
 20
-30.58434719816542
 42
0.0
 10
272.5335764843692
 20
-30.67221596483001
 42
0.0
 10
273.9805032577675
 20
-30.67221596483002
 42
0.0
 10
273.9805032577675
 20
-30.58434719816542
 42
0.0
 10
273.8262312748689
 20
-30.58434719816542
 42
-0.4142135623730889
 10
273.4928648349844
 20
-30.25098075828089
 42
0.0
 10
273.4928648349844
 20
-29.08259358305167
 42
0.0609117558023491
 10
274.0764320928291
 20
-29.15448584637053
 42
0.4291497434370467
 10
275.1076670697397
 20
-28.22787167229627
 42
0.3916311771394817
 10
274.0981008597008
 20
-27.28253595082642
 42
0.0
 10
272.5360830918721
 20
-27.28253595082642
 42
0.0
 10
272.5360830918721
 20
-27.37558019979037
 42
0.0
 10
272.6878484672679
 20
-27.37558019979038
 42
-0.4142135623730919
 10
273.0212149071523
 20
-27.7089466396749
 42
0.0
 97
        1
330
1497
 92
       22
 72
     1
 73
     1
 93
        3
 10
273.4928648349844
 20
-27.53291130279109
 42
-0.5287425889460696
 10
274.5400877731853
 20
-28.26781192979065
 42
-0.5439228899224139
 10
273.4928648349844
 20
-28.95478455889176
 42
0.0
 97
        1
330
1498
 75
     0
 76
     1
 52
0.0
 41
0.024516
 77
     0
 78
     2
 53
45.0
 43
257.361529
 44
-119.219838
 45
-0.0021669276464936
 46
0.0021669276464936
 79
     0
 53
135.0
 43
257.361529
 44
-119.219838
 45
-0.0021669276464936
 46
-0.0021669276464936
 79
     0
 47
0.027301
 98
        2
 10
273.210513
 20
-28.145523
 10
273.210513
 20
-28.145523
  0
LWPOLYLINE
  5
1497
102
{ACAD_REACTORS
330
1496
102
}
100
AcDbEntity
  8
BORDER
100
AcDbPolyline
 90
       17
 70
     0
 43
0.0
 10
274.076432
 20
-29.154486
 42
-0.060912
 10
273.492865
 20
-29.082594
 10
273.492865
 20
-30.250981
 42
0.414214
 10
273.826231
 20
-30.584347
 10
273.980503
 20
-30.584347
 10
273.980503
 20
-30.672216
 10
272.533576
 20
-30.672216
 10
272.533576
 20
-30.584347
 10
272.687848
 20
-30.584347
 42
0.414214
 10
273.021215
 20
-30.250981
 10
273.021215
 20
-27.708947
 42
0.414214
 10
272.687848
 20
-27.37558
 10
272.536083
 20
-27.37558
 10
272.536083
 20
-27.282536
 10
274.085858
 20
-27.282536
 42
-0.395102
 10
275.107667
 20
-28.227872
 42
-0.42915
 10
274.076432
 20
-29.154486
  0
LWPOLYLINE
  5
1498
102
{ACAD_REACTORS
330
1496
102
}
100
AcDbEntity
  8
BORDER
100
AcDbPolyline
 90
        3
 70
     1
 43
0.0
 10
273.492865
 20
-28.954785
 42
0.543923
 10
274.540088
 20
-28.267812
 42
0.528743
 10
273.492865
 20
-27.532911
  0
ELLIPSE
  5
1499
102
{ACAD_REACTORS
330
149C
102
}
100
AcDbEntity
  8
BORDER
100
AcDbEllipse
 10
270.598648
 20
-28.975317
 30
0.0
 11
0.0000000000000119
 21
1.586184571080073
 31
0.0
210
0.0
220
0.0
230
1.0
 40
0.683214
 41
0.0
 42
6.283185307179586
  0
LINE
  5
149A
102
{ACAD_REACTORS
330
1479
102
}
100
AcDbEntity
  8
BORDER
100
AcDbLine
 10
265.594608
 20
-29.735835
 30
0.0
 11
265.594608
 21
-25.291156
 31
0.0
  0
LINE
  5
149B
102
{ACAD_REACTORS
330
1479
102
}
100
AcDbEntity
  8
BORDER
100
AcDbLine
 10
266.990342
 20
-29.735835
 30
0.0
 11
266.990342
 21
-25.291156
 31
0.0
  0
HATCH
  5
149C
100
AcDbEntity
  8
BORDER
100
AcDbHatch
 10
0.0
 20
0.0
 30
0.0
210
0.0
220
0.0
230
1.0
  2
ANSI37
 70
     0
 71
     1
 91
        2
 92
        5
 93
        1
 72
     3
 10
270.598648
 20
-28.985388
 11
0.0
 21
1.767463
 40
0.93822
 50
0.0
 51
360.0
 73
     1
 97
        1
330
149D
 92
       20
 93
        1
 72
     3
 10
270.598648
 20
-28.975317
 11
0.0
 21
1.586185
 40
0.683214
 50
0.0
 51
360.0
 73
     1
 97
        1
330
1499
 75
     0
 76
     1
 52
0.0
 41
0.024516
 77
     0
 78
     2
 53
45.0
 43
257.361529
 44
-119.219838
 45
-0.0021669276464936
 46
0.0021669276464936
 79
     0
 53
135.0
 43
257.361529
 44
-119.219838
 45
-0.0021669276464936
 46
-0.0021669276464936
 79
     0
 47
0.027301
 98
        2
 10
269.405981
 20
-28.266
 10
269.405981
 20
-28.266
  0
ELLIPSE
  5
149D
102
{ACAD_REACTORS
330
149C
102
}
100
AcDbEntity
  8
BORDER
100
AcDbEllipse
 10
270.598648
 20
-28.985388
 30
0.0
 11
0.0000000000000119
 21
1.767462736284435
 31
0.0
210
0.0
220
0.0
230
1.0
 40
0.93822
 41
0.0
 42
6.283185307179586
  0
ARC
  5
149E
100
AcDbEntity
  8
BORDER
100
AcDbCircle
 10
265.486798
 20
-31.990609
 30
0.0
 40
0.640655
100
AcDbArc
 50
44.321228
 51
180.91508
  0
SPLINE
  5
149F
100
AcDbEntity
  8
BORDER
100
AcDbSpline
210
0.0
220
0.0
230
1.0
 70
    11
 71
     3
 72
    24
 73
    20
 74
     0
 42
0.0000001
 43
0.0000001
 40
0.0
 40
0.0
 40
0.0
 40
0.0
 40
0.474866629778075
 40
0.474866629778075
 40
1.277791044886493
 40
1.277791044886493
 40
2.080715459994911
 40
2.080715459994911
 40
2.883639875103329
 40
2.883639875103329
 40
3.686564290211747
 40
3.686564290211747
 40
4.489488705320165
 40
4.489488705320165
 40
5.292413120428583
 40
5.292413120428583
 40
6.095337535537001
 40
6.095337535537001
 40
6.283185307179586
 40
6.283185307179586
 40
6.283185307179586
 40
6.283185307179586
 10
266.7985724374671
 20
-31.33246849801682
 30
0.0
 10
266.6930930856191
 20
-31.33246849801682
 30
0.0
 10
266.5877025841536
 20
-31.35805428618982
 30
0.0
 10
266.3352921964746
 20
-31.48823062382346
 30
0.0
 10
266.2121505221971
 20
-31.6365597614663
 30
0.0
 10
266.1091489559634
 20
-31.97905864165775
 30
0.0
 10
266.1299738310444
 20
-32.17093369718961
 30
0.0
 10
266.3040470572844
 20
-32.48318070435777
 30
0.0
 10
266.4561354165481
 20
-32.60145568006357
 30
0.0
 10
266.8010259502833
 20
-32.69273676121105
 30
0.0
 10
266.9915047100071
 20
-32.66512309992052
 30
0.0
 10
267.2965112996288
 20
-32.4796396789772
 30
0.0
 10
267.4089910125236
 20
-32.32302520953328
 30
0.0
 10
267.4878234658327
 20
-31.97413275384138
 30
0.0
 10
267.4536523926255
 20
-31.78419105923689
 30
0.0
 10
267.2582006645342
 20
-31.48493844713937
 30
0.0
 10
267.0982237041716
 20
-31.37763916472597
 30
0.0
 10
266.8820226260918
 20
-31.33641147965311
 30
0.0
 10
266.8402979661871
 20
-31.33246849801682
 30
0.0
 10
266.7985724374671
 20
-31.33246849801682
 30
0.0
  0
LINE
  5
14A0
100
AcDbEntity
  8
BORDER
100
AcDbLine
 10
264.540971
 20
-31.35012
 30
0.0
 11
264.540971
 21
-32.651562
 31
0.0
  0
ARC
  5
14A1
100
AcDbEntity
  8
BORDER
100
AcDbCircle
 10
265.440537
 20
-32.055578
 30
0.0
 40
0.596826
100
AcDbArc
 50
174.737783
 51
327.723969
  0
ARC
  5
14A2
100
AcDbEntity
  8
BORDER
100
AcDbCircle
 10
269.484879
 20
-31.683775
 30
0.0
 40
0.333655
100
AcDbArc
 50
270.0
 51
90.0
  0
LINE
  5
14A3
100
AcDbEntity
  8
BORDER
100
AcDbLine
 10
268.2222
 20
-31.35012
 30
0.0
 11
267.772286
 21
-31.35012
 31
0.0
  0
LINE
  5
14A4
100
AcDbEntity
  8
BORDER
100
AcDbLine
 10
267.772286
 20
-32.017431
 30
0.0
 11
268.2222
 21
-32.017431
 31
0.0
  0
ARC
  5
14A5
100
AcDbEntity
  8
BORDER
100
AcDbCircle
 10
268.2222
 20
-31.683775
 30
0.0
 40
0.333655
100
AcDbArc
 50
270.0
 51
90.0
  0
LINE
  5
14A6
100
AcDbEntity
  8
BORDER
100
AcDbLine
 10
267.772286
 20
-31.35012
 30
0.0
 11
267.772286
 21
-32.651562
 31
0.0
  0
LINE
  5
14A7
100
AcDbEntity
  8
BORDER
100
AcDbLine
 10
268.128503
 20
-32.017431
 30
0.0
 11
268.645175
 21
-32.651562
 31
0.0
  0
LINE
  5
14A8
100
AcDbEntity
  8
BORDER
100
AcDbLine
 10
269.147096
 20
-31.35012
 30
0.0
 11
269.147096
 21
-32.651562
 31
0.0
  0
LINE
  5
14A9
100
AcDbEntity
  8
BORDER
100
AcDbLine
 10
269.484879
 20
-31.35012
 30
0.0
 11
269.147096
 21
-31.35012
 31
0.0
  0
LINE
  5
14AA
100
AcDbEntity
  8
BORDER
100
AcDbLine
 10
269.147096
 20
-32.017431
 30
0.0
 11
269.484879
 21
-32.017431
 31
0.0
  0
ARC
  5
14AB
102
{ACAD_REACTORS
330
1479
102
}
100
AcDbEntity
  8
BORDER
100
AcDbCircle
 10
267.797934
 20
-29.735835
 30
0.0
 40
0.807592
100
AcDbArc
 50
180.0
 51
270.0
  0
LINE
  5
14AC
102
{ACAD_REACTORS
330
1479
102
}
100
AcDbEntity
  8
BORDER
100
AcDbLine
 10
264.526934
 20
-30.71188
 30
0.0
 11
268.058016
 21
-30.71188
 31
0.0
  0
LINE
  5
14AD
102
{ACAD_REACTORS
330
1479
102
}
100
AcDbEntity
  8
BORDER
100
AcDbLine
 10
264.526934
 20
-30.543427
 30
0.0
 11
264.526934
 21
-30.71188
 31
0.0
  0
LINE
  5
14AE
102
{ACAD_REACTORS
330
1479
102
}
100
AcDbEntity
  8
BORDER
100
AcDbLine
 10
264.526934
 20
-30.543427
 30
0.0
 11
264.787016
 21
-30.543427
 31
0.0
  0
ARC
  5
14AF
102
{ACAD_REACTORS
330
1479
102
}
100
AcDbEntity
  8
BORDER
100
AcDbCircle
 10
264.787016
 20
-29.735835
 30
0.0
 40
0.807592
100
AcDbArc
 50
270.0
 51
0.0
  0
LINE
  5
14B0
102
{ACAD_REACTORS
330
1479
102
}
100
AcDbEntity
  8
BORDER
100
AcDbLine
 10
268.058016
 20
-30.543427
 30
0.0
 11
267.797934
 21
-30.543427
 31
0.0
  0
LINE
  5
14B1
102
{ACAD_REACTORS
330
1479
102
}
100
AcDbEntity
  8
BORDER
100
AcDbLine
 10
268.058016
 20
-30.543427
 30
0.0
 11
268.058016
 21
-30.71188
 31
0.0
  0
SPLINE
  5
14B2
100
AcDbEntity
  8
BORDER
100
AcDbSpline
210
0.0
220
0.0
230
1.0
 70
    11
 71
     3
 72
    24
 73
    20
 74
     0
 42
0.0000001
 43
0.0000001
 40
0.0
 40
0.0
 40
0.0
 40
0.0
 40
0.474866629778075
 40
0.474866629778075
 40
1.277791044886493
 40
1.277791044886493
 40
2.080715459994911
 40
2.080715459994911
 40
2.883639875103329
 40
2.883639875103329
 40
3.686564290211747
 40
3.686564290211747
 40
4.489488705320165
 40
4.489488705320165
 40
5.292413120428583
 40
5.292413120428583
 40
6.095337535537001
 40
6.095337535537001
 40
6.283185307179586
 40
6.283185307179586
 40
6.283185307179586
 40
6.283185307179586
 10
270.670950084087
 20
-31.33246849801682
 30
0.0
 10
270.5654707322385
 20
-31.33246849801682
 30
0.0
 10
270.4600802307729
 20
-31.35805428618982
 30
0.0
 10
270.2076698430943
 20
-31.48823062382346
 30
0.0
 10
270.0845281688169
 20
-31.6365597614663
 30
0.0
 10
269.9815266025832
 20
-31.97905864165775
 30
0.0
 10
270.0023514776644
 20
-32.17093369718961
 30
0.0
 10
270.1764247039041
 20
-32.48318070435777
 30
0.0
 10
270.3285130631675
 20
-32.60145568006357
 30
0.0
 10
270.6734035969029
 20
-32.69273676121105
 30
0.0
 10
270.8638823566266
 20
-32.66512309992052
 30
0.0
 10
271.1688889462482
 20
-32.4796396789772
 30
0.0
 10
271.2813686591431
 20
-32.32302520953328
 30
0.0
 10
271.3602011124526
 20
-31.97413275384138
 30
0.0
 10
271.3260300392455
 20
-31.78419105923689
 30
0.0
 10
271.1305783111541
 20
-31.48493844713937
 30
0.0
 10
270.970601350791
 20
-31.37763916472597
 30
0.0
 10
270.7544002727114
 20
-31.33641147965311
 30
0.0
 10
270.712675612807
 20
-31.33246849801682
 30
0.0
 10
270.670950084087
 20
-31.33246849801682
 30
0.0
  0
LINE
  5
14B3
100
AcDbEntity
  8
BORDER
100
AcDbLine
 10
271.696402
 20
-31.35012
 30
0.0
 11
271.696402
 21
-32.651562
 31
0.0
  0
LINE
  5
14B4
100
AcDbEntity
  8
BORDER
100
AcDbLine
 10
271.696402
 20
-32.017431
 30
0.0
 11
272.146316
 21
-32.017431
 31
0.0
  0
LINE
  5
14B5
100
AcDbEntity
  8
BORDER
100
AcDbLine
 10
272.146316
 20
-31.35012
 30
0.0
 11
271.696402
 21
-31.35012
 31
0.0
  0
ARC
  5
14B6
100
AcDbEntity
  8
BORDER
100
AcDbCircle
 10
272.146316
 20
-31.683775
 30
0.0
 40
0.333655
100
AcDbArc
 50
270.0
 51
90.0
  0
LINE
  5
14B7
100
AcDbEntity
  8
BORDER
100
AcDbLine
 10
272.052619
 20
-32.017431
 30
0.0
 11
272.569291
 21
-32.651562
 31
0.0
  0
LINE
  5
14B8
100
AcDbEntity
  8
BORDER
100
AcDbLine
 10
274.757175
 20
-31.35012
 30
0.0
 11
274.757175
 21
-32.651562
 31
0.0
  0
LINE
  5
14B9
100
AcDbEntity
  8
BORDER
100
AcDbLine
 10
273.108244
 20
-32.177024
 30
0.0
 11
273.752909
 21
-32.177024
 31
0.0
  0
LINE
  5
14BA
100
AcDbEntity
  8
BORDER
100
AcDbLine
 10
273.94111
 20
-32.651562
 30
0.0
 11
273.424961
 21
-31.35012
 31
0.0
  0
LINE
  5
14BB
100
AcDbEntity
  8
BORDER
100
AcDbLine
 10
273.424961
 20
-31.35012
 30
0.0
 11
272.926489
 21
-32.651562
 31
0.0
  0
LINE
  5
14BC
100
AcDbEntity
  8
BORDER
100
AcDbLine
 10
274.205784
 20
-31.35012
 30
0.0
 11
275.308565
 21
-31.35012
 31
0.0
  0
LINE
  5
14BD
100
AcDbEntity
  8
BORDER
100
AcDbLine
 10
269.776861
 20
-25.499118
 30
0.0
 11
269.923108
 21
-25.499118
 31
0.0
  0
LINE
  5
14BE
100
AcDbEntity
  8
BORDER
100
AcDbLine
 10
269.776861
 20
-26.449119
 30
0.0
 11
270.069355
 21
-26.449119
 31
0.0
  0
LINE
  5
14BF
102
{ACAD_REACTORS
330
1479
102
}
100
AcDbEntity
  8
BORDER
100
AcDbLine
 10
269.481581
 20
-26.90082
 30
0.0
 11
269.481581
 21
-24.879381
 31
0.0
  0
ARC
  5
14C0
102
{ACAD_REACTORS
330
1479
102
}
100
AcDbEntity
  8
BORDER
100
AcDbCircle
 10
267.701171
 20
-26.902986
 30
0.0
 40
1.61183
100
AcDbArc
 50
0.076996
 51
90.0
  0
LINE
  5
14C1
102
{ACAD_REACTORS
330
1479
102
}
100
AcDbEntity
  8
BORDER
100
AcDbLine
 10
267.701171
 20
-25.291156
 30
0.0
 11
266.990342
 21
-25.291156
 31
0.0
  0
LINE
  5
14C2
102
{ACAD_REACTORS
330
1479
102
}
100
AcDbEntity
  8
BORDER
100
AcDbLine
 10
264.883779
 20
-25.291156
 30
0.0
 11
265.594608
 21
-25.291156
 31
0.0
  0
LINE
  5
14C3
102
{ACAD_REACTORS
330
1479
102
}
100
AcDbEntity
  8
BORDER
100
AcDbLine
 10
269.481581
 20
-26.90082
 30
0.0
 11
269.313001
 21
-26.90082
 31
0.0
  0
ARC
  5
14C4
100
AcDbEntity
  8
BORDER
100
AcDbCircle
 10
272.742701
 20
-26.130043
 30
0.0
 40
0.319076
100
AcDbArc
 50
180.0
 51
0.0
  0
LINE
  5
14C5
100
AcDbEntity
  8
BORDER
100
AcDbLine
 10
272.423625
 20
-26.130043
 30
0.0
 11
272.423625
 21
-25.499118
 31
0.0
  0
LINE
  5
14C6
100
AcDbEntity
  8
BORDER
100
AcDbLine
 10
271.00406
 20
-26.449119
 30
0.0
 11
270.352884
 21
-25.479256
 31
0.0
  0
LINE
  5
14C7
100
AcDbEntity
  8
BORDER
100
AcDbLine
 10
269.923108
 20
-25.499118
 30
0.0
 11
270.069355
 21
-25.499118
 31
0.0
  0
LINE
  5
14C8
100
AcDbEntity
  8
BORDER
100
AcDbLine
 10
269.923108
 20
-25.499118
 30
0.0
 11
269.923108
 21
-26.449119
 31
0.0
  0
LINE
  5
14C9
100
AcDbEntity
  8
BORDER
100
AcDbLine
 10
270.352884
 20
-25.479256
 30
0.0
 11
270.352884
 21
-26.449119
 31
0.0
  0
LINE
  5
14CA
100
AcDbEntity
  8
BORDER
100
AcDbLine
 10
271.610012
 20
-25.499118
 30
0.0
 11
271.40779
 21
-25.499118
 31
0.0
  0
LINE
  5
14CB
100
AcDbEntity
  8
BORDER
100
AcDbLine
 10
271.40779
 20
-26.449119
 30
0.0
 11
271.610012
 21
-26.449119
 31
0.0
  0
LINE
  5
14CC
100
AcDbEntity
  8
BORDER
100
AcDbLine
 10
271.00406
 20
-25.499118
 30
0.0
 11
271.00406
 21
-26.449119
 31
0.0
  0
LINE
  5
14CD
100
AcDbEntity
  8
BORDER
100
AcDbLine
 10
271.40779
 20
-25.499118
 30
0.0
 11
271.40779
 21
-26.449119
 31
0.0
  0
ARC
  5
14CE
100
AcDbEntity
  8
BORDER
100
AcDbCircle
 10
271.610012
 20
-25.974119
 30
0.0
 40
0.475001
100
AcDbArc
 50
270.0
 51
90.0
  0
LINE
  5
14CF
100
AcDbEntity
  8
BORDER
100
AcDbLine
 10
275.075742
 20
-25.499118
 30
0.0
 11
275.075742
 21
-26.449119
 31
0.0
  0
LINE
  5
14D0
100
AcDbEntity
  8
BORDER
100
AcDbLine
 10
274.483803
 20
-25.499118
 30
0.0
 11
274.483803
 21
-26.449119
 31
0.0
  0
ARC
  5
14D1
100
AcDbEntity
  8
BORDER
100
AcDbCircle
 10
277.80604
 20
-19.199809
 30
0.0
 40
7.941747
100
AcDbArc
 50
236.383068
 51
240.315223
  0
ARC
  5
14D2
100
AcDbEntity
  8
BORDER
100
AcDbCircle
 10
273.616027
 20
-25.792736
 30
0.0
 40
0.294672
100
AcDbArc
 50
25.379638
 51
143.047804
  0
ARC
  5
14D3
100
AcDbEntity
  8
BORDER
100
AcDbCircle
 10
273.65427
 20
-26.147863
 30
0.0
 40
0.300781
100
AcDbArc
 50
200.502447
 51
334.026213
  0
LINE
  5
14D4
100
AcDbEntity
  8
BORDER
100
AcDbLine
 10
273.061777
 20
-25.499118
 30
0.0
 11
273.061777
 21
-26.130043
 31
0.0
  0
ARC
  5
14D5
100
AcDbEntity
  8
BORDER
100
AcDbCircle
 10
273.483461
 20
-25.701643
 30
0.0
 40
0.134151
100
AcDbArc
 50
140.101426
 51
236.383068
  0
ARC
  5
14D6
100
AcDbEntity
  8
BORDER
100
AcDbCircle
 10
273.80663
 20
-26.215851
 30
0.0
 40
0.134151
100
AcDbArc
 50
331.630608
 51
60.315223
  0
LINE
  5
14D7
100
AcDbEntity
  8
BORDER
100
AcDbLine
 10
274.093513
 20
-25.499118
 30
0.0
 11
274.874093
 21
-25.499118
 31
0.0
  0
LINE
  5
14D8
100
AcDbEntity
  8
BORDER
100
AcDbLine
 10
285.216711
 20
-29.541379
 30
0.0
 11
285.216711
 21
-24.79436
 31
0.0
  0
HATCH
  5
14D9
100
AcDbEntity
  8
BORDER
100
AcDbHatch
 10
0.0
 20
0.0
 30
0.0
210
0.0
220
0.0
230
1.0
  2
ANSI37
 70
     0
 71
     1
 91
        2
 92
        7
 72
     1
 73
     1
 93
       16
 10
275.8673996848225
 20
-30.26382221313944
 42
-0.4142135623729193
 10
275.5340332449378
 20
-30.59718865302391
 42
0.0
 10
275.3797612620393
 20
-30.59718865302391
 42
0.0
 10
275.3797612620393
 20
-30.68505741968783
 42
0.0
 10
276.8266880354374
 20
-30.68505741968783
 42
0.0
 10
276.8266880354374
 20
-30.59718865302391
 42
0.0
 10
276.6724160525394
 20
-30.59718865302391
 42
-0.4142135623736537
 10
276.339049612654
 20
-30.26382221313923
 42
0.0
 10
276.339049612654
 20
-29.09543503790957
 42
0.0609117558028027
 10
276.9226168705031
 20
-29.16732730122852
 42
0.4291497434356087
 10
277.9538518474101
 20
-28.24071312715506
 42
0.3916311771494445
 10
276.9442856373363
 20
-27.29537740568423
 42
0.0
 10
275.3822678695422
 20
-27.29537740568423
 42
0.0
 10
275.3822678695422
 20
-27.38842165464888
 42
0.0
 10
275.5340332449379
 20
-27.38842165464888
 42
-0.4142135623730045
 10
275.8673996848225
 20
-27.72178809453356
 42
0.0
 97
       16
330
14DA
330
1503
330
14F9
330
14FA
330
14F8
330
14DD
330
14E9
330
14EB
330
14EA
330
14EE
330
14E7
330
14E8
330
14ED
330
14EC
330
14EF
330
14E6
 92
       22
 72
     1
 73
     1
 93
        3
 10
276.339049612654
 20
-27.54575275764885
 42
-0.5287425889424361
 10
277.3862725508553
 20
-28.28065338463928
 42
-0.5439228899268586
 10
276.339049612654
 20
-28.96762601375003
 42
0.0
 97
        3
330
14DB
330
14F0
330
14DC
 75
     0
 76
     1
 52
0.0
 41
0.024516
 77
     0
 78
     2
 53
45.0
 43
257.361529
 44
-119.219838
 45
-0.0021669276464936
 46
0.0021669276464936
 79
     0
 53
135.0
 43
257.361529
 44
-119.219838
 45
-0.0021669276464936
 46
-0.0021669276464936
 79
     0
 47
0.027301
 98
        2
 10
276.063911
 20
-28.440021
 10
276.063911
 20
-28.440021
  0
ARC
  5
14DA
102
{ACAD_REACTORS
330
14D9
102
}
100
AcDbEntity
  8
BORDER
100
AcDbCircle
 10
276.938164
 20
-28.313663
 30
0.0
 40
1.018304
100
AcDbArc
 50
4.10812
 51
90.34444
  0
ARC
  5
14DB
102
{ACAD_REACTORS
330
14D9
102
}
100
AcDbEntity
  8
BORDER
100
AcDbCircle
 10
276.612329
 20
-28.269923
 30
0.0
 40
0.774018
100
AcDbArc
 50
359.205673
 51
110.674935
  0
LINE
  5
14DC
102
{ACAD_REACTORS
330
14D9
102
}
100
AcDbEntity
  8
BORDER
100
AcDbLine
 10
276.33905
 20
-27.545753
 30
0.0
 11
276.33905
 21
-28.967626
 31
0.0
  0
LINE
  5
14DD
102
{ACAD_REACTORS
330
14D9
102
}
100
AcDbEntity
  8
BORDER
100
AcDbLine
 10
275.8674
 20
-30.263822
 30
0.0
 11
275.8674
 21
-27.721788
 31
0.0
  0
ARC
  5
14DE
100
AcDbEntity
  8
BORDER
100
AcDbCircle
 10
277.289779
 20
-32.000841
 30
0.0
 40
0.650721
100
AcDbArc
 50
270.0
 51
90.0
  0
LINE
  5
14DF
100
AcDbEntity
  8
BORDER
100
AcDbLine
 10
276.798595
 20
-31.35012
 30
0.0
 11
276.798595
 21
-32.651562
 31
0.0
  0
LINE
  5
14E0
100
AcDbEntity
  8
BORDER
100
AcDbLine
 10
275.596247
 20
-31.35012
 30
0.0
 11
276.435899
 21
-31.35012
 31
0.0
  0
LINE
  5
14E1
100
AcDbEntity
  8
BORDER
100
AcDbLine
 10
275.596247
 20
-32.000841
 30
0.0
 11
276.154625
 21
-32.000841
 31
0.0
  0
LINE
  5
14E2
100
AcDbEntity
  8
BORDER
100
AcDbLine
 10
276.435899
 20
-32.651562
 30
0.0
 11
275.596247
 21
-32.651562
 31
0.0
  0
LINE
  5
14E3
100
AcDbEntity
  8
BORDER
100
AcDbLine
 10
275.596247
 20
-32.651562
 30
0.0
 11
275.596247
 21
-31.35012
 31
0.0
  0
LINE
  5
14E4
100
AcDbEntity
  8
BORDER
100
AcDbLine
 10
277.289779
 20
-31.35012
 30
0.0
 11
276.798595
 21
-31.35012
 31
0.0
  0
LINE
  5
14E5
100
AcDbEntity
  8
BORDER
100
AcDbLine
 10
276.798595
 20
-32.651562
 30
0.0
 11
277.289779
 21
-32.651562
 31
0.0
  0
ARC
  5
14E6
102
{ACAD_REACTORS
330
14D9
102
}
100
AcDbEntity
  8
BORDER
100
AcDbCircle
 10
276.997852
 20
-28.213916
 30
0.0
 40
0.956375
100
AcDbArc
 50
265.488062
 51
358.394374
  0
LINE
  5
14E7
102
{ACAD_REACTORS
330
14D9
102
}
100
AcDbEntity
  8
BORDER
100
AcDbLine
 10
276.826688
 20
-30.597189
 30
0.0
 11
276.826688
 21
-30.685057
 31
0.0
  0
LINE
  5
14E8
102
{ACAD_REACTORS
330
14D9
102
}
100
AcDbEntity
  8
BORDER
100
AcDbLine
 10
276.672416
 20
-30.597189
 30
0.0
 11
276.826688
 21
-30.597189
 31
0.0
  0
ARC
  5
14E9
102
{ACAD_REACTORS
330
14D9
102
}
100
AcDbEntity
  8
BORDER
100
AcDbCircle
 10
275.534033
 20
-30.263822
 30
0.0
 40
0.333366
100
AcDbArc
 50
270.0
 51
360.0
  0
LINE
  5
14EA
102
{ACAD_REACTORS
330
14D9
102
}
100
AcDbEntity
  8
BORDER
100
AcDbLine
 10
275.379761
 20
-30.597189
 30
0.0
 11
275.379761
 21
-30.685057
 31
0.0
  0
LINE
  5
14EB
102
{ACAD_REACTORS
330
14D9
102
}
100
AcDbEntity
  8
BORDER
100
AcDbLine
 10
275.379761
 20
-30.597189
 30
0.0
 11
275.534033
 21
-30.597189
 31
0.0
  0
LINE
  5
14EC
102
{ACAD_REACTORS
330
14D9
102
}
100
AcDbEntity
  8
BORDER
100
AcDbLine
 10
276.33905
 20
-29.095435
 30
0.0
 11
276.33905
 21
-30.263822
 31
0.0
  0
ARC
  5
14ED
102
{ACAD_REACTORS
330
14D9
102
}
100
AcDbEntity
  8
BORDER
100
AcDbCircle
 10
276.672416
 20
-30.263822
 30
0.0
 40
0.333366
100
AcDbArc
 50
180.0
 51
270.0
  0
LINE
  5
14EE
102
{ACAD_REACTORS
330
14D9
102
}
100
AcDbEntity
  8
BORDER
100
AcDbLine
 10
275.379761
 20
-30.685057
 30
0.0
 11
276.826688
 21
-30.685057
 31
0.0
  0
ARC
  5
14EF
102
{ACAD_REACTORS
330
14D9
102
}
100
AcDbEntity
  8
BORDER
100
AcDbCircle
 10
276.924806
 20
-26.745134
 30
0.0
 40
2.422195
100
AcDbArc
 50
256.005504
 51
269.948223
  0
ARC
  5
14F0
102
{ACAD_REACTORS
330
14D9
102
}
100
AcDbEntity
  8
BORDER
100
AcDbCircle
 10
276.640327
 20
-28.285213
 30
0.0
 40
0.745959
100
AcDbArc
 50
246.179097
 51
0.350223
  0
ARC
  5
14F1
100
AcDbEntity
  8
BORDER
100
AcDbCircle
 10
278.887353
 20
-24.79436
 30
0.0
 40
1.582339
100
AcDbArc
 50
0.0
 51
90.0
  0
ARC
  5
14F2
100
AcDbEntity
  8
BORDER
100
AcDbCircle
 10
277.75828
 20
-26.215851
 30
0.0
 40
0.134151
100
AcDbArc
 50
331.630608
 51
60.315223
  0
ARC
  5
14F3
100
AcDbEntity
  8
BORDER
100
AcDbCircle
 10
277.435111
 20
-25.701643
 30
0.0
 40
0.134151
100
AcDbArc
 50
140.101426
 51
236.383068
  0
ARC
  5
14F4
100
AcDbEntity
  8
BORDER
100
AcDbCircle
 10
281.75769
 20
-19.199809
 30
0.0
 40
7.941747
100
AcDbArc
 50
236.383068
 51
240.315223
  0
ARC
  5
14F5
100
AcDbEntity
  8
BORDER
100
AcDbCircle
 10
277.567676
 20
-25.792736
 30
0.0
 40
0.294672
100
AcDbArc
 50
25.379638
 51
143.047804
  0
ARC
  5
14F6
100
AcDbEntity
  8
BORDER
100
AcDbCircle
 10
277.605919
 20
-26.147863
 30
0.0
 40
0.300781
100
AcDbArc
 50
200.502447
 51
334.026213
  0
LINE
  5
14F7
100
AcDbEntity
  8
BORDER
100
AcDbLine
 10
276.539752
 20
-26.449119
 30
0.0
 11
276.539752
 21
-25.499118
 31
0.0
  0
ARC
  5
14F8
102
{ACAD_REACTORS
330
14D9
102
}
100
AcDbEntity
  8
BORDER
100
AcDbCircle
 10
275.534033
 20
-27.721788
 30
0.0
 40
0.333366
100
AcDbArc
 50
0.0
 51
90.0
  0
LINE
  5
14F9
102
{ACAD_REACTORS
330
14D9
102
}
100
AcDbEntity
  8
BORDER
100
AcDbLine
 10
275.382268
 20
-27.295377
 30
0.0
 11
275.382268
 21
-27.388422
 31
0.0
  0
LINE
  5
14FA
102
{ACAD_REACTORS
330
14D9
102
}
100
AcDbEntity
  8
BORDER
100
AcDbLine
 10
275.382268
 20
-27.388422
 30
0.0
 11
275.534033
 21
-27.388422
 31
0.0
  0
ARC
  5
14FB
100
AcDbEntity
  8
BORDER
100
AcDbCircle
 10
275.421296
 20
-25.738907
 30
0.0
 40
0.239789
100
AcDbArc
 50
270.0
 51
90.0
  0
LINE
  5
14FC
100
AcDbEntity
  8
BORDER
100
AcDbLine
 10
275.953212
 20
-25.499118
 30
0.0
 11
276.245706
 21
-25.499118
 31
0.0
  0
LINE
  5
14FD
100
AcDbEntity
  8
BORDER
100
AcDbLine
 10
275.953212
 20
-26.449119
 30
0.0
 11
276.245706
 21
-26.449119
 31
0.0
  0
LINE
  5
14FE
100
AcDbEntity
  8
BORDER
100
AcDbLine
 10
276.099459
 20
-25.499118
 30
0.0
 11
276.099459
 21
-26.449119
 31
0.0
  0
LINE
  5
14FF
100
AcDbEntity
  8
BORDER
100
AcDbLine
 10
275.355056
 20
-25.978696
 30
0.0
 11
275.656354
 21
-26.449119
 31
0.0
  0
LINE
  5
1500
100
AcDbEntity
  8
BORDER
100
AcDbLine
 10
276.539752
 20
-25.499118
 30
0.0
 11
277.111598
 21
-25.499118
 31
0.0
  0
LINE
  5
1501
100
AcDbEntity
  8
BORDER
100
AcDbLine
 10
276.539752
 20
-25.974119
 30
0.0
 11
276.98691
 21
-25.974119
 31
0.0
  0
LINE
  5
1502
100
AcDbEntity
  8
BORDER
100
AcDbLine
 10
277.111598
 20
-26.449119
 30
0.0
 11
276.539752
 21
-26.449119
 31
0.0
  0
LINE
  5
1503
102
{ACAD_REACTORS
330
14D9
102
}
100
AcDbEntity
  8
BORDER
100
AcDbLine
 10
275.382268
 20
-27.295377
 30
0.0
 11
276.944286
 21
-27.295377
 31
0.0
  0
TEXT
  5
1504
100
AcDbEntity
  8
BORDER
 62
     6
100
AcDbText
 10
296.65675
 20
-28.423758
 30
0.0
 40
0.709958
  1
-
  7
ROMANC
100
AcDbText
  0
TEXT
  5
1505
100
AcDbEntity
  8
BORDER
 62
     6
100
AcDbText
 10
291.777606
 20
-32.811849
 30
0.0
 40
0.603464
  1
Rochester, IN  46975
  7
ROMANC
100
AcDbText
  0
TEXT
  5
1506
100
AcDbEntity
  8
BORDER
 62
     6
100
AcDbText
 10
289.178919
 20
-31.740152
 30
0.0
 40
0.603464
  1
Highway 25 North P.O. Box 420
  7
ROMANC
100
AcDbText
  0
TEXT
  5
1507
100
AcDbEntity
  8
BORDER
 62
     6
100
AcDbText
 10
288.821011
 20
-24.512461
 30
0.0
 40
0.816452
  1
12 GUAGE DUPLEX
  7
ROMANC
100
AcDbText
  0
TEXT
  5
1508
100
AcDbEntity
  8
BORDER
 62
     6
100
AcDbText
 10
288.821011
 20
-26.006843
 30
0.0
 40
0.816452
  1
STEEL COVER
  7
ROMANC
100
AcDbText
  0
ARC
  5
1509
100
AcDbEntity
  8
BORDER
100
AcDbCircle
 10
352.504226
 20
-24.79436
 30
0.0
 40
1.582339
100
AcDbArc
 50
90.0
 51
180.0
  0
LWPOLYLINE
  5
150A
100
AcDbEntity
  8
BORDER
 62
     5
100
AcDbPolyline
 90
        2
 70
     0
 43
0.79117
 10
352.504226
 20
-21.629682
 42
0.414214
 10
349.339547
 20
-24.79436
 42
-0.560527
  0
LINE
  5
150B
100
AcDbEntity
  8
BORDER
100
AcDbLine
 10
369.90996
 20
-34.288397
 30
0.0
 11
350.921887
 21
-34.288397
 31
0.0
  0
LWPOLYLINE
  5
150C
100
AcDbEntity
  8
BORDER
 62
     5
100
AcDbPolyline
 90
        2
 70
     0
 43
0.79117
 10
347.757208
 20
-34.288397
 10
347.757208
 20
-24.79436
  0
LWPOLYLINE
  5
150D
100
AcDbEntity
  8
BORDER
 62
     5
100
AcDbPolyline
 90
        2
 70
     0
 43
0.79117
 10
349.339547
 20
-34.288397
 10
349.339547
 20
-24.79436
  0
LINE
  5
150E
100
AcDbEntity
  8
BORDER
100
AcDbLine
 10
346.174868
 20
-30.678057
 30
0.0
 11
346.174868
 21
-34.288397
 31
0.0
  0
LINE
  5
150F
100
AcDbEntity
  8
BORDER
100
AcDbLine
 10
350.921887
 20
-34.288397
 30
0.0
 11
350.921887
 21
-24.79436
 31
0.0
  0
LINE
  5
1510
100
AcDbEntity
  8
BORDER
100
AcDbLine
 10
309.3354
 20
-34.288397
 30
0.0
 11
309.3354
 21
-30.678057
 31
0.0
  0
LINE
  5
1511
100
AcDbEntity
  8
BORDER
100
AcDbLine
 10
327.186795
 20
-30.678057
 30
0.0
 11
327.186795
 21
-34.288397
 31
0.0
  0
LINE
  5
1512
100
AcDbEntity
  8
BORDER
100
AcDbLine
 10
328.323473
 20
-30.678057
 30
0.0
 11
328.323473
 21
-34.288397
 31
0.0
  0
LINE
  5
1513
100
AcDbEntity
  8
BORDER
100
AcDbLine
 10
328.323473
 20
-34.288397
 30
0.0
 11
346.174868
 21
-34.288397
 31
0.0
  0
LINE
  5
1514
100
AcDbEntity
  8
BORDER
100
AcDbLine
 10
309.3354
 20
-34.288397
 30
0.0
 11
327.186795
 21
-34.288397
 31
0.0
  0
TEXT
  5
1515
100
AcDbEntity
  8
BORDER
 62
     6
100
AcDbText
 10
328.697109
 20
-32.984203
 30
0.0
 40
0.709958
  1
No:
  7
ROMANC
100
AcDbText
  0
TEXT
  5
1516
100
AcDbEntity
  8
BORDER
 62
     6
100
AcDbText
 10
328.697109
 20
-31.834747
 30
0.0
 40
0.709958
  1
Reference
  7
ROMANC
100
AcDbText
  0
LINE
  5
1517
100
AcDbEntity
  8
BORDER
100
AcDbLine
 10
309.3354
 20
-23.212021
 30
0.0
 11
344.592529
 21
-23.212021
 31
0.0
  0
TEXT
  5
1518
100
AcDbEntity
  8
BORDER
 62
     6
100
AcDbText
 10
321.276367
 20
-29.107304
 30
0.0
 40
0.593901
  1
in this print by any other source than TOPP INDUSTRIES, INC.
 41
0.839168
  7
ROMANS
 72
     5
 11
345.744576
 21
-29.107304
 31
0.0
100
AcDbText
  0
TEXT
  5
1519
100
AcDbEntity
  8
BORDER
 62
     6
100
AcDbText
 10
321.276367
 20
-28.14575
 30
0.0
 40
0.593901
  1
and will not be used to manufacture or procure the manufacture of the items shown
 41
0.600404
  7
ROMANS
 72
     5
 11
345.744576
 21
-28.14575
 31
0.0
100
AcDbText
  0
TEXT
  5
151A
100
AcDbEntity
  8
BORDER
 62
     6
100
AcDbText
 10
321.276367
 20
-27.184196
 30
0.0
 40
0.593901
  1
be used as a record or to identify or inspect parts or for other information purposes
 41
0.596266
  7
ROMANS
 72
     5
 11
345.744576
 21
-27.184196
 31
0.0
100
AcDbText
  0
TEXT
  5
151B
100
AcDbEntity
  8
BORDER
 62
     6
100
AcDbText
 10
321.276367
 20
-26.222642
 30
0.0
 40
0.593901
  1
restriction includes, but is not limited to the condition that this print will not only
 41
0.626489
  7
ROMANS
 72
     5
 11
345.744576
 21
-26.222642
 31
0.0
100
AcDbText
  0
TEXT
  5
151C
100
AcDbEntity
  8
BORDER
 62
     6
100
AcDbText
 10
321.276367
 20
-25.261088
 30
0.0
 40
0.593901
  1
by TOPP INDUSTRIES, INC. It is furnished on a strictly confidential basis.  This
 41
0.659437
  7
ROMANS
 72
     5
 11
345.744576
 21
-25.261088
 31
0.0
100
AcDbText
  0
TEXT
  5
151D
100
AcDbEntity
  8
BORDER
 62
     6
100
AcDbText
 10
321.276367
 20
-24.299534
 30
0.0
 40
0.593901
  1
This print is and contains confidential proprietary information owned exclusively
 41
0.656934
  7
ROMANS
 72
     5
 11
345.744576
 21
-24.299534
 31
0.0
100
AcDbText
  0
LINE
  5
151E
100
AcDbEntity
  8
BORDER
100
AcDbLine
 10
309.3354
 20
-29.541379
 30
0.0
 11
346.174868
 21
-29.541379
 31
0.0
  0
LINE
  5
151F
100
AcDbEntity
  8
BORDER
100
AcDbLine
 10
328.323473
 20
-30.678057
 30
0.0
 11
346.174868
 21
-30.678057
 31
0.0
  0
TEXT
  5
1520
100
AcDbEntity
  8
BORDER
 62
     6
100
AcDbText
 10
309.659721
 20
-29.334179
 30
0.0
 40
0.709958
  1
Date: 07/08/03
  7
ROMANC
100
AcDbText
  0
TEXT
  5
1521
100
AcDbEntity
  8
BORDER
 62
     6
100
AcDbText
 10
317.335331
 20
-33.652652
 30
0.0
 40
0.909845
  1
07/08/03
  7
ROMAND
100
AcDbText
  0
LINE
  5
1522
100
AcDbEntity
  8
BORDER
100
AcDbLine
 10
309.3354
 20
-30.678057
 30
0.0
 11
327.186795
 21
-30.678057
 31
0.0
  0
TEXT
  5
1523
100
AcDbEntity
  8
BORDER
 62
     6
100
AcDbText
 10
309.700192
 20
-31.91342
 30
0.0
 40
0.709958
  1
Supersedes Prints
  7
ROMANC
100
AcDbText
  0
LINE
  5
1524
100
AcDbEntity
  8
BORDER
100
AcDbLine
 10
309.3354
 20
-29.541379
 30
0.0
 11
309.3354
 21
-23.212021
 31
0.0
  0
TEXT
  5
1525
100
AcDbEntity
  8
BORDER
 62
     6
100
AcDbText
 10
309.700192
 20
-33.062875
 30
0.0
 40
0.709958
  1
Prior To:
  7
ROMANC
100
AcDbText
  0
TEXT
  5
1526
100
AcDbEntity
  8
BORDER
 62
     6
100
AcDbText
 10
309.659721
 20
-24.2594
 30
0.0
 40
0.709958
  1
Scale: None
  7
ROMANC
100
AcDbText
  0
TEXT
  5
1527
100
AcDbEntity
  8
BORDER
 62
     6
100
AcDbText
 10
309.659721
 20
-27.642586
 30
0.0
 40
0.709958
  1
Appv'd By: .
  7
ROMANC
100
AcDbText
  0
TEXT
  5
1528
100
AcDbEntity
  8
BORDER
 62
     6
100
AcDbText
 10
309.659721
 20
-25.950993
 30
0.0
 40
0.709958
  1
Drawn By:
  7
ROMANC
100
AcDbText
  0
TEXT
  5
1529
100
AcDbEntity
  8
BORDER
 62
     6
100
AcDbText
 10
316.175172
 20
-26.026603
 30
0.0
 40
0.968318
  1
RM
  7
COUNTRYBLUEPRINT
100
AcDbText
  0
LWPOLYLINE
  5
152A
100
AcDbEntity
  8
BORDER
 62
     5
100
AcDbPolyline
 90
        2
 70
     0
 43
0.79117
 10
344.592529
 20
-21.629682
 42
-0.414214
 10
347.757208
 20
-24.79436
 42
0.560527
  0
TEXT
  5
152B
100
AcDbEntity
  8
BORDER
 62
     6
100
AcDbText
 10
334.769441
 20
-33.481298
 30
0.0
 40
2.129874
  1
14800
  7
ROMANC
100
AcDbText
  0
LINE
  5
152C
100
AcDbEntity
  8
BORDER
100
AcDbLine
 10
346.174868
 20
-24.79436
 30
0.0
 11
346.174868
 21
-29.541379
 31
0.0
  0
ARC
  5
152D
100
AcDbEntity
  8
BORDER
100
AcDbCircle
 10
344.592529
 20
-24.79436
 30
0.0
 40
1.582339
100
AcDbArc
 50
0.0
 51
90.0
  0
LWPOLYLINE
  5
152E
100
AcDbEntity
  8
BORDER
 62
     5
100
AcDbPolyline
 90
        2
 70
     0
 43
0.79117
 10
369.90996
 20
-35.870737
 42
0.414214
 10
373.074639
 20
-32.706058
 42
-0.560527
  0
ARC
  5
152F
100
AcDbEntity
  8
BORDER
100
AcDbCircle
 10
369.90996
 20
-32.706058
 30
0.0
 40
1.582339
100
AcDbArc
 50
270.0
 51
0.0
  0
LWPOLYLINE
  5
1530
100
AcDbEntity
  8
BORDER
 62
     5
100
AcDbPolyline
 90
        2
 70
     0
 43
0.79117
 10
373.074639
 20
-24.79436
 10
373.074639
 20
-32.706058
  0
LWPOLYLINE
  5
1531
100
AcDbEntity
  8
BORDER
 62
     5
100
AcDbPolyline
 90
        2
 70
     0
 43
0.79117
 10
369.90996
 20
-21.629682
 42
-0.414214
 10
373.074639
 20
-24.79436
 42
0.560527
  0
TEXT
  5
1532
100
AcDbEntity
  8
BORDER
 62
     6
100
AcDbText
 10
356.986868
 20
-25.327219
 30
0.0
 40
1.064937
  1
Revisions
  7
ROMANC
100
AcDbText
  0
TEXT
  5
1533
100
AcDbEntity
  8
BORDER
 62
     6
100
AcDbText
 10
354.222535
 20
-27.221294
 30
0.0
 40
0.79117
  1
First Released 06/27/03
  7
ROMAND
100
AcDbText
  0
LINE
  5
1534
100
AcDbEntity
  8
BORDER
100
AcDbLine
 10
369.90996
 20
-32.365247
 30
0.0
 11
352.504226
 21
-32.365247
 31
0.0
  0
LINE
  5
1535
100
AcDbEntity
  8
BORDER
100
AcDbLine
 10
369.90996
 20
-30.782907
 30
0.0
 11
352.504226
 21
-30.782907
 31
0.0
  0
LINE
  5
1536
100
AcDbEntity
  8
BORDER
100
AcDbLine
 10
369.90996
 20
-29.200568
 30
0.0
 11
352.504226
 21
-29.200568
 31
0.0
  0
LINE
  5
1537
100
AcDbEntity
  8
BORDER
100
AcDbLine
 10
369.90996
 20
-27.618228
 30
0.0
 11
352.504226
 21
-27.618228
 31
0.0
  0
LINE
  5
1538
100
AcDbEntity
  8
BORDER
100
AcDbLine
 10
369.90996
 20
-26.035889
 30
0.0
 11
352.504226
 21
-26.035889
 31
0.0
  0
LINE
  5
1539
100
AcDbEntity
  8
BORDER
100
AcDbLine
 10
369.90996
 20
-23.212021
 30
0.0
 11
352.504226
 21
-23.212021
 31
0.0
  0
LINE
  5
153A
100
AcDbEntity
  8
BORDER
100
AcDbLine
 10
352.504226
 20
-26.035889
 30
0.0
 11
352.504226
 21
-32.365247
 31
0.0
  0
LINE
  5
153B
100
AcDbEntity
  8
BORDER
100
AcDbLine
 10
354.086566
 20
-26.035889
 30
0.0
 11
354.086566
 21
-32.365247
 31
0.0
  0
LWPOLYLINE
  5
153C
100
AcDbEntity
  8
BORDER
100
AcDbPolyline
 90
        6
 70
     1
 43
0.0
 10
353.632273
 20
-27.41379
 10
353.969391
 20
-26.829885
 10
353.632273
 20
-26.245979
 10
352.958037
 20
-26.245979
 10
352.620919
 20
-26.829885
 10
352.958037
 20
-27.41379
  0
TEXT
  5
153D
100
AcDbEntity
  8
BORDER
 62
     6
100
AcDbText
 10
352.91941
 20
-27.221294
 30
0.0
 40
0.79117
  1
1
  7
ROMAND
100
AcDbText
  0
LINE
  5
153E
100
AcDbEntity
  8
BORDER
100
AcDbLine
 10
369.90996
 20
-26.035889
 30
0.0
 11
369.90996
 21
-32.365247
 31
0.0
  0
LINE
  5
153F
100
AcDbEntity
  8
BORDER
100
AcDbLine
 10
371.4923
 20
-32.706058
 30
0.0
 11
371.4923
 21
-24.79436
 31
0.0
  0
ARC
  5
1540
100
AcDbEntity
  8
BORDER
100
AcDbCircle
 10
369.90996
 20
-24.79436
 30
0.0
 40
1.582339
100
AcDbArc
 50
0.0
 51
90.0
  0
LWPOLYLINE
  5
1541
100
AcDbEntity
  8
BORDER
 62
     5
100
AcDbPolyline
 90
        2
 70
     0
 43
0.79117
 10
369.90996
 20
-21.629682
 10
352.504226
 20
-21.629682
  0
LWPOLYLINE
  5
1542
100
AcDbEntity
  8
BORDER
 62
     5
100
AcDbPolyline
 90
        2
 70
     0
 43
0.316468
 10
371.808767
 20
113.495552
 10
259.582812
 20
113.495552
  0
LINE
  5
1543
100
AcDbEntity
  8
BORDER
 62
     5
100
AcDbLine
 10
371.808767
 20
113.495552
 30
0.0
 11
259.582812
 21
113.495552
 31
0.0
  0
LINE
  5
1544
100
AcDbEntity
  8
LIMITS
 62
     7
100
AcDbLine
 10
375.606382
 20
116.027295
 30
0.0
 11
255.785197
 21
116.027295
 31
0.0
  0
LINE
  5
2D36
100
AcDbEntity
  8
DIM
 62
     6
100
AcDbLine
 39
25.0
 10
314.603436
 20
57.937237
 30
0.0
 11
324.766517
 21
57.937237
 31
0.0
  0
LINE
  5
2D37
100
AcDbEntity
  8
DIM
 62
     6
100
AcDbLine
 39
20.0
 10
329.678809
 20
62.85591
 30
0.0
 11
327.073799
 21
62.85591
 31
0.0
  0
TEXT
  5
2D38
100
AcDbEntity
  8
DIM
 62
     6
100
AcDbText
 10
314.349077
 20
59.999709
 30
0.0
 40
1.5
  1
(OPTIONAL)
  7
ROMANS
100
AcDbText
  0
TEXT
  5
2D39
100
AcDbEntity
  8
DIM
 62
     6
100
AcDbText
 10
314.845961
 20
54.66513
 30
0.0
 40
0.9375
  1
3" OR 4"
  7
ROMAND
100
AcDbText
  0
TEXT
  5
2D3A
100
AcDbEntity
  8
DIM
 62
     6
100
AcDbText
 10
314.671701
 20
56.3123
 30
0.0
 40
0.9375
  1
1.25" 1.5" 2" 
  7
ROMAND
100
AcDbText
  0
TEXT
  5
2D3B
100
AcDbEntity
  8
DIM
 62
     6
100
AcDbText
 10
314.644089
 20
58.212882
 30
0.0
 40
0.9375
  1
SPECIFY SIZE:
  7
ROMAND
100
AcDbText
  0
TEXT
  5
2D3C
100
AcDbEntity
  8
DIM
 62
     6
100
AcDbText
 10
314.349077
 20
62.194931
 30
0.0
 40
1.5
  1
DISCHARGE
  7
ROMANS
100
AcDbText
  0
LINE
  5
2D3D
100
AcDbEntity
  8
DIM
 62
     6
100
AcDbLine
 10
361.061645
 20
53.672536
 30
0.0
 11
331.178809
 21
62.85591
 31
0.0
  0
LINE
  5
2D3E
100
AcDbEntity
  8
DIM
 62
     6
100
AcDbLine
 10
331.178809
 20
62.85591
 30
0.0
 11
329.678809
 21
62.85591
 31
0.0
  0
SOLID
  5
2D3F
100
AcDbEntity
  8
DIM
 62
     6
100
AcDbTrace
 10
360.189624
 20
54.202064
 30
0.0
 11
360.042747
 21
53.724124
 31
0.0
 12
361.550007
 22
53.522462
 32
0.0
 13
361.550007
 23
53.522462
 33
0.0
  0
LINE
  5
2D40
100
AcDbEntity
  8
DIM
 62
     6
100
AcDbLine
 10
347.783366
 20
65.411316
 30
0.0
 11
330.178809
 21
77.792367
 31
0.0
  0
SOLID
  5
2D41
100
AcDbEntity
  8
DIM
 62
     6
100
AcDbTrace
 10
347.589473
 20
65.849323
 30
0.0
 11
347.30184
 21
65.44034
 31
0.0
 12
348.672607
 22
64.781934
 32
0.0
 13
348.672607
 23
64.781934
 33
0.0
  0
LINE
  5
2D42
100
AcDbEntity
  8
DIM
 62
     6
100
AcDbLine
 39
20.0
 10
328.678809
 20
77.792367
 30
0.0
 11
319.476456
 21
77.792367
 31
0.0
  0
LINE
  5
2D43
100
AcDbEntity
  8
DIM
 62
     6
100
AcDbLine
 10
330.178809
 20
77.792367
 30
0.0
 11
328.678809
 21
77.792367
 31
0.0
  0
LINE
  5
2D44
100
AcDbEntity
  8
DIM
 62
     6
100
AcDbLine
 39
25.0
 10
313.915874
 20
72.937456
 30
0.0
 11
324.277362
 21
72.937456
 31
0.0
  0
TEXT
  5
2D45
100
AcDbEntity
  8
DIM
 62
     6
100
AcDbText
 10
314.025696
 20
73.195004
 30
0.0
 40
0.9375
  1
SPECIFY SIZE:
  7
ROMAND
100
AcDbText
  0
TEXT
  5
2D46
100
AcDbEntity
  8
DIM
 62
     6
100
AcDbText
 10
313.805245
 20
69.647252
 30
0.0
 40
0.9375
  1
3" OR 4"
  7
ROMAND
100
AcDbText
  0
TEXT
  5
2D47
100
AcDbEntity
  8
DIM
 62
     6
100
AcDbText
 10
313.743149
 20
71.294422
 30
0.0
 40
0.9375
  1
1.25" 1.5" 2" 
  7
ROMAND
100
AcDbText
  0
TEXT
  5
2D48
100
AcDbEntity
  8
DIM
 62
     6
100
AcDbText
 10
313.349077
 20
74.950112
 30
0.0
 40
1.5
  1
(OPTIONAL)
  7
ROMANS
100
AcDbText
  0
TEXT
  5
2D49
100
AcDbEntity
  8
DIM
 62
     6
100
AcDbText
 10
313.609031
 20
77.067489
 30
0.0
 40
1.5
  1
VENT
  7
ROMANS
100
AcDbText
  0
TEXT
  5
2D4D
100
AcDbEntity
  8
DIM
 62
     6
100
AcDbText
 10
314.723552
 20
40.965436
 30
0.0
 40
0.9375
  1
SPECIFY CORD GRIPS
  7
ROMAND
100
AcDbText
  0
TEXT
  5
2D4E
100
AcDbEntity
  8
DIM
 62
     6
100
AcDbText
 10
314.729621
 20
42.809296
 30
0.0
 40
0.9375
  1
3/8"  IF OVER 3/8" 
  7
ROMAND
100
AcDbText
  0
TEXT
  5
2D4F
100
AcDbEntity
  8
DIM
 62
     6
100
AcDbText
 10
314.534104
 20
44.55493
 30
0.0
 40
0.9375
  1
USE FOR CORDS UP TO
  7
ROMAND
100
AcDbText
  0
TEXT
  5
2D50
100
AcDbEntity
  8
DIM
 62
     6
100
AcDbText
 10
314.409999
 20
45.966367
 30
0.0
 40
1.5
  1
CORD SEAL
  7
ROMANS
100
AcDbText
  0
TEXT
  5
2D51
100
AcDbEntity
  8
DIM
 62
     6
100
AcDbText
 10
314.409999
 20
48.030653
 30
0.0
 40
1.5
  1
ELECTRIC
  7
ROMANS
100
AcDbText
  0
LINE
  5
2D52
100
AcDbEntity
  8
DIM
 62
     6
100
AcDbLine
 10
331.178809
 20
52.019669
 30
0.0
 11
329.678809
 21
52.019669
 31
0.0
  0
LEADER
  5
2D54
100
AcDbEntity
  8
DIM
 62
     6
100
AcDbLeader
  3
STANDARD
 76
     3
 10
346.237662
 20
51.406354
 30
0.0
 10
333.825374
 20
45.081389
 30
0.0
 10
332.228825
 20
45.081389
 30
0.0
 77
     6
1001
ACAD
1000
DSTYLE
1002
{
1070
   340
1005
34
1070
   174
1070
     1
1070
   147
1040
0.75
1070
   287
1070
     5
1070
    42
1040
0.75
1070
    44
1040
1.5
1070
   141
1040
-1.5
1070
    41
1040
1.5
1002
}
  0
ENDSEC
  0
SECTION
  2
OBJECTS
  0
DICTIONARY
  5
C
100
AcDbDictionary
  3
ACAD_GROUP
350
D
  3
ACAD_MLINESTYLE
350
1A
  3
ACDBVARIABLEDICTIONARY
350
45
  0
DICTIONARY
  5
D
102
{ACAD_REACTORS
330
C
102
}
100
AcDbDictionary
  0
DICTIONARY
  5
1A
102
{ACAD_REACTORS
330
C
102
}
100
AcDbDictionary
  3
STANDARD
350
1B
  0
DICTIONARY
  5
45
102
{ACAD_REACTORS
330
C
102
}
100
AcDbDictionary
  3
DIMADEC
350
46
  0
MLINESTYLE
  5
1B
102
{ACAD_REACTORS
330
1A
102
}
100
AcDbMlineStyle
  2
STANDARD
 70
     0
  3

 62
   256
 51
90.0
 52
90.0
 71
     2
 49
0.5
 62
   256
  6
BYLAYER
 49
-0.5
 62
   256
  6
BYLAYER
  0
DICTIONARYVAR
  5
46
102
{ACAD_REACTORS
330
45
102
}
100
DictionaryVariables
280
     0
  1
0
  0
ENDSEC
  0
EOF
