  0
SECTION
  2
HEADER
  9
$ACADVER
  1
AC1014
  9
$ACADMAINTVER
 70
     0
  9
$DWGCODEPAGE
  3
ANSI_1252
  9
$INSBASE
 10
0.0
 20
0.0
 30
0.0
  9
$EXTMIN
 10
120.365958
 20
-42.680488
 30
0.0
  9
$EXTMAX
 10
240.437168
 20
112.705783
 30
25.0
  9
$LIMMIN
 10
-19.647814
 20
-46.502337
  9
$LIMMAX
 10
92.852186
 20
103.497663
  9
$ORTHOMODE
 70
     1
  9
$REGENMODE
 70
     1
  9
$FILLMODE
 70
     1
  9
$QTEXTMODE
 70
     0
  9
$MIRRTEXT
 70
     1
  9
$DRAGMODE
 70
     2
  9
$LTSCALE
 40
4.0
  9
$OSMODE
 70
   675
  9
$ATTMODE
 70
     1
  9
$TEXTSIZE
 40
1.5
  9
$TRACEWID
 40
0.05
  9
$TEXTSTYLE
  7
ROMAND
  9
$CLAYER
  8
DIM
  9
$CELTYPE
  6
BYLAYER
  9
$CECOLOR
 62
     6
  9
$CELTSCALE
 40
1.0
  9
$DELOBJ
 70
     1
  9
$DISPSILH
 70
     0
  9
$DIMSCALE
 40
1.0
  9
$DIMASZ
 40
1.5
  9
$DIMEXO
 40
0.75
  9
$DIMDLI
 40
0.38
  9
$DIMRND
 40
0.0
  9
$DIMDLE
 40
0.0
  9
$DIMEXE
 40
1.5
  9
$DIMTP
 40
0.0
  9
$DIMTM
 40
0.0
  9
$DIMTXT
 40
0.18
  9
$DIMCEN
 40
-1.5
  9
$DIMTSZ
 40
0.0
  9
$DIMTOL
 70
     0
  9
$DIMLIM
 70
     0
  9
$DIMTIH
 70
     1
  9
$DIMTOH
 70
     1
  9
$DIMSE1
 70
     0
  9
$DIMSE2
 70
     0
  9
$DIMTAD
 70
     0
  9
$DIMZIN
 70
     0
  9
$DIMBLK
  1

  9
$DIMASO
 70
     1
  9
$DIMSHO
 70
     1
  9
$DIMPOST
  1

  9
$DIMAPOST
  1

  9
$DIMALT
 70
     0
  9
$DIMALTD
 70
     2
  9
$DIMALTF
 40
25.4
  9
$DIMLFAC
 40
1.0
  9
$DIMTOFL
 70
     0
  9
$DIMTVP
 40
0.0
  9
$DIMTIX
 70
     1
  9
$DIMSOXD
 70
     0
  9
$DIMSAH
 70
     0
  9
$DIMBLK1
  1

  9
$DIMBLK2
  1

  9
$DIMSTYLE
  2
STANDARD
  9
$DIMCLRD
 70
     0
  9
$DIMCLRE
 70
     0
  9
$DIMCLRT
 70
     0
  9
$DIMTFAC
 40
1.0
  9
$DIMGAP
 40
0.75
  9
$DIMJUST
 70
     0
  9
$DIMSD1
 70
     0
  9
$DIMSD2
 70
     0
  9
$DIMTOLJ
 70
     1
  9
$DIMTZIN
 70
     0
  9
$DIMALTZ
 70
     0
  9
$DIMALTTZ
 70
     0
  9
$DIMFIT
 70
     5
  9
$DIMUPT
 70
     0
  9
$DIMUNIT
 70
     2
  9
$DIMDEC
 70
     4
  9
$DIMTDEC
 70
     4
  9
$DIMALTU
 70
     2
  9
$DIMALTTD
 70
     2
  9
$DIMTXSTY
  7
ROMAND
  9
$DIMAUNIT
 70
     0
  9
$LUNITS
 70
     2
  9
$LUPREC
 70
     4
  9
$SKETCHINC
 40
0.1
  9
$FILLETRAD
 40
0.0
  9
$AUNITS
 70
     0
  9
$AUPREC
 70
     0
  9
$MENU
  1
acad
  9
$ELEVATION
 40
0.0
  9
$PELEVATION
 40
0.0
  9
$THICKNESS
 40
20.0
  9
$LIMCHECK
 70
     0
  9
$BLIPMODE
 70
     0
  9
$CHAMFERA
 40
0.025
  9
$CHAMFERB
 40
0.025
  9
$CHAMFERC
 40
0.0
  9
$CHAMFERD
 40
0.0
  9
$SKPOLY
 70
     0
  9
$TDCREATE
 40
2449609.390435069
  9
$TDUPDATE
 40
2453081.665942349
  9
$TDINDWG
 40
0.1679221296
  9
$TDUSRTIMER
 40
0.1679221296
  9
$USRTIMER
 70
     1
  9
$ANGBASE
 50
0.0
  9
$ANGDIR
 70
     0
  9
$PDMODE
 70
     0
  9
$PDSIZE
 40
0.0
  9
$PLINEWID
 40
0.25
  9
$COORDS
 70
     0
  9
$SPLFRAME
 70
     0
  9
$SPLINETYPE
 70
     6
  9
$SPLINESEGS
 70
     8
  9
$ATTDIA
 70
     0
  9
$ATTREQ
 70
     1
  9
$HANDLING
 70
     1
  9
$HANDSEED
  5
1540
  9
$SURFTAB1
 70
     6
  9
$SURFTAB2
 70
     6
  9
$SURFTYPE
 70
     6
  9
$SURFU
 70
     6
  9
$SURFV
 70
     6
  9
$UCSNAME
  2

  9
$UCSORG
 10
0.0
 20
0.0
 30
0.0
  9
$UCSXDIR
 10
1.0
 20
0.0
 30
0.0
  9
$UCSYDIR
 10
0.0
 20
1.0
 30
0.0
  9
$PUCSNAME
  2

  9
$PUCSORG
 10
0.0
 20
0.0
 30
0.0
  9
$PUCSXDIR
 10
1.0
 20
0.0
 30
0.0
  9
$PUCSYDIR
 10
0.0
 20
1.0
 30
0.0
  9
$USERI1
 70
     0
  9
$USERI2
 70
     0
  9
$USERI3
 70
     0
  9
$USERI4
 70
     0
  9
$USERI5
 70
     0
  9
$USERR1
 40
0.0
  9
$USERR2
 40
0.0
  9
$USERR3
 40
0.0
  9
$USERR4
 40
0.0
  9
$USERR5
 40
0.0
  9
$WORLDVIEW
 70
     1
  9
$SHADEDGE
 70
     3
  9
$SHADEDIF
 70
    70
  9
$TILEMODE
 70
     1
  9
$MAXACTVP
 70
    16
  9
$PINSBASE
 10
0.0
 20
0.0
 30
0.0
  9
$PLIMCHECK
 70
     0
  9
$PEXTMIN
 10
1.000000E+20
 20
1.000000E+20
 30
1.000000E+20
  9
$PEXTMAX
 10
-1.000000E+20
 20
-1.000000E+20
 30
-1.000000E+20
  9
$PLIMMIN
 10
0.0
 20
0.0
  9
$PLIMMAX
 10
12.0
 20
9.0
  9
$UNITMODE
 70
     0
  9
$VISRETAIN
 70
     0
  9
$PLINEGEN
 70
     0
  9
$PSLTSCALE
 70
     1
  9
$TREEDEPTH
 70
  3020
  9
$PICKSTYLE
 70
     1
  9
$CMLSTYLE
  2
STANDARD
  9
$CMLJUST
 70
     0
  9
$CMLSCALE
 40
1.0
  9
$PROXYGRAPHICS
 70
     1
  9
$MEASUREMENT
 70
     0
  0
ENDSEC
  0
SECTION
  2
CLASSES
  0
CLASS
  1
DICTIONARYVAR
  2
AcDbDictionaryVar
  3
"AutoCAD"
 90
        0
280
     0
281
     0
  0
CLASS
  1
LWPOLYLINE
  2
AcDbPolyline
  3
"AutoCAD"
 90
        0
280
     0
281
     1
  0
CLASS
  1
HATCH
  2
AcDbHatch
  3
"ACAD_SEDONA"
 90
        0
280
     0
281
     1
  0
ENDSEC
  0
SECTION
  2
TABLES
  0
TABLE
  2
VPORT
  5
8
100
AcDbSymbolTable
 70
     3
  0
VPORT
  5
153F
100
AcDbSymbolTableRecord
100
AcDbViewportTableRecord
  2
*ACTIVE
 70
     0
 10
0.0
 20
0.0
 11
1.0
 21
1.0
 12
180.401563
 22
35.012647
 13
0.0
 23
0.0
 14
2.0
 24
2.0
 15
20.0
 25
20.0
 16
0.0
 26
0.0
 36
1.0
 17
0.0
 27
0.0
 37
0.0
 40
157.078318
 41
1.750909
 42
50.0
 43
0.0
 44
0.0
 50
0.0
 51
0.0
 71
     0
 72
   100
 73
     1
 74
     0
 75
     0
 76
     0
 77
     0
 78
     1
  0
ENDTAB
  0
TABLE
  2
LTYPE
  5
5
100
AcDbSymbolTable
 70
     3
  0
LTYPE
  5
11
100
AcDbSymbolTableRecord
100
AcDbLinetypeTableRecord
  2
BYBLOCK
 70
     0
  3

 72
    65
 73
     0
 40
0.0
  0
LTYPE
  5
12
100
AcDbSymbolTableRecord
100
AcDbLinetypeTableRecord
  2
BYLAYER
 70
     0
  3

 72
    65
 73
     0
 40
0.0
  0
LTYPE
  5
13
100
AcDbSymbolTableRecord
100
AcDbLinetypeTableRecord
  2
CONTINUOUS
 70
     0
  3
Solid line
 72
    65
 73
     0
 40
0.0
  0
LTYPE
  5
2C
100
AcDbSymbolTableRecord
100
AcDbLinetypeTableRecord
  2
CENTER
 70
     0
  3
____ _ ____ _ ____ _ ____ _ ____ _ ____ _ ____ 
 72
    65
 73
     4
 40
2.0
 49
1.25
 74
     0
 49
-0.25
 74
     0
 49
0.25
 74
     0
 49
-0.25
 74
     0
  0
LTYPE
  5
2E
100
AcDbSymbolTableRecord
100
AcDbLinetypeTableRecord
  2
HIDDEN
 70
     0
  3
__ __ __ __ __ __ __ __ __ __ __ __ __ __ __ __
 72
    65
 73
     2
 40
0.375
 49
0.25
 74
     0
 49
-0.125
 74
     0
  0
ENDTAB
  0
TABLE
  2
LAYER
  5
2
100
AcDbSymbolTable
 70
     8
  0
LAYER
  5
E
100
AcDbSymbolTableRecord
100
AcDbLayerTableRecord
  2
0
 70
     0
 62
     7
  6
CONTINUOUS
  0
LAYER
  5
31
100
AcDbSymbolTableRecord
100
AcDbLayerTableRecord
  2
OBJECT
 70
     0
 62
     2
  6
CONTINUOUS
  0
LAYER
  5
32
100
AcDbSymbolTableRecord
100
AcDbLayerTableRecord
  2
DIM
 70
     0
 62
     6
  6
CONTINUOUS
  0
LAYER
  5
33
100
AcDbSymbolTableRecord
100
AcDbLayerTableRecord
  2
HIDDEN
 70
     0
 62
     1
  6
HIDDEN
  0
LAYER
  5
34
100
AcDbSymbolTableRecord
100
AcDbLayerTableRecord
  2
CENTER
 70
     0
 62
     3
  6
CENTER
  0
LAYER
  5
36
100
AcDbSymbolTableRecord
100
AcDbLayerTableRecord
  2
DEFPOINTS
 70
     0
 62
     7
  6
CONTINUOUS
  0
LAYER
  5
37
100
AcDbSymbolTableRecord
100
AcDbLayerTableRecord
  2
BORDER
 70
     0
 62
     5
  6
CONTINUOUS
  0
LAYER
  5
114D
100
AcDbSymbolTableRecord
100
AcDbLayerTableRecord
  2
LIMITS
 70
     0
 62
     7
  6
CONTINUOUS
  0
ENDTAB
  0
TABLE
  2
STYLE
  5
3
100
AcDbSymbolTable
 70
     5
  0
STYLE
  5
F
100
AcDbSymbolTableRecord
100
AcDbTextStyleTableRecord
  2
STANDARD
 70
     0
 40
0.0
 41
1.0
 50
0.0
 71
     0
 42
0.2
  3
txt
  4

  0
STYLE
  5
27
100
AcDbSymbolTableRecord
100
AcDbTextStyleTableRecord
  2
ROMANS
 70
     0
 40
1.5
 41
1.0
 50
0.0
 71
     0
 42
1.5
  3
ROMANS.SHX
  4

  0
STYLE
  5
29
100
AcDbSymbolTableRecord
100
AcDbTextStyleTableRecord
  2
ROMAND
 70
     0
 40
1.5
 41
1.0
 50
0.0
 71
     0
 42
1.5
  3
ROMAND.SHX
  4

  0
STYLE
  5
2A
100
AcDbSymbolTableRecord
100
AcDbTextStyleTableRecord
  2
ROMANC
 70
     0
 40
0.0531
 41
1.0
 50
0.0
 71
     0
 42
0.0531
  3
romanc
  4

  0
STYLE
  5
114E
100
AcDbSymbolTableRecord
100
AcDbTextStyleTableRecord
  2
COUNTRYBLUEPRINT
 70
     0
 40
0.061059
 41
1.0
 50
0.0
 71
     0
 42
0.061059
  3
cobt____.pfb
  4

  0
ENDTAB
  0
TABLE
  2
VIEW
  5
6
100
AcDbSymbolTable
 70
     0
  0
ENDTAB
  0
TABLE
  2
UCS
  5
7
100
AcDbSymbolTable
 70
     0
  0
ENDTAB
  0
TABLE
  2
APPID
  5
9
100
AcDbSymbolTable
 70
     2
  0
APPID
  5
10
100
AcDbSymbolTableRecord
100
AcDbRegAppTableRecord
  2
ACAD
 70
     0
  0
APPID
  5
107A
100
AcDbSymbolTableRecord
100
AcDbRegAppTableRecord
  2
DRAWINGVARIABLESXDATA
 70
     0
  0
ENDTAB
  0
TABLE
  2
DIMSTYLE
  5
A
100
AcDbSymbolTable
 70
     1
  0
DIMSTYLE
105
1074
102
{ACAD_REACTORS
330
113F
102
}
100
AcDbSymbolTableRecord
100
AcDbDimStyleTableRecord
  2
STANDARD
 70
     0
  3

  4

  5

  6

  7

 40
1.0
 41
0.18
 42
0.0625
 43
0.38
 44
0.18
 45
0.0
 46
0.0
 47
0.0
 48
0.0
140
0.18
141
0.09
142
0.0
143
25.4
144
1.0
145
0.0
146
1.0
147
0.09
 71
     0
 72
     0
 73
     1
 74
     1
 75
     0
 76
     0
 77
     0
 78
     0
170
     0
171
     2
172
     0
173
     0
174
     0
175
     0
176
     0
177
     0
178
     0
270
     2
271
     4
272
     4
273
     2
274
     2
340
F
275
     0
280
     0
281
     0
282
     0
283
     1
284
     0
285
     0
286
     0
287
     3
288
     0
  0
ENDTAB
  0
TABLE
  2
BLOCK_RECORD
  5
1
100
AcDbSymbolTable
 70
     6
  0
BLOCK_RECORD
  5
17
100
AcDbSymbolTableRecord
100
AcDbBlockTableRecord
  2
*MODEL_SPACE
  0
BLOCK_RECORD
  5
14
100
AcDbSymbolTableRecord
100
AcDbBlockTableRecord
  2
*PAPER_SPACE
  0
BLOCK_RECORD
  5
21
100
AcDbSymbolTableRecord
100
AcDbBlockTableRecord
  2
*D0
  0
BLOCK_RECORD
  5
22
100
AcDbSymbolTableRecord
100
AcDbBlockTableRecord
  2
*D1
  0
BLOCK_RECORD
  5
23
100
AcDbSymbolTableRecord
100
AcDbBlockTableRecord
  2
*D2
  0
BLOCK_RECORD
  5
24
100
AcDbSymbolTableRecord
100
AcDbBlockTableRecord
  2
*D3
  0
BLOCK_RECORD
  5
25
100
AcDbSymbolTableRecord
100
AcDbBlockTableRecord
  2
*D4
  0
BLOCK_RECORD
  5
1132
100
AcDbSymbolTableRecord
100
AcDbBlockTableRecord
  2
*D5
  0
ENDTAB
  0
ENDSEC
  0
SECTION
  2
BLOCKS
  0
BLOCK
  5
3C
100
AcDbEntity
  8
0
 62
     6
100
AcDbBlockBegin
  2
*MODEL_SPACE
 70
     0
 10
0.0
 20
0.0
 30
0.0
  3
*MODEL_SPACE
  1

  0
ENDBLK
  5
3D
100
AcDbEntity
  8
0
 62
     6
100
AcDbBlockEnd
  0
BLOCK
  5
3A
100
AcDbEntity
 67
     1
  8
0
 62
     6
100
AcDbBlockBegin
  2
*PAPER_SPACE
 70
     0
 10
0.0
 20
0.0
 30
0.0
  3
*PAPER_SPACE
  1

  0
ENDBLK
  5
3B
100
AcDbEntity
 67
     1
  8
0
 62
     6
100
AcDbBlockEnd
  0
BLOCK
  5
8CC
100
AcDbEntity
  8
0
100
AcDbBlockBegin
  2
*D0
 70
     1
 10
0.0
 20
0.0
 30
0.0
  3
*D0
  1

  0
LINE
  5
8CD
100
AcDbEntity
  8
0
  6
BYBLOCK
 62
     0
100
AcDbLine
 10
5.397553
 20
64.605715
 30
0.0
 11
27.896176
 21
64.605715
 31
0.0
  0
LINE
  5
8CE
100
AcDbEntity
  8
0
  6
BYBLOCK
 62
     0
100
AcDbLine
 10
20.585053
 20
53.605715
 30
0.0
 11
27.896176
 21
53.605715
 31
0.0
  0
LINE
  5
8CF
100
AcDbEntity
  8
0
  6
BYBLOCK
 62
     0
100
AcDbLine
 10
26.396176
 20
63.105715
 30
0.0
 11
26.396176
 21
60.695715
 31
0.0
  0
LINE
  5
8D0
100
AcDbEntity
  8
0
  6
BYBLOCK
 62
     0
100
AcDbLine
 10
26.396176
 20
55.105715
 30
0.0
 11
26.396176
 21
57.515715
 31
0.0
  0
SOLID
  5
8D1
100
AcDbEntity
  8
0
  6
BYBLOCK
 62
     0
100
AcDbTrace
 10
26.146176
 20
63.105715
 30
0.0
 11
26.646176
 21
63.105715
 31
0.0
 12
26.396176
 22
64.605715
 32
0.0
 13
26.396176
 23
64.605715
 33
0.0
  0
SOLID
  5
8D2
100
AcDbEntity
  8
0
  6
BYBLOCK
 62
     0
100
AcDbTrace
 10
26.146176
 20
55.105715
 30
0.0
 11
26.646176
 21
55.105715
 31
0.0
 12
26.396176
 22
53.605715
 32
0.0
 13
26.396176
 23
53.605715
 33
0.0
  0
TEXT
  5
8D3
100
AcDbEntity
  8
0
  6
BYBLOCK
 62
     0
100
AcDbText
 10
26.074747
 20
58.355715
 30
0.0
 40
1.5
  1
I
  7
ROMAND
 72
     1
 11
26.396176
 21
59.105715
 31
0.0
100
AcDbText
 73
     2
  0
POINT
  5
8D5
100
AcDbEntity
  8
DEFPOINTS
  6
BYBLOCK
 62
     0
100
AcDbPoint
 10
4.647553
 20
64.605715
 30
0.0
  0
POINT
  5
8D6
100
AcDbEntity
  8
DEFPOINTS
  6
BYBLOCK
 62
     0
100
AcDbPoint
 10
19.835053
 20
53.605715
 30
0.0
  0
POINT
  5
8D7
100
AcDbEntity
  8
DEFPOINTS
  6
BYBLOCK
 62
     0
100
AcDbPoint
 10
26.396176
 20
53.605715
 30
0.0
  0
ENDBLK
  5
8D8
100
AcDbEntity
  8
0
100
AcDbBlockEnd
  0
BLOCK
  5
8D9
100
AcDbEntity
  8
0
100
AcDbBlockBegin
  2
*D1
 70
     1
 10
0.0
 20
0.0
 30
0.0
  3
*D1
  1

  0
LINE
  5
8DA
100
AcDbEntity
  8
0
  6
BYBLOCK
 62
     0
100
AcDbLine
 10
3.335053
 20
51.355715
 30
0.0
 11
3.335053
 21
30.536643
 31
0.0
  0
LINE
  5
8DB
100
AcDbEntity
  8
0
  6
BYBLOCK
 62
     0
100
AcDbLine
 10
8.335053
 20
43.355715
 30
0.0
 11
8.335053
 21
30.536643
 31
0.0
  0
LINE
  5
8DC
100
AcDbEntity
  8
0
  6
BYBLOCK
 62
     0
100
AcDbLine
 10
4.835053
 20
32.036643
 30
0.0
 11
6.835053
 21
32.036643
 31
0.0
  0
SOLID
  5
8DD
100
AcDbEntity
  8
0
  6
BYBLOCK
 62
     0
100
AcDbTrace
 10
4.835053
 20
32.286643
 30
0.0
 11
4.835053
 21
31.786643
 31
0.0
 12
3.335053
 22
32.036643
 32
0.0
 13
3.335053
 23
32.036643
 33
0.0
  0
SOLID
  5
8DE
100
AcDbEntity
  8
0
  6
BYBLOCK
 62
     0
100
AcDbTrace
 10
6.835053
 20
32.286643
 30
0.0
 11
6.835053
 21
31.786643
 31
0.0
 12
8.335053
 22
32.036643
 32
0.0
 13
8.335053
 23
32.036643
 33
0.0
  0
TEXT
  5
8DF
100
AcDbEntity
  8
0
  6
BYBLOCK
 62
     0
100
AcDbText
 10
5.082363
 20
33.011928
 30
0.0
 40
1.5
  1
5"
  7
ROMAND
 72
     1
 11
6.403792
 21
33.761928
 31
0.0
100
AcDbText
 73
     2
  0
POINT
  5
8E0
100
AcDbEntity
  8
DEFPOINTS
  6
BYBLOCK
 62
     0
100
AcDbPoint
 10
3.335053
 20
52.105715
 30
0.0
  0
POINT
  5
8E1
100
AcDbEntity
  8
DEFPOINTS
  6
BYBLOCK
 62
     0
100
AcDbPoint
 10
8.335053
 20
44.105715
 30
0.0
  0
POINT
  5
8E2
100
AcDbEntity
  8
DEFPOINTS
  6
BYBLOCK
 62
     0
100
AcDbPoint
 10
8.335053
 20
32.036643
 30
0.0
  0
ENDBLK
  5
8E3
100
AcDbEntity
  8
0
100
AcDbBlockEnd
  0
BLOCK
  5
8E4
100
AcDbEntity
  8
0
100
AcDbBlockBegin
  2
*D2
 70
     1
 10
0.0
 20
0.0
 30
0.0
  3
*D2
  1

  0
LINE
  5
8E5
100
AcDbEntity
  8
0
  6
BYBLOCK
 62
     0
100
AcDbLine
 10
8.335053
 20
43.355715
 30
0.0
 11
8.335053
 21
30.558686
 31
0.0
  0
LINE
  5
8E6
100
AcDbEntity
  8
0
  6
BYBLOCK
 62
     0
100
AcDbLine
 10
13.335053
 20
51.355715
 30
0.0
 11
13.335053
 21
30.558686
 31
0.0
  0
LINE
  5
8E7
100
AcDbEntity
  8
0
  6
BYBLOCK
 62
     0
100
AcDbLine
 10
9.835053
 20
32.058686
 30
0.0
 11
11.835053
 21
32.058686
 31
0.0
  0
SOLID
  5
8E8
100
AcDbEntity
  8
0
  6
BYBLOCK
 62
     0
100
AcDbTrace
 10
9.835053
 20
32.308686
 30
0.0
 11
9.835053
 21
31.808686
 31
0.0
 12
8.335053
 22
32.058686
 32
0.0
 13
8.335053
 23
32.058686
 33
0.0
  0
SOLID
  5
8E9
100
AcDbEntity
  8
0
  6
BYBLOCK
 62
     0
100
AcDbTrace
 10
11.835053
 20
32.308686
 30
0.0
 11
11.835053
 21
31.808686
 31
0.0
 12
13.335053
 22
32.058686
 32
0.0
 13
13.335053
 23
32.058686
 33
0.0
  0
TEXT
  5
8EA
100
AcDbEntity
  8
0
  6
BYBLOCK
 62
     0
100
AcDbText
 10
10.061663
 20
33.011928
 30
0.0
 40
1.5
  1
5"
  7
ROMAND
 72
     1
 11
11.383091
 21
33.761928
 31
0.0
100
AcDbText
 73
     2
  0
POINT
  5
8EB
100
AcDbEntity
  8
DEFPOINTS
  6
BYBLOCK
 62
     0
100
AcDbPoint
 10
8.335053
 20
44.105715
 30
0.0
  0
POINT
  5
8EC
100
AcDbEntity
  8
DEFPOINTS
  6
BYBLOCK
 62
     0
100
AcDbPoint
 10
13.335053
 20
52.105715
 30
0.0
  0
POINT
  5
8ED
100
AcDbEntity
  8
DEFPOINTS
  6
BYBLOCK
 62
     0
100
AcDbPoint
 10
13.335053
 20
32.058686
 30
0.0
  0
ENDBLK
  5
8EE
100
AcDbEntity
  8
0
100
AcDbBlockEnd
  0
BLOCK
  5
8EF
100
AcDbEntity
  8
0
100
AcDbBlockBegin
  2
*D3
 70
     1
 10
0.0
 20
0.0
 30
0.0
  3
*D3
  1

  0
LINE
  5
8F0
100
AcDbEntity
  8
0
  6
BYBLOCK
 62
     0
100
AcDbLine
 10
1.335053
 20
72.855715
 30
0.0
 11
1.335053
 21
81.5
 31
0.0
  0
LINE
  5
8F1
100
AcDbEntity
  8
0
  6
BYBLOCK
 62
     0
100
AcDbLine
 10
8.335053
 20
63.855715
 30
0.0
 11
8.335053
 21
81.5
 31
0.0
  0
LINE
  5
8F2
100
AcDbEntity
  8
0
  6
BYBLOCK
 62
     0
100
AcDbLine
 10
2.835053
 20
80.0
 30
0.0
 11
3.585053
 21
80.0
 31
0.0
  0
LINE
  5
8F3
100
AcDbEntity
  8
0
  6
BYBLOCK
 62
     0
100
AcDbLine
 10
6.835053
 20
80.0
 30
0.0
 11
6.085053
 21
80.0
 31
0.0
  0
SOLID
  5
8F4
100
AcDbEntity
  8
0
  6
BYBLOCK
 62
     0
100
AcDbTrace
 10
2.835053
 20
80.25
 30
0.0
 11
2.835053
 21
79.75
 31
0.0
 12
1.335053
 22
80.0
 32
0.0
 13
1.335053
 23
80.0
 33
0.0
  0
SOLID
  5
8F5
100
AcDbEntity
  8
0
  6
BYBLOCK
 62
     0
100
AcDbTrace
 10
6.835053
 20
80.25
 30
0.0
 11
6.835053
 21
79.75
 31
0.0
 12
8.335053
 22
80.0
 32
0.0
 13
8.335053
 23
80.0
 33
0.0
  0
TEXT
  5
8F6
100
AcDbEntity
  8
0
  6
BYBLOCK
 62
     0
100
AcDbText
 10
4.049338
 20
79.25
 30
0.0
 40
1.5
  1
K
  7
ROMAND
 72
     1
 11
4.835053
 21
80.0
 31
0.0
100
AcDbText
 73
     2
  0
POINT
  5
8F7
100
AcDbEntity
  8
DEFPOINTS
  6
BYBLOCK
 62
     0
100
AcDbPoint
 10
1.335053
 20
72.105715
 30
0.0
  0
POINT
  5
8F8
100
AcDbEntity
  8
DEFPOINTS
  6
BYBLOCK
 62
     0
100
AcDbPoint
 10
8.335053
 20
63.105715
 30
0.0
  0
POINT
  5
8F9
100
AcDbEntity
  8
DEFPOINTS
  6
BYBLOCK
 62
     0
100
AcDbPoint
 10
8.335053
 20
80.0
 30
0.0
  0
ENDBLK
  5
8FA
100
AcDbEntity
  8
0
100
AcDbBlockEnd
  0
BLOCK
  5
8FB
100
AcDbEntity
  8
0
100
AcDbBlockBegin
  2
*D4
 70
     1
 10
0.0
 20
0.0
 30
0.0
  3
*D4
  1

  0
LINE
  5
8FC
100
AcDbEntity
  8
0
  6
BYBLOCK
 62
     0
100
AcDbLine
 10
-8.164947
 20
60.855715
 30
0.0
 11
-8.164947
 21
81.5
 31
0.0
  0
LINE
  5
8FD
100
AcDbEntity
  8
0
  6
BYBLOCK
 62
     0
100
AcDbLine
 10
1.335053
 20
72.855715
 30
0.0
 11
1.335053
 21
81.5
 31
0.0
  0
LINE
  5
8FE
100
AcDbEntity
  8
0
  6
BYBLOCK
 62
     0
100
AcDbLine
 10
-6.664947
 20
80.0
 30
0.0
 11
-4.664947
 21
80.0
 31
0.0
  0
LINE
  5
8FF
100
AcDbEntity
  8
0
  6
BYBLOCK
 62
     0
100
AcDbLine
 10
-0.164947
 20
80.0
 30
0.0
 11
-2.164947
 21
80.0
 31
0.0
  0
SOLID
  5
900
100
AcDbEntity
  8
0
  6
BYBLOCK
 62
     0
100
AcDbTrace
 10
-6.664947
 20
80.25
 30
0.0
 11
-6.664947
 21
79.75
 31
0.0
 12
-8.164947
 22
80.0
 32
0.0
 13
-8.164947
 23
80.0
 33
0.0
  0
SOLID
  5
901
100
AcDbEntity
  8
0
  6
BYBLOCK
 62
     0
100
AcDbTrace
 10
-0.164947
 20
80.25
 30
0.0
 11
-0.164947
 21
79.75
 31
0.0
 12
1.335053
 22
80.0
 32
0.0
 13
1.335053
 23
80.0
 33
0.0
  0
TEXT
  5
902
100
AcDbEntity
  8
0
  6
BYBLOCK
 62
     0
100
AcDbText
 10
-4.200662
 20
79.25
 30
0.0
 40
1.5
  1
H
  7
ROMAND
 72
     1
 11
-3.414947
 21
80.0
 31
0.0
100
AcDbText
 73
     2
  0
POINT
  5
903
100
AcDbEntity
  8
DEFPOINTS
  6
BYBLOCK
 62
     0
100
AcDbPoint
 10
-8.164947
 20
60.105715
 30
0.0
  0
POINT
  5
904
100
AcDbEntity
  8
DEFPOINTS
  6
BYBLOCK
 62
     0
100
AcDbPoint
 10
1.335053
 20
72.105715
 30
0.0
  0
POINT
  5
905
100
AcDbEntity
  8
DEFPOINTS
  6
BYBLOCK
 62
     0
100
AcDbPoint
 10
1.335053
 20
80.0
 30
0.0
  0
ENDBLK
  5
906
100
AcDbEntity
  8
0
100
AcDbBlockEnd
  0
BLOCK
  5
1133
100
AcDbEntity
  8
0
100
AcDbBlockBegin
  2
*D5
 70
     1
 10
0.0
 20
0.0
 30
0.0
  3
*D5
  1

  0
LINE
  5
1134
100
AcDbEntity
  8
0
  6
BYBLOCK
 62
     0
100
AcDbLine
 10
57.16125
 20
43.470732
 30
0.0
 11
57.16125
 21
74.902086
 31
0.0
  0
LINE
  5
1135
100
AcDbEntity
  8
0
  6
BYBLOCK
 62
     0
100
AcDbLine
 10
23.16125
 20
43.470732
 30
0.0
 11
23.16125
 21
74.902086
 31
0.0
  0
LINE
  5
1136
100
AcDbEntity
  8
0
  6
BYBLOCK
 62
     0
100
AcDbLine
 10
55.66125
 20
73.402086
 30
0.0
 11
41.375536
 21
73.402086
 31
0.0
  0
LINE
  5
1137
100
AcDbEntity
  8
0
  6
BYBLOCK
 62
     0
100
AcDbLine
 10
24.66125
 20
73.402086
 30
0.0
 11
38.946964
 21
73.402086
 31
0.0
  0
SOLID
  5
1138
100
AcDbEntity
  8
0
  6
BYBLOCK
 62
     0
100
AcDbTrace
 10
55.66125
 20
73.652086
 30
0.0
 11
55.66125
 21
73.152086
 31
0.0
 12
57.16125
 22
73.402086
 32
0.0
 13
57.16125
 23
73.402086
 33
0.0
  0
SOLID
  5
1139
100
AcDbEntity
  8
0
  6
BYBLOCK
 62
     0
100
AcDbTrace
 10
24.66125
 20
73.652086
 30
0.0
 11
24.66125
 21
73.152086
 31
0.0
 12
23.16125
 22
73.402086
 32
0.0
 13
23.16125
 23
73.402086
 33
0.0
  0
MTEXT
  5
113A
100
AcDbEntity
  8
0
  6
BYBLOCK
 62
     0
100
AcDbMText
 10
40.16125
 20
73.402086
 30
0.0
 40
1.5
 41
0.0
 71
     5
 72
     1
  1
\A1;B
  7
ROMAND
  0
POINT
  5
113B
100
AcDbEntity
  8
DEFPOINTS
  6
BYBLOCK
 62
     0
100
AcDbPoint
 10
57.16125
 20
42.720732
 30
0.0
  0
POINT
  5
113C
100
AcDbEntity
  8
DEFPOINTS
  6
BYBLOCK
 62
     0
100
AcDbPoint
 10
23.16125
 20
42.720732
 30
0.0
  0
POINT
  5
113D
100
AcDbEntity
  8
DEFPOINTS
  6
BYBLOCK
 62
     0
100
AcDbPoint
 10
23.16125
 20
73.402086
 30
0.0
  0
ENDBLK
  5
113E
100
AcDbEntity
  8
0
100
AcDbBlockEnd
  0
ENDSEC
  0
SECTION
  2
ENTITIES
  0
TEXT
  5
913
100
AcDbEntity
  8
0
  6
BYBLOCK
 62
     0
100
AcDbText
 10
137.771014
 20
144.465313
 30
0.0
 40
1.5
  1
   
  7
ROMANS
 72
     1
 11
140.021014
 21
145.215313
 31
0.0
100
AcDbText
 73
     2
  0
TEXT
  5
915
100
AcDbEntity
  8
0
  6
BYBLOCK
 62
     0
100
AcDbText
 10
105.136326
 20
196.25
 30
0.0
 40
1.5
  1
  
  7
ROMANS
 72
     1
 11
106.636326
 21
197.0
 31
0.0
100
AcDbText
 73
     2
  0
TEXT
  5
916
100
AcDbEntity
  8
0
  6
BYBLOCK
 62
     0
100
AcDbText
 10
105.11769
 20
187.25
 30
0.0
 40
1.5
  1
  
  7
ROMANS
 72
     1
 11
106.61769
 21
188.0
 31
0.0
100
AcDbText
 73
     2
  0
TEXT
  5
917
100
AcDbEntity
  8
0
  6
BYBLOCK
 62
     0
100
AcDbText
 10
64.365403
 20
158.766292
 30
0.0
 40
1.5
  1
  
  7
ROMANS
 72
     1
 11
65.865403
 21
159.516292
 31
0.0
100
AcDbText
 73
     2
  0
TEXT
  5
918
100
AcDbEntity
  8
0
  6
BYBLOCK
 62
     0
100
AcDbText
 10
1645.803088
 20
1700.549558
 30
0.0
 40
18.0
  1
   
  7
ROMANS
 72
     1
 11
1672.803088
 21
1709.549558
 31
0.0
100
AcDbText
 73
     2
  0
TEXT
  5
919
100
AcDbEntity
  8
0
  6
BYBLOCK
 62
     0
100
AcDbText
 10
1254.186831
 20
2321.965808
 30
0.0
 40
18.0
  1
  
  7
ROMANS
 72
     1
 11
1272.186831
 21
2330.965808
 31
0.0
100
AcDbText
 73
     2
  0
TEXT
  5
91A
100
AcDbEntity
  8
0
  6
BYBLOCK
 62
     0
100
AcDbText
 10
1253.963199
 20
2213.965808
 30
0.0
 40
18.0
  1
  
  7
ROMANS
 72
     1
 11
1271.963199
 21
2222.965808
 31
0.0
100
AcDbText
 73
     2
  0
TEXT
  5
91B
100
AcDbEntity
  8
0
  6
BYBLOCK
 62
     0
100
AcDbText
 10
764.935753
 20
1872.161312
 30
0.0
 40
18.0
  1
  
  7
ROMANS
 72
     1
 11
782.935753
 21
1881.161312
 31
0.0
100
AcDbText
 73
     2
  0
TEXT
  5
A52
100
AcDbEntity
  8
BORDER
 62
     7
100
AcDbText
 10
68.242206
 20
-45.529548
 30
0.0
 40
1.031594
  1

  7
ROMANC
100
AcDbText
  0
CIRCLE
  5
DF9
100
AcDbEntity
  8
DIM
 62
     6
100
AcDbCircle
 39
17.0
 10
182.415341
 20
8.878642
 30
0.0
 40
1.008846
  0
CIRCLE
  5
DFA
100
AcDbEntity
  8
DIM
 62
     6
100
AcDbCircle
 39
17.0
 10
172.072104
 20
8.889205
 30
0.0
 40
1.008846
  0
CIRCLE
  5
DFB
100
AcDbEntity
  8
DIM
 62
     6
100
AcDbCircle
 39
17.0
 10
162.431074
 20
8.883612
 30
0.0
 40
1.008846
  0
TEXT
  5
DFC
100
AcDbEntity
  8
DIM
 62
     6
100
AcDbText
 10
130.409967
 20
-16.260764
 30
0.0
 40
0.95625
  1
ALL DIMENSIONS IN INCHES
  7
ROMANS
100
AcDbText
  0
TEXT
  5
DFE
100
AcDbEntity
  8
DIM
 62
     6
100
AcDbText
 10
126.086724
 20
89.857004
 30
0.0
 40
3.0
  1
12 GAGE SIMPLEX STEEL COVER W/ACCESS
  7
ROMAND
 72
     1
 11
177.658153
 21
89.857004
 31
0.0
100
AcDbText
  0
CIRCLE
  5
DFF
100
AcDbEntity
  8
HIDDEN
 62
     1
100
AcDbCircle
 39
20.0
 10
181.860649
 20
43.009857
 30
0.0
 40
15.0
  0
CIRCLE
  5
E00
100
AcDbEntity
  8
OBJECT
 62
     2
100
AcDbCircle
 39
20.0
 10
181.860649
 20
43.009857
 30
0.0
 40
17.0
  0
CIRCLE
  5
E01
100
AcDbEntity
  8
CENTER
 62
     3
100
AcDbCircle
 39
20.0
 10
181.860649
 20
43.009857
 30
0.0
 40
16.0
  0
LINE
  5
E02
100
AcDbEntity
  8
CENTER
 62
     3
100
AcDbLine
 10
181.860649
 20
41.509857
 30
0.0
 11
181.860649
 21
44.509857
 31
0.0
  0
LINE
  5
E03
100
AcDbEntity
  8
CENTER
 62
     3
100
AcDbLine
 10
178.860649
 20
43.009857
 30
0.0
 11
163.360649
 21
43.009857
 31
0.0
  0
LWPOLYLINE
  5
E04
100
AcDbEntity
  8
OBJECT
 62
     2
100
AcDbPolyline
 90
        6
 70
     1
 43
0.0
 39
20.0
 10
181.752395
 20
27.197357
 10
181.644142
 20
27.009857
 10
181.752395
 20
26.822357
 10
181.968902
 20
26.822357
 10
182.077155
 20
27.009857
 10
181.968902
 20
27.197357
  0
LWPOLYLINE
  5
E0C
100
AcDbEntity
  8
OBJECT
 62
     2
100
AcDbPolyline
 90
        6
 70
     1
 43
0.0
 39
20.0
 10
195.500549
 20
35.009857
 10
195.608802
 20
34.822357
 10
195.825308
 20
34.822357
 10
195.933561
 20
35.009857
 10
195.825308
 20
35.197357
 10
195.608802
 20
35.197357
  0
LWPOLYLINE
  5
E14
100
AcDbEntity
  8
OBJECT
 62
     2
100
AcDbPolyline
 90
        6
 70
     1
 43
0.0
 39
20.0
 10
195.608802
 20
50.822357
 10
195.825308
 20
50.822357
 10
195.933561
 20
51.009857
 10
195.825308
 20
51.197357
 10
195.608802
 20
51.197357
 10
195.500549
 20
51.009857
  0
LWPOLYLINE
  5
E1C
100
AcDbEntity
  8
OBJECT
 62
     2
100
AcDbPolyline
 90
        6
 70
     1
 43
0.0
 39
20.0
 10
181.968902
 20
58.822357
 10
182.077155
 20
59.009857
 10
181.968902
 20
59.197357
 10
181.752395
 20
59.197357
 10
181.644142
 20
59.009857
 10
181.752395
 20
58.822357
  0
LWPOLYLINE
  5
E24
100
AcDbEntity
  8
OBJECT
 62
     2
100
AcDbPolyline
 90
        6
 70
     1
 43
0.0
 39
20.0
 10
168.220748
 20
51.009857
 10
168.112495
 20
51.197357
 10
167.895989
 20
51.197357
 10
167.787736
 20
51.009857
 10
167.895989
 20
50.822357
 10
168.112495
 20
50.822357
  0
LWPOLYLINE
  5
E2C
100
AcDbEntity
  8
OBJECT
 62
     2
100
AcDbPolyline
 90
        6
 70
     1
 43
0.0
 39
20.0
 10
168.112495
 20
35.197357
 10
167.895989
 20
35.197357
 10
167.787736
 20
35.009857
 10
167.895989
 20
34.822357
 10
168.112495
 20
34.822357
 10
168.220748
 20
35.009857
  0
CIRCLE
  5
E34
100
AcDbEntity
  8
HIDDEN
 62
     1
100
AcDbCircle
 39
20.0
 10
188.860649
 20
43.009857
 30
0.0
 40
7.0
  0
CIRCLE
  5
E35
100
AcDbEntity
  8
OBJECT
 62
     2
100
AcDbCircle
 39
20.0
 10
188.860649
 20
43.009857
 30
0.0
 40
8.0
  0
CIRCLE
  5
E36
100
AcDbEntity
  8
OBJECT
 62
     2
100
AcDbCircle
 39
20.0
 10
183.860649
 20
43.009857
 30
0.0
 40
0.2188
  0
CIRCLE
  5
E37
100
AcDbEntity
  8
OBJECT
 62
     2
100
AcDbCircle
 39
20.0
 10
183.860649
 20
43.009857
 30
0.0
 40
1.375
  0
LWPOLYLINE
  5
E38
100
AcDbEntity
  8
OBJECT
 62
     2
100
AcDbPolyline
 90
        6
 70
     1
 43
0.0
 39
20.0
 10
193.947443
 20
48.313157
 10
194.055696
 20
48.125657
 10
194.272203
 20
48.125657
 10
194.380456
 20
48.313157
 10
194.272203
 20
48.500657
 10
194.055696
 20
48.500657
  0
LWPOLYLINE
  5
E40
100
AcDbEntity
  8
OBJECT
 62
     2
100
AcDbPolyline
 90
        6
 70
     1
 43
0.0
 39
20.0
 10
183.557348
 20
48.096651
 10
183.744848
 20
48.204904
 10
183.744848
 20
48.421411
 10
183.557348
 20
48.529664
 10
183.369848
 20
48.421411
 10
183.369848
 20
48.204904
  0
LWPOLYLINE
  5
E48
100
AcDbEntity
  8
OBJECT
 62
     2
100
AcDbPolyline
 90
        6
 70
     1
 43
0.0
 39
20.0
 10
183.773854
 20
37.706556
 10
183.665601
 20
37.894056
 10
183.449094
 20
37.894056
 10
183.340841
 20
37.706556
 10
183.449094
 20
37.519056
 10
183.665601
 20
37.519056
  0
LWPOLYLINE
  5
E50
100
AcDbEntity
  8
OBJECT
 62
     2
100
AcDbPolyline
 90
        6
 70
     1
 43
0.0
 39
20.0
 10
194.163949
 20
37.923062
 10
193.976449
 20
37.814809
 10
193.976449
 20
37.598303
 10
194.163949
 20
37.490049
 10
194.351449
 20
37.598303
 10
194.351449
 20
37.814809
  0
CIRCLE
  5
E58
100
AcDbEntity
  8
HIDDEN
 62
     1
100
AcDbCircle
 39
20.0
 10
172.360649
 20
43.009857
 30
0.0
 40
4.0
  0
CIRCLE
  5
E59
100
AcDbEntity
  8
OBJECT
 62
     2
100
AcDbCircle
 39
20.0
 10
172.360649
 20
43.009857
 30
0.0
 40
5.0
  0
LWPOLYLINE
  5
E5A
100
AcDbEntity
  8
OBJECT
 62
     2
100
AcDbPolyline
 90
        6
 70
     1
 43
0.0
 39
20.0
 10
175.759135
 20
46.191837
 10
175.650882
 20
46.379337
 10
175.434376
 20
46.379337
 10
175.326123
 20
46.191837
 10
175.434376
 20
46.004337
 10
175.650882
 20
46.004337
  0
LINE
  5
E62
100
AcDbEntity
  8
CENTER
 62
     3
100
AcDbLine
 10
178.548149
 20
54.009857
 30
0.0
 11
185.173149
 21
54.009857
 31
0.0
  0
CIRCLE
  5
E63
100
AcDbEntity
  8
OBJECT
 62
     2
100
AcDbCircle
 39
20.0
 10
181.860649
 20
54.009857
 30
0.0
 40
1.8125
  0
DIMENSION
  5
E64
100
AcDbEntity
  8
DIM
 62
     6
100
AcDbDimension
  2
*D0
 10
206.921772
 20
43.009857
 30
0.0
 11
206.921772
 21
48.509857
 31
0.0
 12
180.525596
 22
-10.595858
 32
0.0
  1
I
100
AcDbAlignedDimension
 13
185.173149
 23
54.009857
 33
0.0
 14
200.360649
 24
43.009857
 34
0.0
 50
90.0
100
AcDbRotatedDimension
  0
LINE
  5
E65
100
AcDbEntity
  8
CENTER
 62
     3
100
AcDbLine
 10
182.360649
 20
43.009857
 30
0.0
 11
185.360649
 21
43.009857
 31
0.0
  0
LINE
  5
E66
100
AcDbEntity
  8
CENTER
 62
     3
100
AcDbLine
 10
183.860649
 20
41.509857
 30
0.0
 11
183.860649
 21
44.509857
 31
0.0
  0
TEXT
  5
E67
100
AcDbEntity
  8
DIM
 62
     6
100
AcDbText
 10
204.002582
 20
55.998943
 30
0.0
 40
1.5
  1
C
  7
ROMAND
 11
204.002582
 21
56.748943
 31
0.0
100
AcDbText
 73
     2
  0
CIRCLE
  5
E68
100
AcDbEntity
  8
DIM
 62
     6
100
AcDbCircle
 39
20.0
 10
204.816853
 20
56.783977
 30
0.0
 40
1.186877
  0
TEXT
  5
E69
100
AcDbEntity
  8
DIM
 62
     6
100
AcDbText
 10
204.134117
 20
59.767746
 30
0.0
 40
1.5
  1
F
  7
ROMAND
 11
204.134117
 21
60.517746
 31
0.0
100
AcDbText
 73
     2
  0
TEXT
  5
E6A
100
AcDbEntity
  8
DIM
 62
     6
100
AcDbText
 10
204.06835
 20
64.025021
 30
0.0
 40
1.5
  1
E
  7
ROMAND
 11
204.06835
 21
64.775021
 31
0.0
100
AcDbText
 73
     2
  0
CIRCLE
  5
E6B
100
AcDbEntity
  8
DIM
 62
     6
100
AcDbCircle
 39
20.0
 10
204.816853
 20
68.383077
 30
0.0
 40
1.186877
  0
TEXT
  5
E6C
100
AcDbEntity
  8
DIM
 62
     6
100
AcDbText
 10
204.139354
 20
67.734655
 30
0.0
 40
1.5
  1
A
  7
ROMAND
 11
204.139354
 21
68.484655
 31
0.0
100
AcDbText
 73
     2
  0
CIRCLE
  5
E6D
100
AcDbEntity
  8
DIM
 62
     6
100
AcDbCircle
 39
20.0
 10
204.816853
 20
64.793777
 30
0.0
 40
1.186877
  0
CIRCLE
  5
E6E
100
AcDbEntity
  8
DIM
 62
     6
100
AcDbCircle
 39
20.0
 10
204.816853
 20
60.618469
 30
0.0
 40
1.186877
  0
LINE
  5
E6F
100
AcDbEntity
  8
DIM
 62
     6
100
AcDbLine
 10
201.005224
 20
56.770968
 30
0.0
 11
202.505224
 21
56.770968
 31
0.0
  0
LINE
  5
E70
100
AcDbEntity
  8
DIM
 62
     6
100
AcDbLine
 10
201.005224
 20
68.770968
 30
0.0
 11
202.505224
 21
68.770968
 31
0.0
  0
LINE
  5
E71
100
AcDbEntity
  8
DIM
 62
     6
100
AcDbLine
 10
201.005224
 20
64.770968
 30
0.0
 11
202.505224
 21
64.770968
 31
0.0
  0
LINE
  5
E72
100
AcDbEntity
  8
DIM
 62
     6
100
AcDbLine
 10
201.005224
 20
60.770968
 30
0.0
 11
202.505224
 21
60.770968
 31
0.0
  0
TEXT
  5
E73
100
AcDbEntity
  8
DIM
 62
     6
100
AcDbText
 10
204.064266
 20
28.412539
 30
0.0
 40
1.5
  1
B
  7
ROMAND
 11
204.064266
 21
29.162539
 31
0.0
100
AcDbText
 73
     2
  0
CIRCLE
  5
E74
100
AcDbEntity
  8
DIM
 62
     6
100
AcDbCircle
 39
20.0
 10
204.816853
 20
29.185962
 30
0.0
 40
1.186877
  0
LINE
  5
E75
100
AcDbEntity
  8
DIM
 62
     6
100
AcDbLine
 10
201.139354
 20
29.035269
 30
0.0
 11
202.639354
 21
29.035269
 31
0.0
  0
SOLID
  5
E76
100
AcDbEntity
  8
DIM
 62
     6
100
AcDbTrace
 10
197.076617
 20
52.037886
 30
0.0
 11
196.705179
 21
52.372601
 31
0.0
 12
195.886753
 22
51.09093
 32
0.0
 13
195.886753
 23
51.09093
 33
0.0
  0
LINE
  5
E77
100
AcDbEntity
  8
DIM
 62
     6
100
AcDbLine
 10
196.890898
 20
52.205244
 30
0.0
 11
201.005224
 21
56.770968
 31
0.0
  0
SOLID
  5
E78
100
AcDbEntity
  8
DIM
 62
     6
100
AcDbTrace
 10
193.586251
 20
50.056102
 30
0.0
 11
193.180709
 21
50.348565
 31
0.0
 12
192.506088
 22
48.985705
 32
0.0
 13
192.506088
 23
48.985705
 33
0.0
  0
LINE
  5
E79
100
AcDbEntity
  8
DIM
 62
     6
100
AcDbLine
 10
192.506088
 20
48.985705
 30
0.0
 11
201.005224
 21
60.770968
 31
0.0
  0
SOLID
  5
E7A
100
AcDbEntity
  8
DIM
 62
     6
100
AcDbTrace
 10
192.729272
 20
51.609012
 30
0.0
 11
192.310327
 21
51.881933
 31
0.0
 12
191.701039
 22
50.488639
 32
0.0
 13
191.701039
 23
50.488639
 33
0.0
  0
LINE
  5
E7B
100
AcDbEntity
  8
DIM
 62
     6
100
AcDbLine
 10
191.701039
 20
50.488639
 30
0.0
 11
201.005224
 21
64.770968
 31
0.0
  0
SOLID
  5
E7C
100
AcDbEntity
  8
DIM
 62
     6
100
AcDbTrace
 10
191.849935
 20
56.142163
 30
0.0
 11
191.449876
 21
56.442085
 31
0.0
 12
190.75014
 22
55.091948
 32
0.0
 13
190.75014
 23
55.091948
 33
0.0
  0
LINE
  5
E7D
100
AcDbEntity
  8
DIM
 62
     6
100
AcDbLine
 10
191.649905
 20
56.292124
 30
0.0
 11
201.005224
 21
68.770968
 31
0.0
  0
SOLID
  5
E7E
100
AcDbEntity
  8
DIM
 62
     6
100
AcDbTrace
 10
195.604519
 20
30.664437
 30
0.0
 11
195.766355
 21
31.137522
 31
0.0
 12
194.266182
 22
31.386487
 32
0.0
 13
194.266182
 23
31.386487
 33
0.0
  0
LINE
  5
E7F
100
AcDbEntity
  8
DIM
 62
     6
100
AcDbLine
 10
195.685437
 20
30.900979
 30
0.0
 11
201.139354
 21
29.035269
 31
0.0
  0
TEXT
  5
E83
100
AcDbEntity
  8
DIM
 62
     6
100
AcDbText
 10
189.830994
 20
33.959763
 30
0.0
 40
1.5
  1
~
 50
258.499384
  7
ROMAND
100
AcDbText
  0
CIRCLE
  5
E90
100
AcDbEntity
  8
DIM
 62
     6
100
AcDbCircle
 39
17.0
 10
191.296916
 20
8.883301
 30
0.0
 40
1.008846
  0
CIRCLE
  5
E9D
100
AcDbEntity
  8
DIM
 62
     6
100
AcDbCircle
 39
17.0
 10
199.174942
 20
8.899813
 30
0.0
 40
1.008846
  0
CIRCLE
  5
EAA
100
AcDbEntity
  8
DIM
 62
     6
100
AcDbCircle
 39
17.0
 10
207.285186
 20
8.911456
 30
0.0
 40
1.008846
  0
CIRCLE
  5
EB7
100
AcDbEntity
  8
DIM
 62
     6
100
AcDbCircle
 39
17.0
 10
215.111748
 20
8.890816
 30
0.0
 40
1.008846
  0
CIRCLE
  5
EC4
100
AcDbEntity
  8
DIM
 62
     6
100
AcDbCircle
 39
17.0
 10
221.804108
 20
8.87949
 30
0.0
 40
1.008846
  0
LWPOLYLINE
  5
EC5
100
AcDbEntity
  8
DIM
 62
     6
100
AcDbPolyline
 90
        2
 70
     0
 43
0.2125
 39
17.0
 10
126.288728
 20
1.13332
 10
231.853614
 20
1.13332
  0
LWPOLYLINE
  5
EE4
100
AcDbEntity
  8
DIM
 62
     6
100
AcDbPolyline
 90
        2
 70
     0
 43
0.2125
 39
17.0
 10
126.288728
 20
10.558887
 10
231.853614
 20
10.558887
  0
LINE
  5
EE8
100
AcDbEntity
  8
DIM
 62
     6
100
AcDbLine
 39
17.0
 10
140.148352
 20
10.558887
 30
0.0
 11
140.148352
 21
-9.672482
 31
0.0
  0
LINE
  5
EE9
100
AcDbEntity
  8
DIM
 62
     6
100
AcDbLine
 39
17.0
 10
150.470928
 20
10.558887
 30
0.0
 11
150.470928
 21
-9.672482
 31
0.0
  0
LINE
  5
EEA
100
AcDbEntity
  8
DIM
 62
     6
100
AcDbLine
 39
17.0
 10
158.462604
 20
10.558887
 30
0.0
 11
158.462604
 21
-9.672482
 31
0.0
  0
LINE
  5
EEB
100
AcDbEntity
  8
DIM
 62
     6
100
AcDbLine
 39
17.0
 10
177.609336
 20
10.558887
 30
0.0
 11
177.609336
 21
-9.672482
 31
0.0
  0
LINE
  5
EEC
100
AcDbEntity
  8
DIM
 62
     6
100
AcDbLine
 39
17.0
 10
166.45428
 20
10.558887
 30
0.0
 11
166.45428
 21
-9.672482
 31
0.0
  0
LINE
  5
EED
100
AcDbEntity
  8
DIM
 62
     6
100
AcDbLine
 39
17.0
 10
187.356373
 20
10.558887
 30
0.0
 11
187.356373
 21
-9.672482
 31
0.0
  0
LINE
  5
EEE
100
AcDbEntity
  8
DIM
 62
     6
100
AcDbLine
 39
17.0
 10
211.140987
 20
10.558887
 30
0.0
 11
211.140987
 21
-9.672482
 31
0.0
  0
LINE
  5
EEF
100
AcDbEntity
  8
DIM
 62
     6
100
AcDbLine
 39
17.0
 10
218.942249
 20
10.558887
 30
0.0
 11
218.942249
 21
-9.672482
 31
0.0
  0
LINE
  5
EF0
100
AcDbEntity
  8
DIM
 62
     6
100
AcDbLine
 39
17.0
 10
224.635062
 20
10.558887
 30
0.0
 11
224.635062
 21
-9.672482
 31
0.0
  0
TEXT
  5
EF1
100
AcDbEntity
  8
DIM
 62
     6
100
AcDbText
 10
131.208017
 20
4.100468
 30
0.0
 40
1.275
  1
PART
  7
ROMAND
 72
     1
 11
133.606231
 21
4.100468
 31
0.0
100
AcDbText
  0
TEXT
  5
EF2
100
AcDbEntity
  8
DIM
 62
     6
100
AcDbText
 10
131.936588
 20
2.036183
 30
0.0
 40
1.275
  1
NO.
  7
ROMAND
 72
     1
 11
133.606231
 21
2.036183
 31
0.0
100
AcDbText
  0
TEXT
  5
EF3
100
AcDbEntity
  8
DIM
 62
     6
100
AcDbText
 10
142.516783
 20
2.027669
 30
0.0
 40
1.275
  1
STYLE
  7
ROMAND
 72
     1
 11
145.30964
 21
2.027669
 31
0.0
100
AcDbText
  0
TEXT
  5
EF4
100
AcDbEntity
  8
DIM
 62
     6
100
AcDbText
 10
153.859623
 20
8.370816
 30
0.0
 40
1.275
  1
A
  7
ROMAND
 72
     1
 11
154.466766
 21
8.370816
 31
0.0
100
AcDbText
  0
TEXT
  5
EF5
100
AcDbEntity
  8
DIM
 62
     6
100
AcDbText
 10
151.704266
 20
6.175513
 30
0.0
 40
1.275
  1
BASIN
  7
ROMAND
 72
     1
 11
154.466766
 21
6.175513
 31
0.0
100
AcDbText
  0
TEXT
  5
EF6
100
AcDbEntity
  8
DIM
 62
     6
100
AcDbText
 10
151.400694
 20
4.111227
 30
0.0
 40
1.275
  1
INSIDE
  7
ROMAND
 72
     1
 11
154.466766
 21
4.111227
 31
0.0
100
AcDbText
  0
TEXT
  5
EF7
100
AcDbEntity
  8
DIM
 62
     6
100
AcDbText
 10
152.493551
 20
2.046942
 30
0.0
 40
1.275
  1
DIM.
  7
ROMAND
 72
     1
 11
154.466766
 21
2.046942
 31
0.0
100
AcDbText
  0
CIRCLE
  5
EF8
100
AcDbEntity
  8
DIM
 62
     6
100
AcDbCircle
 39
17.0
 10
154.470572
 20
8.883612
 30
0.0
 40
1.008846
  0
TEXT
  5
EF9
100
AcDbEntity
  8
DIM
 62
     6
100
AcDbText
 10
161.820942
 20
8.209876
 30
0.0
 40
1.275
  1
B
  7
ROMAND
 72
     1
 11
162.458442
 21
8.209876
 31
0.0
100
AcDbText
  0
TEXT
  5
EFA
100
AcDbEntity
  8
DIM
 62
     6
100
AcDbText
 10
158.512013
 20
4.07339
 30
0.0
 40
1.275
  1
OUTSIDE
  7
ROMAND
 72
     1
 11
162.458442
 21
4.07339
 31
0.0
100
AcDbText
  0
TEXT
  5
EFB
100
AcDbEntity
  8
DIM
 62
     6
100
AcDbText
 10
160.485228
 20
2.009104
 30
0.0
 40
1.275
  1
DIM.
  7
ROMAND
 72
     1
 11
162.458442
 21
2.009104
 31
0.0
100
AcDbText
  0
TEXT
  5
EFC
100
AcDbEntity
  8
DIM
 62
     6
100
AcDbText
 10
171.394308
 20
8.255705
 30
0.0
 40
1.275
  1
C
  7
ROMAND
 72
     1
 11
172.031808
 21
8.255705
 31
0.0
100
AcDbText
  0
TEXT
  5
EFD
100
AcDbEntity
  8
DIM
 62
     6
100
AcDbText
 10
169.663951
 20
4.100894
 30
0.0
 40
1.275
  1
BOLT
  7
ROMAND
 72
     1
 11
172.031808
 21
4.100894
 31
0.0
100
AcDbText
  0
TEXT
  5
EFE
100
AcDbEntity
  8
DIM
 62
     6
100
AcDbText
 10
168.783593
 20
2.036608
 30
0.0
 40
1.275
  1
CIRCLE
  7
ROMAND
 72
     1
 11
172.031808
 21
2.036608
 31
0.0
100
AcDbText
  0
TEXT
  5
EFF
100
AcDbEntity
  8
DIM
 62
     6
100
AcDbText
 10
181.814997
 20
8.245143
 30
0.0
 40
1.275
  1
D
  7
ROMAND
 72
     1
 11
182.482854
 21
8.245143
 31
0.0
100
AcDbText
  0
TEXT
  5
F00
100
AcDbEntity
  8
DIM
 62
     6
100
AcDbText
 10
179.357754
 20
2.033559
 30
0.0
 40
1.275
  1
THICKNESS
 41
0.612153
  7
ROMAND
 72
     5
 11
185.601712
 21
2.033559
 31
0.0
100
AcDbText
  0
TEXT
  5
F01
100
AcDbEntity
  8
DIM
 62
     6
100
AcDbText
 10
190.638244
 20
8.249802
 30
0.0
 40
1.275
  1
E
  7
ROMAND
 72
     1
 11
191.245386
 21
8.249802
 31
0.0
100
AcDbText
  0
TEXT
  5
F02
100
AcDbEntity
  8
DIM
 62
     6
100
AcDbText
 10
188.391815
 20
4.102614
 30
0.0
 40
1.275
  1
PLATE
  7
ROMAND
 72
     1
 11
191.245386
 21
4.102614
 31
0.0
100
AcDbText
  0
TEXT
  5
F03
100
AcDbEntity
  8
DIM
 62
     6
100
AcDbText
 10
189.272172
 20
1.980224
 30
0.0
 40
1.275
  1
DIM.
  7
ROMAND
 72
     1
 11
191.245386
 21
1.980224
 31
0.0
100
AcDbText
  0
TEXT
  5
F04
100
AcDbEntity
  8
DIM
 62
     6
100
AcDbText
 10
188.587438
 20
6.22765
 30
0.0
 40
1.275
  1
ACCESS
 41
0.742214
  7
ROMAND
 72
     5
 11
193.904874
 21
6.22765
 31
0.0
100
AcDbText
  0
TEXT
  5
F05
100
AcDbEntity
  8
DIM
 62
     6
100
AcDbText
 10
196.58738
 20
6.224419
 30
0.0
 40
1.275
  1
CLEAR
 41
0.924657
  7
ROMAND
 72
     5
 11
201.864531
 21
6.224419
 31
0.0
100
AcDbText
  0
TEXT
  5
F06
100
AcDbEntity
  8
DIM
 62
     6
100
AcDbText
 10
196.506813
 20
4.068837
 30
0.0
 40
1.275
  1
ACCESS
 41
0.742214
  7
ROMAND
 72
     5
 11
201.824249
 21
4.068837
 31
0.0
100
AcDbText
  0
TEXT
  5
F07
100
AcDbEntity
  8
DIM
 62
     6
100
AcDbText
 10
197.433248
 20
1.994988
 30
0.0
 40
1.275
  1
DIM.
  7
ROMAND
 72
     1
 11
199.406463
 21
1.994988
 31
0.0
100
AcDbText
  0
TEXT
  5
F08
100
AcDbEntity
  8
DIM
 62
     6
100
AcDbText
 10
198.610727
 20
8.306549
 30
0.0
 40
1.275
  1
F
  7
ROMAND
 72
     1
 11
199.21787
 21
8.306549
 31
0.0
100
AcDbText
  0
TEXT
  5
F09
100
AcDbEntity
  8
DIM
 62
     6
100
AcDbText
 10
206.602857
 20
8.277957
 30
0.0
 40
1.275
  1
G
  7
ROMAND
 72
     1
 11
207.240357
 21
8.277957
 31
0.0
100
AcDbText
  0
TEXT
  5
F0A
100
AcDbEntity
  8
DIM
 62
     6
100
AcDbText
 10
214.373761
 20
8.337786
 30
0.0
 40
1.275
  1
H
  7
ROMAND
 72
     1
 11
215.041618
 21
8.337786
 31
0.0
100
AcDbText
  0
TEXT
  5
F0B
100
AcDbEntity
  8
DIM
 62
     6
100
AcDbText
 10
219.185829
 20
1.973508
 30
0.0
 40
1.275
  1
DISTANCE
 41
0.581694
  7
ROMAND
 72
     5
 11
224.342129
 21
1.973508
 31
0.0
100
AcDbText
  0
TEXT
  5
F0C
100
AcDbEntity
  8
DIM
 62
     6
100
AcDbText
 10
221.515441
 20
8.224586
 30
0.0
 40
1.275
  1
I
  7
ROMAND
 72
     1
 11
221.788655
 21
8.224586
 31
0.0
100
AcDbText
  0
CIRCLE
  5
F4E
100
AcDbEntity
  8
DIM
 62
     6
100
AcDbCircle
 39
20.0
 10
204.816853
 20
23.185962
 30
0.0
 40
1.186877
  0
TEXT
  5
F4F
100
AcDbEntity
  8
DIM
 62
     6
100
AcDbText
 10
204.064266
 20
22.412539
 30
0.0
 40
1.5
  1
D
  7
ROMAND
 11
204.064266
 21
23.162539
 31
0.0
100
AcDbText
 73
     2
  0
LINE
  5
F50
100
AcDbEntity
  8
DIM
 62
     6
100
AcDbLine
 10
200.966396
 20
23.404142
 30
0.0
 11
202.466396
 21
23.404142
 31
0.0
  0
TEXT
  5
F53
100
AcDbEntity
  8
DIM
 62
     6
100
AcDbText
 10
162.404797
 20
42.714555
 30
0.0
 40
1.125
  1
C
  7
ROMANS
100
AcDbText
  0
TEXT
  5
F54
100
AcDbEntity
  8
DIM
 62
     6
100
AcDbText
 10
162.74773
 20
42.149024
 30
0.0
 40
1.125
  1
L
  7
ROMANS
100
AcDbText
  0
TEXT
  5
F55
100
AcDbEntity
  8
DIM
 62
     6
100
AcDbText
 10
181.211854
 20
23.430349
 30
0.0
 40
1.125
  1
C
  7
ROMANS
100
AcDbText
  0
TEXT
  5
F56
100
AcDbEntity
  8
DIM
 62
     6
100
AcDbText
 10
181.554787
 20
22.864818
 30
0.0
 40
1.125
  1
L
  7
ROMANS
100
AcDbText
  0
TEXT
  5
F5B
100
AcDbEntity
  8
DIM
 62
     6
100
AcDbText
 10
171.548149
 20
14.894
 30
0.0
 40
1.875
  1
ROUND COVER
  7
ROMAND
 72
     1
 11
181.860649
 21
14.894
 31
0.0
100
AcDbText
  0
LINE
  5
F5D
100
AcDbEntity
  8
DIM
 62
     6
100
AcDbLine
 39
25.0
 10
171.613138
 20
14.563755
 30
0.0
 11
192.371904
 21
14.563755
 31
0.0
  0
LWPOLYLINE
  5
F5F
100
AcDbEntity
  8
DIM
 62
     6
100
AcDbPolyline
 90
        2
 70
     0
 43
0.25
 39
20.0
 10
126.595892
 20
88.733174
 10
228.599153
 20
88.733151
  0
TEXT
  5
F63
100
AcDbEntity
  8
DIM
 62
     6
100
AcDbText
 10
155.623013
 20
86.401786
 30
0.0
 40
1.5
  1
STAINLESS STEEL HARDWARE STANDARD
  7
ROMANS
 72
     1
 11
178.301584
 21
86.401786
 31
0.0
100
AcDbText
  0
TEXT
  5
F64
100
AcDbEntity
  8
DIM
 62
     6
100
AcDbText
 10
164.658727
 20
84.331321
 30
0.0
 40
1.5
  1
GASKET TAPE PROVIDED
  7
ROMANS
 72
     1
 11
178.301584
 21
84.331321
 31
0.0
100
AcDbText
  0
LWPOLYLINE
  5
F65
100
AcDbEntity
  8
DIM
 62
     6
100
AcDbPolyline
 90
        2
 70
     0
 43
0.2125
 39
17.0
 10
126.288728
 20
10.558887
 10
126.288728
 20
-9.672482
  0
LWPOLYLINE
  5
F76
100
AcDbEntity
  8
DIM
 62
     6
100
AcDbPolyline
 90
        2
 70
     0
 43
0.2125
 39
17.0
 10
126.288728
 20
-2.468614
 10
231.853614
 20
-2.468614
  0
TEXT
  5
F7C
100
AcDbEntity
  8
DIM
 62
     6
100
AcDbText
 10
141.603889
 20
-1.433375
 30
0.0
 40
1.275
  1
ROUND
  7
ROMANS
100
AcDbText
  0
TEXT
  5
F7D
100
AcDbEntity
  8
DIM
 62
     6
100
AcDbText
 10
127.634714
 20
-1.433375
 30
0.0
 40
1.275
  1
C24-12SSA
  7
ROMANS
100
AcDbText
  0
TEXT
  5
F7E
100
AcDbEntity
  8
DIM
 62
     6
100
AcDbText
 10
159.743127
 20
-1.433375
 30
0.0
 40
1.275
  1
28
  7
ROMANS
100
AcDbText
  0
TEXT
  5
F80
100
AcDbEntity
  8
DIM
 62
     6
100
AcDbText
 10
151.672459
 20
-1.433375
 30
0.0
 40
1.275
  1
24
  7
ROMANS
100
AcDbText
  0
TEXT
  5
F82
100
AcDbEntity
  8
DIM
 62
     6
100
AcDbText
 10
212.236719
 20
-1.433375
 30
0.0
 40
1.275
  1
 7.75
  7
ROMANS
100
AcDbText
  0
TEXT
  5
F83
100
AcDbEntity
  8
DIM
 62
     6
100
AcDbText
 10
178.064349
 20
-1.433375
 30
0.0
 40
1.275
  1
12 GAGE
  7
ROMANS
100
AcDbText
  0
TEXT
  5
F85
100
AcDbEntity
  8
DIM
 62
     6
100
AcDbText
 10
167.314298
 20
-1.433375
 30
0.0
 40
1.275
  1
26.5
  7
ROMANS
100
AcDbText
  0
TEXT
  5
F88
100
AcDbEntity
  8
DIM
 62
     6
100
AcDbText
 10
196.282888
 20
-1.433375
 30
0.0
 40
1.275
  1
 14
  7
ROMANS
100
AcDbText
  0
TEXT
  5
F8A
100
AcDbEntity
  8
DIM
 62
     6
100
AcDbText
 10
188.21889
 20
-1.433375
 30
0.0
 40
1.275
  1
 16
  7
ROMANS
100
AcDbText
  0
TEXT
  5
F8C
100
AcDbEntity
  8
DIM
 62
     6
100
AcDbText
 10
220.540772
 20
-1.854553
 30
0.0
 40
1.275
  1
10
  7
ROMANS
100
AcDbText
  0
TEXT
  5
F8D
100
AcDbEntity
  8
DIM
 62
     6
100
AcDbText
 10
203.857926
 20
-1.433375
 30
0.0
 40
1.275
  1
 N/A
  7
ROMANS
100
AcDbText
  0
LINE
  5
F8F
100
AcDbEntity
  8
DIM
 62
     6
100
AcDbLine
 39
17.0
 10
195.34805
 20
10.558887
 30
0.0
 11
195.34805
 21
-9.672482
 31
0.0
  0
LINE
  5
F90
100
AcDbEntity
  8
DIM
 62
     6
100
AcDbLine
 39
17.0
 10
203.339726
 20
10.558887
 30
0.0
 11
203.339726
 21
-9.672482
 31
0.0
  0
LWPOLYLINE
  5
F91
100
AcDbEntity
  8
OBJECT
 62
     2
100
AcDbPolyline
 90
        6
 70
     1
 43
0.0
 39
20.0
 10
169.178668
 20
46.408343
 10
168.991168
 20
46.30009
 10
168.991168
 20
46.083584
 10
169.178668
 20
45.975331
 10
169.366168
 20
46.083584
 10
169.366168
 20
46.30009
  0
LWPOLYLINE
  5
F99
100
AcDbEntity
  8
OBJECT
 62
     2
100
AcDbPolyline
 90
        6
 70
     1
 43
0.0
 39
20.0
 10
168.962162
 20
39.827876
 10
169.070415
 20
39.640376
 10
169.286921
 20
39.640376
 10
169.395174
 20
39.827876
 10
169.286921
 20
40.015376
 10
169.070415
 20
40.015376
  0
LWPOLYLINE
  5
FA1
100
AcDbEntity
  8
OBJECT
 62
     2
100
AcDbPolyline
 90
        6
 70
     1
 43
0.0
 39
20.0
 10
175.542629
 20
39.61137
 10
175.730129
 20
39.719623
 10
175.730129
 20
39.936129
 10
175.542629
 20
40.044382
 10
175.355129
 20
39.936129
 10
175.355129
 20
39.719623
  0
LINE
  5
FA9
100
AcDbEntity
  8
CENTER
 62
     3
100
AcDbLine
 10
180.360649
 20
43.009857
 30
0.0
 11
183.360649
 21
43.009857
 31
0.0
  0
LINE
  5
FAA
100
AcDbEntity
  8
CENTER
 62
     3
100
AcDbLine
 10
181.860649
 20
41.509857
 30
0.0
 11
181.860649
 21
44.509857
 31
0.0
  0
LINE
  5
FAB
100
AcDbEntity
  8
CENTER
 62
     3
100
AcDbLine
 10
181.860649
 20
40.009857
 30
0.0
 11
181.860649
 21
24.509857
 31
0.0
  0
LINE
  5
FAC
100
AcDbEntity
  8
CENTER
 62
     3
100
AcDbLine
 10
181.860649
 20
46.009857
 30
0.0
 11
181.860649
 21
61.509857
 31
0.0
  0
LINE
  5
FAD
100
AcDbEntity
  8
CENTER
 62
     3
100
AcDbLine
 10
187.360649
 20
43.009857
 30
0.0
 11
190.360649
 21
43.009857
 31
0.0
  0
LINE
  5
FAE
100
AcDbEntity
  8
CENTER
 62
     3
100
AcDbLine
 10
188.860649
 20
41.509857
 30
0.0
 11
188.860649
 21
44.509857
 31
0.0
  0
LINE
  5
FAF
100
AcDbEntity
  8
CENTER
 62
     3
100
AcDbLine
 10
191.860649
 20
43.009857
 30
0.0
 11
198.360649
 21
43.009857
 31
0.0
  0
LINE
  5
FB0
100
AcDbEntity
  8
CENTER
 62
     3
100
AcDbLine
 10
188.860649
 20
40.009857
 30
0.0
 11
188.860649
 21
33.509857
 31
0.0
  0
LINE
  5
FB1
100
AcDbEntity
  8
CENTER
 62
     3
100
AcDbLine
 10
188.860649
 20
46.009857
 30
0.0
 11
188.860649
 21
52.509857
 31
0.0
  0
LINE
  5
FB2
100
AcDbEntity
  8
CENTER
 62
     3
100
AcDbLine
 10
170.860649
 20
43.009857
 30
0.0
 11
173.860649
 21
43.009857
 31
0.0
  0
LINE
  5
FB3
100
AcDbEntity
  8
CENTER
 62
     3
100
AcDbLine
 10
172.360649
 20
41.509857
 30
0.0
 11
172.360649
 21
44.509857
 31
0.0
  0
LINE
  5
FB4
100
AcDbEntity
  8
CENTER
 62
     3
100
AcDbLine
 10
169.360649
 20
43.009857
 30
0.0
 11
165.860649
 21
43.009857
 31
0.0
  0
LINE
  5
FB5
100
AcDbEntity
  8
CENTER
 62
     3
100
AcDbLine
 10
175.360649
 20
43.009857
 30
0.0
 11
178.860649
 21
43.009857
 31
0.0
  0
LINE
  5
FB6
100
AcDbEntity
  8
CENTER
 62
     3
100
AcDbLine
 10
172.360649
 20
40.009857
 30
0.0
 11
172.360649
 21
36.509857
 31
0.0
  0
LINE
  5
FB7
100
AcDbEntity
  8
CENTER
 62
     3
100
AcDbLine
 10
172.360649
 20
46.009857
 30
0.0
 11
172.360649
 21
49.509857
 31
0.0
  0
LINE
  5
FB8
100
AcDbEntity
  8
DIM
 62
     6
100
AcDbLine
 39
20.0
 10
201.110649
 20
43.009857
 30
0.0
 11
199.622371
 21
43.009857
 31
0.0
  0
DIMENSION
  5
FB9
100
AcDbEntity
  8
DIM
 62
     6
100
AcDbDimension
  2
*D1
 10
188.860649
 20
21.440785
 30
0.0
 11
186.929388
 21
23.16607
 31
0.0
 12
180.525596
 22
-10.595858
 32
0.0
 70
   128
  1
5"
100
AcDbAlignedDimension
 13
183.860649
 23
41.509857
 33
0.0
 14
188.860649
 24
33.509857
 34
0.0
100
AcDbRotatedDimension
  0
DIMENSION
  5
FBA
100
AcDbEntity
  8
DIM
 62
     6
100
AcDbDimension
  2
*D2
 10
193.860649
 20
21.462828
 30
0.0
 11
191.908687
 21
23.16607
 31
0.0
 12
180.525596
 22
-10.595858
 32
0.0
 70
   128
  1
5"
100
AcDbAlignedDimension
 13
188.860649
 23
33.509857
 33
0.0
 14
193.860649
 24
41.509857
 34
0.0
100
AcDbRotatedDimension
  0
DIMENSION
  5
FBB
100
AcDbEntity
  8
DIM
 62
     6
100
AcDbDimension
  2
*D4
 10
181.860649
 20
69.404142
 30
0.0
 11
177.110649
 21
69.404142
 31
0.0
 12
180.525596
 22
-10.595858
 32
0.0
  1
H
100
AcDbAlignedDimension
 13
172.360649
 23
49.509857
 33
0.0
 14
181.860649
 24
61.509857
 34
0.0
100
AcDbRotatedDimension
  0
DIMENSION
  5
FBC
100
AcDbEntity
  8
DIM
 62
     6
100
AcDbDimension
  2
*D3
 10
188.860649
 20
69.404142
 30
0.0
 11
185.360649
 21
69.404142
 31
0.0
 12
180.525596
 22
-10.595858
 32
0.0
  1
K
100
AcDbAlignedDimension
 13
181.860649
 23
61.509857
 33
0.0
 14
188.860649
 24
52.509857
 34
0.0
100
AcDbRotatedDimension
  0
SOLID
  5
100B
100
AcDbEntity
  8
DIM
 62
     6
100
AcDbTrace
 10
191.509654
 20
31.582479
 30
0.0
 11
191.844216
 21
31.954055
 31
0.0
 12
190.56221
 22
32.771954
 32
0.0
 13
190.56221
 23
32.771954
 33
0.0
  0
LINE
  5
100C
100
AcDbEntity
  8
DIM
 62
     6
100
AcDbLine
 10
191.676935
 20
31.768267
 30
0.0
 11
200.966396
 21
23.404142
 31
0.0
  0
CIRCLE
  5
100D
100
AcDbEntity
  8
DIM
 62
     6
100
AcDbCircle
 39
17.0
 10
228.107595
 20
8.87949
 30
0.0
 40
1.008846
  0
LWPOLYLINE
  5
100E
100
AcDbEntity
  8
DIM
 62
     6
100
AcDbPolyline
 90
        2
 70
     0
 43
0.2125
 39
17.0
 10
231.853614
 20
10.558887
 10
231.853614
 20
-9.672482
  0
LINE
  5
1012
100
AcDbEntity
  8
DIM
 62
     6
100
AcDbLine
 39
17.0
 10
231.853614
 20
10.558887
 30
0.0
 11
231.853614
 21
-2.468614
 31
0.0
  0
TEXT
  5
1013
100
AcDbEntity
  8
DIM
 62
     6
100
AcDbText
 10
225.567158
 20
1.973508
 30
0.0
 40
1.275
  1
DISTANCE
 41
0.581694
  7
ROMAND
 72
     5
 11
230.723458
 21
1.973508
 31
0.0
100
AcDbText
  0
TEXT
  5
1014
100
AcDbEntity
  8
DIM
 62
     6
100
AcDbText
 10
227.424286
 20
8.224586
 30
0.0
 40
1.275
  1
K
  7
ROMAND
 72
     1
 11
228.092143
 21
8.224586
 31
0.0
100
AcDbText
  0
TEXT
  5
1016
100
AcDbEntity
  8
DIM
 62
     6
100
AcDbText
 10
225.406332
 20
-1.854553
 30
0.0
 40
1.275
  1
 5.50
  7
ROMANS
100
AcDbText
  0
TEXT
  5
1023
100
AcDbEntity
  8
DIM
 62
     6
100
AcDbText
 10
130.409967
 20
-17.766433
 30
0.0
 40
0.95625
  1
N/A= NOT APPLICABLE
  7
ROMANS
100
AcDbText
  0
TEXT
  5
1024
100
AcDbEntity
  8
DIM
 62
     6
100
AcDbText
 10
212.312226
 20
1.973508
 30
0.0
 40
1.275
  1
DISTANCE
 41
0.581694
  7
ROMAND
 72
     5
 11
217.468525
 21
1.973508
 31
0.0
100
AcDbText
  0
TEXT
  5
1025
100
AcDbEntity
  8
DIM
 62
     6
100
AcDbText
 10
204.684181
 20
1.973508
 30
0.0
 40
1.275
  1
DISTANCE
 41
0.581694
  7
ROMAND
 72
     5
 11
209.84048
 21
1.973508
 31
0.0
100
AcDbText
  0
CIRCLE
  5
1048
100
AcDbEntity
  8
OBJECT
 62
     2
100
AcDbCircle
 10
193.860649
 20
43.009857
 30
0.0
 40
1.781
  0
CIRCLE
  5
1049
100
AcDbEntity
  8
OBJECT
 62
     2
100
AcDbCircle
 10
193.860649
 20
43.009857
 30
0.0
 40
1.5
  0
ARC
  5
104A
100
AcDbEntity
  8
OBJECT
 62
     2
100
AcDbCircle
 10
193.860649
 20
43.009857
 30
0.0
 40
2.172
100
AcDbArc
 50
118.703991
 51
241.296009
  0
LINE
  5
104B
100
AcDbEntity
  8
CENTER
 62
     3
100
AcDbLine
 10
192.360649
 20
43.009857
 30
0.0
 11
195.360649
 21
43.009857
 31
0.0
  0
LINE
  5
104C
100
AcDbEntity
  8
CENTER
 62
     3
100
AcDbLine
 10
193.860649
 20
38.618857
 30
0.0
 11
193.860649
 21
47.400857
 31
0.0
  0
ARC
  5
104D
100
AcDbEntity
  8
OBJECT
 62
     2
100
AcDbCircle
 10
193.860649
 20
43.009857
 30
0.0
 40
2.172
100
AcDbArc
 50
298.703991
 51
61.296009
  0
CIRCLE
  5
104E
100
AcDbEntity
  8
OBJECT
 62
     2
100
AcDbCircle
 10
193.860649
 20
40.719857
 30
0.0
 40
0.242
  0
ARC
  5
104F
100
AcDbEntity
  8
OBJECT
 62
     2
100
AcDbCircle
 10
193.860649
 20
40.719857
 30
0.0
 40
0.601
100
AcDbArc
 50
197.904648
 51
342.095352
  0
ARC
  5
1050
100
AcDbEntity
  8
OBJECT
 62
     2
100
AcDbCircle
 10
192.337186
 20
40.227655
 30
0.0
 40
1.0
100
AcDbArc
 50
17.904648
 51
61.296009
  0
ARC
  5
1051
100
AcDbEntity
  8
OBJECT
 62
     2
100
AcDbCircle
 10
195.384111
 20
40.227655
 30
0.0
 40
1.0
100
AcDbArc
 50
118.703991
 51
162.095352
  0
CIRCLE
  5
1052
100
AcDbEntity
  8
OBJECT
 62
     2
100
AcDbCircle
 10
193.860649
 20
45.299857
 30
0.0
 40
0.242
  0
ARC
  5
1053
100
AcDbEntity
  8
OBJECT
 62
     2
100
AcDbCircle
 10
193.860649
 20
45.299857
 30
0.0
 40
0.601
100
AcDbArc
 50
17.904648
 51
162.095352
  0
ARC
  5
1054
100
AcDbEntity
  8
OBJECT
 62
     2
100
AcDbCircle
 10
192.337186
 20
45.792058
 30
0.0
 40
1.0
100
AcDbArc
 50
298.703991
 51
342.095352
  0
ARC
  5
1055
100
AcDbEntity
  8
OBJECT
 62
     2
100
AcDbCircle
 10
195.384111
 20
45.792058
 30
0.0
 40
1.0
100
AcDbArc
 50
197.904648
 51
241.296009
  0
ARC
  5
1065
100
AcDbEntity
  8
OBJECT
 62
     2
100
AcDbCircle
 10
181.860649
 20
54.009857
 30
0.0
 40
2.172
100
AcDbArc
 50
208.703991
 51
331.296009
  0
CIRCLE
  5
1066
100
AcDbEntity
  8
OBJECT
 62
     2
100
AcDbCircle
 10
181.860649
 20
54.009857
 30
0.0
 40
1.5
  0
ARC
  5
1067
100
AcDbEntity
  8
OBJECT
 62
     2
100
AcDbCircle
 10
181.860649
 20
54.009857
 30
0.0
 40
2.172
100
AcDbArc
 50
28.703991
 51
151.296009
  0
LINE
  5
1068
100
AcDbEntity
  8
CENTER
 62
     3
100
AcDbLine
 10
178.548149
 20
54.009857
 30
0.0
 11
185.173149
 21
54.009857
 31
0.0
  0
LINE
  5
1069
100
AcDbEntity
  8
CENTER
 62
     3
100
AcDbLine
 10
181.860649
 20
52.509857
 30
0.0
 11
181.860649
 21
55.509857
 31
0.0
  0
ARC
  5
106A
100
AcDbEntity
  8
OBJECT
 62
     2
100
AcDbCircle
 10
179.078447
 20
52.486394
 30
0.0
 40
1.0
100
AcDbArc
 50
28.703991
 51
72.095352
  0
ARC
  5
106B
100
AcDbEntity
  8
OBJECT
 62
     2
100
AcDbCircle
 10
179.078447
 20
55.533319
 30
0.0
 40
1.0
100
AcDbArc
 50
287.904648
 51
331.296009
  0
ARC
  5
106C
100
AcDbEntity
  8
OBJECT
 62
     2
100
AcDbCircle
 10
179.570649
 20
54.009857
 30
0.0
 40
0.601
100
AcDbArc
 50
107.904648
 51
252.095352
  0
CIRCLE
  5
106D
100
AcDbEntity
  8
OBJECT
 62
     2
100
AcDbCircle
 10
179.570649
 20
54.009857
 30
0.0
 40
0.242
  0
ARC
  5
106E
100
AcDbEntity
  8
OBJECT
 62
     2
100
AcDbCircle
 10
184.64285
 20
55.533319
 30
0.0
 40
1.0
100
AcDbArc
 50
208.703991
 51
252.095352
  0
ARC
  5
106F
100
AcDbEntity
  8
OBJECT
 62
     2
100
AcDbCircle
 10
184.64285
 20
52.486394
 30
0.0
 40
1.0
100
AcDbArc
 50
107.904648
 51
151.296009
  0
CIRCLE
  5
1070
100
AcDbEntity
  8
OBJECT
 62
     2
100
AcDbCircle
 10
184.150649
 20
54.009857
 30
0.0
 40
0.242
  0
ARC
  5
1071
100
AcDbEntity
  8
OBJECT
 62
     2
100
AcDbCircle
 10
184.150649
 20
54.009857
 30
0.0
 40
0.601
100
AcDbArc
 50
287.904648
 51
72.095352
  0
LINE
  5
1072
100
AcDbEntity
  8
CENTER
 62
     3
100
AcDbLine
 10
186.251649
 20
54.009857
 30
0.0
 11
177.469649
 21
54.009857
 31
0.0
  0
TEXT
  5
110C
100
AcDbEntity
  8
DIM
 62
     6
100
AcDbText
 10
145.064584
 20
27.706089
 30
0.0
 40
1.5
  1
PLATE w/ 8" 
  7
ROMANS
100
AcDbText
  0
TEXT
  5
110E
100
AcDbEntity
  8
DIM
 62
     6
100
AcDbText
 10
145.064584
 20
25.798215
 30
0.0
 40
1.5
  1
DIA. CLEAR 
  7
ROMANS
100
AcDbText
  0
TEXT
  5
110F
100
AcDbEntity
  8
DIM
 62
     6
100
AcDbText
 10
145.064584
 20
23.748496
 30
0.0
 40
1.5
  1
ACCESS OPENING
  7
ROMANS
100
AcDbText
  0
TEXT
  5
1110
100
AcDbEntity
  8
DIM
 62
     6
100
AcDbText
 10
144.968666
 20
40.017701
 30
0.0
 40
1.5
  1
CORD SEAL
  7
ROMANS
100
AcDbText
  0
TEXT
  5
1111
100
AcDbEntity
  8
DIM
 62
     6
100
AcDbText
 10
144.907744
 20
52.927888
 30
0.0
 40
1.5
  1
DISCHARGE
  7
ROMANS
100
AcDbText
  0
TEXT
  5
1112
100
AcDbEntity
  8
DIM
 62
     6
100
AcDbText
 10
144.968666
 20
42.081987
 30
0.0
 40
1.5
  1
ELECTRIC
  7
ROMANS
100
AcDbText
  0
TEXT
  5
1113
100
AcDbEntity
  8
DIM
 62
     6
100
AcDbText
 10
144.669935
 20
29.667855
 30
0.0
 40
1.5
  1
10" INSPECTION
  7
ROMANS
100
AcDbText
  0
TEXT
  5
1115
100
AcDbEntity
  8
DIM
 62
     6
100
AcDbText
 10
145.584364
 20
63.927961
 30
0.0
 40
0.9375
  1
SPECIFY SIZE:
  7
ROMAND
100
AcDbText
  0
TEXT
  5
1116
100
AcDbEntity
  8
DIM
 62
     6
100
AcDbText
 10
145.87235
 20
61.85353
 30
0.0
 40
0.9375
  1
2",3" OR 4"
  7
ROMAND
100
AcDbText
  0
TEXT
  5
1117
100
AcDbEntity
  8
DIM
 62
     6
100
AcDbText
 10
145.202756
 20
48.945839
 30
0.0
 40
0.9375
  1
SPECIFY SIZE:
  7
ROMAND
100
AcDbText
  0
TEXT
  5
1118
100
AcDbEntity
  8
DIM
 62
     6
100
AcDbText
 10
145.230368
 20
47.045257
 30
0.0
 40
0.9375
  1
1.25" 1.5" 2" OR 3"
  7
ROMAND
100
AcDbText
  0
TEXT
  5
111A
100
AcDbEntity
  8
DIM
 62
     6
100
AcDbText
 10
145.092772
 20
38.606264
 30
0.0
 40
0.9375
  1
USE FOR CORDS UP TO
  7
ROMAND
100
AcDbText
  0
TEXT
  5
111B
100
AcDbEntity
  8
DIM
 62
     6
100
AcDbText
 10
145.288288
 20
36.86063
 30
0.0
 40
0.9375
  1
3/8"  IF OVER 3/8" 
  7
ROMAND
100
AcDbText
  0
TEXT
  5
111C
100
AcDbEntity
  8
DIM
 62
     6
100
AcDbText
 10
145.282219
 20
35.01677
 30
0.0
 40
0.9375
  1
SPECIFY CORD GRIPS
  7
ROMAND
100
AcDbText
  0
LINE
  5
111D
100
AcDbEntity
  8
DIM
 62
     6
100
AcDbLine
 39
25.0
 10
145.474541
 20
63.670413
 30
0.0
 11
155.836029
 21
63.670413
 31
0.0
  0
LINE
  5
111E
100
AcDbEntity
  8
DIM
 62
     6
100
AcDbLine
 39
25.0
 10
145.162103
 20
48.670194
 30
0.0
 11
155.325184
 21
48.670194
 31
0.0
  0
TEXT
  5
111F
100
AcDbEntity
  8
DIM
 62
     6
100
AcDbText
 10
144.907744
 20
50.732666
 30
0.0
 40
1.5
  1
(SLIP)
  7
ROMANS
100
AcDbText
  0
TEXT
  5
1120
100
AcDbEntity
  8
DIM
 62
     6
100
AcDbText
 10
144.907744
 20
65.683069
 30
0.0
 40
1.5
  1
(THREADED)
  7
ROMANS
100
AcDbText
  0
TEXT
  5
1121
100
AcDbEntity
  8
DIM
 62
     6
100
AcDbText
 10
145.167699
 20
67.800446
 30
0.0
 40
1.5
  1
VENT
  7
ROMANS
100
AcDbText
  0
LINE
  5
1122
100
AcDbEntity
  8
DIM
 62
     6
100
AcDbLine
 10
161.737477
 20
53.588867
 30
0.0
 11
160.237477
 21
53.588867
 31
0.0
  0
LINE
  5
1123
100
AcDbEntity
  8
DIM
 62
     6
100
AcDbLine
 10
161.737477
 20
42.752626
 30
0.0
 11
160.237477
 21
42.752626
 31
0.0
  0
LINE
  5
1124
100
AcDbEntity
  8
DIM
 62
     6
100
AcDbLine
 39
20.0
 10
160.237477
 20
53.588867
 30
0.0
 11
157.632466
 21
53.588867
 31
0.0
  0
LINE
  5
1125
100
AcDbEntity
  8
DIM
 62
     6
100
AcDbLine
 39
20.0
 10
160.237477
 20
42.752626
 30
0.0
 11
156.019772
 21
42.752626
 31
0.0
  0
LINE
  5
1126
100
AcDbEntity
  8
DIM
 62
     6
100
AcDbLine
 10
161.737477
 20
68.525324
 30
0.0
 11
160.237477
 21
68.525324
 31
0.0
  0
LINE
  5
1127
100
AcDbEntity
  8
DIM
 62
     6
100
AcDbLine
 39
20.0
 10
160.237477
 20
68.525324
 30
0.0
 11
151.035123
 21
68.525324
 31
0.0
  0
LINE
  5
1128
100
AcDbEntity
  8
DIM
 62
     6
100
AcDbLine
 10
179.342033
 20
56.144273
 30
0.0
 11
161.737477
 21
68.525324
 31
0.0
  0
SOLID
  5
1129
100
AcDbEntity
  8
DIM
 62
     6
100
AcDbTrace
 10
179.14814
 20
56.58228
 30
0.0
 11
178.860507
 21
56.173297
 31
0.0
 12
180.231274
 22
55.514891
 32
0.0
 13
180.231274
 23
55.514891
 33
0.0
  0
LINE
  5
112A
100
AcDbEntity
  8
DIM
 62
     6
100
AcDbLine
 10
191.620312
 20
44.405493
 30
0.0
 11
161.737477
 21
53.588867
 31
0.0
  0
SOLID
  5
112B
100
AcDbEntity
  8
DIM
 62
     6
100
AcDbTrace
 10
190.748291
 20
44.935021
 30
0.0
 11
190.601414
 21
44.457081
 31
0.0
 12
192.108674
 22
44.255419
 32
0.0
 13
192.108674
 23
44.255419
 33
0.0
  0
SOLID
  5
112C
100
AcDbEntity
  8
DIM
 62
     6
100
AcDbTrace
 10
181.734027
 20
41.069033
 30
0.0
 11
182.093795
 21
40.721805
 31
0.0
 12
182.955594
 22
41.974723
 32
0.0
 13
182.955594
 23
41.974723
 33
0.0
  0
LINE
  5
112D
100
AcDbEntity
  8
DIM
 62
     6
100
AcDbLine
 10
181.913911
 20
40.895419
 30
0.0
 11
179.183771
 21
38.066674
 31
0.0
  0
LINE
  5
112E
100
AcDbEntity
  8
DIM
 62
     6
100
AcDbLine
 10
179.183771
 20
38.066674
 30
0.0
 11
161.737477
 21
42.752626
 31
0.0
  0
SOLID
  5
112F
100
AcDbEntity
  8
DIM
 62
     6
100
AcDbTrace
 10
168.952483
 20
37.561222
 30
0.0
 11
169.333736
 21
37.237732
 31
0.0
 12
170.113578
 22
38.543239
 32
0.0
 13
170.113578
 23
38.543239
 33
0.0
  0
LINE
  5
1130
100
AcDbEntity
  8
DIM
 62
     6
100
AcDbLine
 10
169.14311
 20
37.399477
 30
0.0
 11
163.496769
 21
30.744893
 31
0.0
  0
DIMENSION
  5
113F
100
AcDbEntity
  8
DIM
 62
     6
100
AcDbDimension
  2
*D5
 10
164.860649
 20
73.691211
 30
0.0
 11
181.860649
 21
73.691211
 31
0.0
 12
141.699398
 22
0.289124
 32
0.0
 70
    32
  1
B
  3
STANDARD
100
AcDbAlignedDimension
 13
198.860649
 23
43.009857
 33
0.0
 14
164.860649
 24
43.009857
 34
0.0
100
AcDbRotatedDimension
1001
ACAD
1000
DSTYLE
1002
{
1070
   340
1005
29
1070
   174
1070
     1
1070
   147
1040
0.75
1070
   287
1070
     5
1070
    42
1040
0.75
1070
    44
1040
1.5
1070
   141
1040
-1.5
1070
    41
1040
1.5
1002
}
  0
LWPOLYLINE
  5
131D
100
AcDbEntity
  8
BORDER
 62
     5
100
AcDbPolyline
 90
        2
 70
     0
 43
0.317128
 10
237.900142
 20
-24.633438
 10
237.900142
 20
108.900244
  0
LINE
  5
131E
100
AcDbEntity
  8
LIMITS
 62
     7
100
AcDbLine
 10
240.437168
 20
-42.680488
 30
0.0
 11
240.437168
 21
112.705783
 31
0.0
  0
LINE
  5
131F
100
AcDbEntity
  8
LIMITS
100
AcDbLine
 10
240.437168
 20
109.54107
 30
0.0
 11
240.437168
 21
-42.680488
 31
0.0
  0
LINE
  5
1320
100
AcDbEntity
  8
LIMITS
100
AcDbLine
 10
240.437168
 20
-42.680488
 30
0.0
 11
240.437168
 21
109.54107
 31
0.0
  0
LWPOLYLINE
  5
1321
100
AcDbEntity
  8
BORDER
 62
     5
100
AcDbPolyline
 90
        2
 70
     0
 43
0.317128
 10
122.902984
 20
-24.633438
 10
122.902984
 20
108.900244
  0
LINE
  5
1322
100
AcDbEntity
  8
LIMITS
 62
     7
100
AcDbLine
 10
120.365958
 20
112.705783
 30
0.0
 11
120.365958
 21
-42.680488
 31
0.0
  0
LWPOLYLINE
  5
1323
100
AcDbEntity
  8
BORDER
 62
     5
100
AcDbPolyline
 90
        6
 70
     0
 43
0.565041
 10
122.902984
 20
-24.633438
 10
122.902984
 20
108.900244
 42
-0.414214
 10
124.171497
 20
110.168757
 10
236.631629
 20
110.168757
 42
-0.414214
 10
237.900142
 20
108.900244
 10
237.900142
 20
-24.633438
  0
TEXT
  5
132F
100
AcDbEntity
  8
BORDER
 62
     6
100
AcDbText
 10
185.993785
 20
-32.731661
 30
0.0
 40
0.59514
  1
in this print by any other source than TOPP INDUSTRIES, INC.
 41
0.839168
  7
ROMANS
 72
     5
 11
210.513051
 21
-32.731661
 31
0.0
100
AcDbText
  0
TEXT
  5
1330
100
AcDbEntity
  8
BORDER
 62
     6
100
AcDbText
 10
185.993785
 20
-31.7681
 30
0.0
 40
0.59514
  1
and will not be used to manufacture or procure the manufacture of the items shown
 41
0.600404
  7
ROMANS
 72
     5
 11
210.513051
 21
-31.7681
 31
0.0
100
AcDbText
  0
TEXT
  5
1331
100
AcDbEntity
  8
BORDER
 62
     6
100
AcDbText
 10
185.993785
 20
-30.80454
 30
0.0
 40
0.59514
  1
be used as a record or to identify or inspect parts or for other information purposes
 41
0.596266
  7
ROMANS
 72
     5
 11
210.513051
 21
-30.80454
 31
0.0
100
AcDbText
  0
TEXT
  5
1332
100
AcDbEntity
  8
BORDER
 62
     6
100
AcDbText
 10
185.993785
 20
-29.840979
 30
0.0
 40
0.59514
  1
restriction includes, but is not limited to the condition that this print will not only
 41
0.626489
  7
ROMANS
 72
     5
 11
210.513051
 21
-29.840979
 31
0.0
100
AcDbText
  0
TEXT
  5
1333
100
AcDbEntity
  8
BORDER
 62
     6
100
AcDbText
 10
185.993785
 20
-28.877419
 30
0.0
 40
0.59514
  1
by TOPP INDUSTRIES, INC. It is furnished on a strictly confidential basis.  This
 41
0.659437
  7
ROMANS
 72
     5
 11
210.513051
 21
-28.877419
 31
0.0
100
AcDbText
  0
TEXT
  5
1334
100
AcDbEntity
  8
BORDER
 62
     6
100
AcDbText
 10
185.993785
 20
-27.913858
 30
0.0
 40
0.59514
  1
This print is and contains confidential proprietary information owned exclusively
 41
0.656934
  7
ROMANS
 72
     5
 11
210.513051
 21
-27.913858
 31
0.0
100
AcDbText
  0
LINE
  5
1335
100
AcDbEntity
  8
BORDER
100
AcDbLine
 10
174.027901
 20
-33.166641
 30
0.0
 11
210.944241
 21
-33.166641
 31
0.0
  0
LWPOLYLINE
  5
1336
100
AcDbEntity
  8
BORDER
 62
     5
100
AcDbPolyline
 90
        2
 70
     0
 43
0.792821
 10
151.444526
 20
-25.238435
 10
209.3586
 20
-25.238435
  0
LINE
  5
1337
100
AcDbEntity
  8
BORDER
100
AcDbLine
 10
174.027901
 20
-26.824076
 30
0.0
 11
209.3586
 21
-26.824076
 31
0.0
  0
LWPOLYLINE
  5
1338
100
AcDbEntity
  8
BORDER
 62
     5
100
AcDbPolyline
 90
        2
 70
     0
 43
0.792821
 10
234.728859
 20
-39.509206
 10
126.074267
 20
-39.509206
  0
LINE
  5
1339
100
AcDbEntity
  8
LIMITS
 62
     7
100
AcDbLine
 10
120.365958
 20
-42.680488
 30
0.0
 11
240.437168
 21
-42.680488
 31
0.0
  0
LWPOLYLINE
  5
1340
100
AcDbEntity
  8
BORDER
 62
     5
100
AcDbPolyline
 90
        2
 70
     0
 43
0.792821
 10
151.444526
 20
-25.238435
 42
0.414214
 10
148.273244
 20
-28.409717
 42
-0.560527
  0
TEXT
  5
1341
100
AcDbEntity
  8
BORDER
 62
     6
100
AcDbText
 10
150.08864
 20
-31.542289
 30
0.0
 40
0.711439
  1
Reference:
  7
ROMANC
100
AcDbText
  0
TEXT
  5
1342
100
AcDbEntity
  8
BORDER
 62
     6
100
AcDbText
 10
150.973623
 20
-37.660158
 30
0.0
 40
0.604723
  1
Phone: 800/354-4534  Fax: 574/223-6106
  7
ROMANC
100
AcDbText
  0
LINE
  5
1343
100
AcDbEntity
  8
BORDER
100
AcDbLine
 10
149.858885
 20
-30.485935
 30
0.0
 11
174.027901
 21
-30.485935
 31
0.0
  0
LINE
  5
1344
100
AcDbEntity
  8
BORDER
100
AcDbLine
 10
149.858885
 20
-34.305691
 30
0.0
 11
187.263496
 21
-34.305691
 31
0.0
  0
LINE
  5
1345
100
AcDbEntity
  8
BORDER
100
AcDbLine
 10
149.858885
 20
-33.166641
 30
0.0
 11
187.263496
 21
-33.166641
 31
0.0
  0
LINE
  5
1346
100
AcDbEntity
  8
BORDER
100
AcDbLine
 10
151.444526
 20
-26.824076
 30
0.0
 11
187.263496
 21
-26.824076
 31
0.0
  0
LINE
  5
1347
100
AcDbEntity
  8
BORDER
100
AcDbLine
 10
149.858885
 20
-37.923565
 30
0.0
 11
187.263496
 21
-37.923565
 31
0.0
  0
LWPOLYLINE
  5
1348
100
AcDbEntity
  8
BORDER
 62
     5
100
AcDbPolyline
 90
        2
 70
     0
 43
0.792821
 10
148.273244
 20
-28.409717
 10
148.273244
 20
-37.923565
  0
LINE
  5
1349
100
AcDbEntity
  8
BORDER
100
AcDbLine
 10
149.858885
 20
-37.923565
 30
0.0
 11
149.858885
 21
-34.305691
 31
0.0
  0
LINE
  5
134A
100
AcDbEntity
  8
BORDER
100
AcDbLine
 10
145.101961
 20
-37.923565
 30
0.0
 11
145.101961
 21
-28.409717
 31
0.0
  0
LWPOLYLINE
  5
134B
100
AcDbEntity
  8
BORDER
 62
     5
100
AcDbPolyline
 90
        2
 70
     0
 43
0.792821
 10
146.687603
 20
-37.923565
 10
146.687603
 20
-28.409717
  0
ARC
  5
134C
100
AcDbEntity
  8
BORDER
100
AcDbCircle
 10
126.074267
 20
-36.337923
 30
0.0
 40
1.585641
100
AcDbArc
 50
180.0
 51
270.0
  0
LWPOLYLINE
  5
134D
100
AcDbEntity
  8
BORDER
 62
     5
100
AcDbPolyline
 90
        2
 70
     0
 43
0.792821
 10
126.074267
 20
-39.509206
 42
-0.414214
 10
122.902984
 20
-36.337923
 42
0.560527
  0
LINE
  5
134E
100
AcDbEntity
  8
BORDER
100
AcDbLine
 10
126.074267
 20
-37.923565
 30
0.0
 11
145.101961
 21
-37.923565
 31
0.0
  0
LINE
  5
134F
102
{ACAD_REACTORS
330
1353
102
}
100
AcDbEntity
  8
BORDER
100
AcDbLine
 10
132.306796
 20
-28.907549
 30
0.0
 11
131.594484
 21
-28.907549
 31
0.0
  0
ARC
  5
1350
102
{ACAD_REACTORS
330
1353
102
}
100
AcDbEntity
  8
BORDER
100
AcDbCircle
 10
132.403761
 20
-33.361503
 30
0.0
 40
0.809277
100
AcDbArc
 50
180.0
 51
270.0
  0
LINE
  5
1351
102
{ACAD_REACTORS
330
1353
102
}
100
AcDbEntity
  8
BORDER
100
AcDbLine
 10
129.125936
 20
-34.339585
 30
0.0
 11
132.664386
 21
-34.339585
 31
0.0
  0
SPLINE
  5
1352
100
AcDbEntity
  8
BORDER
100
AcDbSpline
210
0.0
220
0.0
230
1.0
 70
    11
 71
     3
 72
    24
 73
    20
 74
     0
 42
0.0000001
 43
0.0000001
 40
0.0
 40
0.0
 40
0.0
 40
0.0
 40
0.474866629778075
 40
0.474866629778075
 40
1.277791044886493
 40
1.277791044886493
 40
2.080715459994911
 40
2.080715459994911
 40
2.883639875103329
 40
2.883639875103329
 40
3.686564290211747
 40
3.686564290211747
 40
4.489488705320165
 40
4.489488705320165
 40
5.292413120428583
 40
5.292413120428583
 40
6.095337535537001
 40
6.095337535537001
 40
6.283185307179586
 40
6.283185307179586
 40
6.283185307179586
 40
6.283185307179586
 10
131.4023145876844
 20
-34.96146808859612
 30
0.0
 10
131.2966151375713
 20
-34.96146808859612
 30
0.0
 10
131.1910047232401
 20
-34.98710726529957
 30
0.0
 10
130.9380676439632
 20
-35.11755523511102
 30
0.0
 10
130.814669016373
 20
-35.26619388343326
 30
0.0
 10
130.7114525221404
 20
-35.60940743818416
 30
0.0
 10
130.7323208514026
 20
-35.80168286939224
 30
0.0
 10
130.9067573071698
 20
-36.11458142611336
 30
0.0
 10
131.0591630212845
 20
-36.23310320004553
 30
0.0
 10
131.4047732201179
 20
-36.32457475266672
 30
0.0
 10
131.5956494419402
 20
-36.29690347138857
 30
0.0
 10
131.9012924729131
 20
-36.11103301185973
 30
0.0
 10
132.0140068913615
 20
-35.95409174316644
 30
0.0
 10
132.0930038402414
 20
-35.60447127177441
 30
0.0
 10
132.058761464037
 20
-35.41413323573714
 30
0.0
 10
131.8629018970133
 20
-35.1142561888135
 30
0.0
 10
131.7025911210667
 20
-35.00673301058081
 30
0.0
 10
131.4859389074676
 20
-34.96541929784661
 30
0.0
 10
131.4441271828902
 20
-34.96146808859612
 30
0.0
 10
131.4023145876844
 20
-34.96146808859612
 30
0.0
  0
HATCH
  5
1353
100
AcDbEntity
  8
BORDER
100
AcDbHatch
 10
0.0
 20
0.0
 30
0.0
210
0.0
220
0.0
230
1.0
  2
ANSI37
 70
     0
 71
     1
 91
        1
 92
        7
 72
     1
 73
     1
 93
       18
 10
130.1958381286805
 20
-33.36150313219107
 42
-0.4142135623730719
 10
129.3865610298045
 20
-34.170780231067
 42
0.0
 10
129.1259363595764
 20
-34.170780231067
 42
0.0
 10
129.1259363595764
 20
-34.33958495827853
 42
0.0
 10
132.6643858781596
 20
-34.33958495827853
 42
0.0
 10
132.6643858781596
 20
-34.170780231067
 42
0.0
 10
132.4037612079309
 20
-34.170780231067
 42
-0.414213562373041
 10
131.5944841090551
 20
-33.36150313219102
 42
0.0
 10
131.5944841090551
 20
-28.90754929760217
 42
0.0
 10
132.3067964965842
 20
-28.90754929760217
 42
-0.4138200196737633
 10
133.9219884506293
 20
-30.52057217221648
 42
0.0
 10
134.0909215702988
 20
-30.52057217221649
 42
0.0
 10
134.0909215702993
 20
-28.49491544568136
 42
0.0
 10
127.6994006674367
 20
-28.49491544568137
 42
0.0
 10
127.6994006674367
 20
-30.52057217221648
 42
0.0
 10
127.8683337871066
 20
-30.52057217221648
 42
-0.4138200196737634
 10
129.4835257411517
 20
-28.90754929760217
 42
0.0
 10
130.1958381286805
 20
-28.90754929760216
 42
0.0
 97
       18
330
134F
330
13A3
330
13A5
330
13A4
330
1356
330
136B
330
136C
330
136A
330
136D
330
135B
330
1368
330
1366
330
1367
330
1351
330
138E
330
138D
330
1350
330
135A
 75
     0
 76
     1
 52
0.0
 41
0.024567
 77
     0
 78
     2
 53
45.0
 43
121.945579
 44
-123.032227
 45
-0.0021714492614553
 46
0.0021714492614553
 79
     0
 53
135.0
 43
121.945579
 44
-123.032227
 45
-0.0021714492614553
 46
-0.0021714492614553
 79
     0
 47
0.049862
 98
        1
 10
130.723518
 20
-31.22093
  0
LINE
  5
1354
100
AcDbEntity
  8
BORDER
100
AcDbLine
 10
126.87043
 20
-34.559605
 30
0.0
 11
142.809056
 21
-34.559605
 31
0.0
  0
LINE
  5
1355
100
AcDbEntity
  8
BORDER
100
AcDbLine
 10
126.87043
 20
-34.559605
 30
0.0
 11
142.809056
 21
-34.559605
 31
0.0
  0
LINE
  5
1356
102
{ACAD_REACTORS
330
1353
102
}
100
AcDbEntity
  8
BORDER
100
AcDbLine
 10
127.699401
 20
-28.494915
 30
0.0
 11
134.090922
 21
-28.494915
 31
0.0
  0
LWPOLYLINE
  5
1357
100
AcDbEntity
  8
BORDER
 62
     5
100
AcDbPolyline
 90
        2
 70
     0
 43
0.792821
 10
126.074267
 20
-25.238435
 10
143.51632
 20
-25.238435
  0
LINE
  5
1358
100
AcDbEntity
  8
BORDER
100
AcDbLine
 10
126.074267
 20
-26.824076
 30
0.0
 11
143.51632
 21
-26.824076
 31
0.0
  0
LWPOLYLINE
  5
1359
100
AcDbEntity
  8
BORDER
 62
     5
100
AcDbPolyline
 90
        2
 70
     0
 43
0.792821
 10
126.074267
 20
-25.238435
 42
0.414214
 10
122.902984
 20
-28.409717
 42
-0.560527
  0
LINE
  5
135A
102
{ACAD_REACTORS
330
1353
102
}
100
AcDbEntity
  8
BORDER
100
AcDbLine
 10
131.594484
 20
-33.361503
 30
0.0
 11
131.594484
 21
-28.907549
 31
0.0
  0
LINE
  5
135B
102
{ACAD_REACTORS
330
1353
102
}
100
AcDbEntity
  8
BORDER
100
AcDbLine
 10
130.195838
 20
-33.361503
 30
0.0
 11
130.195838
 21
-28.907549
 31
0.0
  0
LINE
  5
135C
100
AcDbEntity
  8
BORDER
100
AcDbLine
 10
124.488625
 20
-36.337923
 30
0.0
 11
124.488625
 21
-28.409717
 31
0.0
  0
LWPOLYLINE
  5
135D
100
AcDbEntity
  8
BORDER
 62
     5
100
AcDbPolyline
 90
        2
 70
     0
 43
0.792821
 10
122.902984
 20
-28.409717
 10
122.902984
 20
-36.337923
  0
LINE
  5
135E
100
AcDbEntity
  8
BORDER
100
AcDbLine
 10
129.140002
 20
-34.979156
 30
0.0
 11
129.140002
 21
-36.283314
 31
0.0
  0
LINE
  5
135F
100
AcDbEntity
  8
BORDER
100
AcDbLine
 10
128.140754
 20
-34.979156
 30
0.0
 11
128.140754
 21
-36.283314
 31
0.0
  0
LINE
  5
1360
100
AcDbEntity
  8
BORDER
100
AcDbLine
 10
127.569756
 20
-34.979156
 30
0.0
 11
127.569756
 21
-36.283314
 31
0.0
  0
LINE
  5
1361
100
AcDbEntity
  8
BORDER
100
AcDbLine
 10
127.30271
 20
-34.979156
 30
0.0
 11
127.836802
 21
-34.979156
 31
0.0
  0
LINE
  5
1362
100
AcDbEntity
  8
BORDER
100
AcDbLine
 10
127.30271
 20
-36.283314
 30
0.0
 11
127.836802
 21
-36.283314
 31
0.0
  0
LINE
  5
1363
100
AcDbEntity
  8
BORDER
100
AcDbLine
 10
129.140002
 20
-36.283314
 30
0.0
 11
128.140754
 21
-34.979156
 31
0.0
  0
ARC
  5
1364
100
AcDbEntity
  8
BORDER
100
AcDbCircle
 10
130.041445
 20
-35.686087
 30
0.0
 40
0.598072
100
AcDbArc
 50
174.737783
 51
327.723969
  0
ARC
  5
1365
100
AcDbEntity
  8
BORDER
100
AcDbCircle
 10
130.087803
 20
-35.620982
 30
0.0
 40
0.641992
100
AcDbArc
 50
44.321228
 51
180.91508
  0
LINE
  5
1366
102
{ACAD_REACTORS
330
1353
102
}
100
AcDbEntity
  8
BORDER
100
AcDbLine
 10
129.125936
 20
-34.17078
 30
0.0
 11
129.386561
 21
-34.17078
 31
0.0
  0
LINE
  5
1367
102
{ACAD_REACTORS
330
1353
102
}
100
AcDbEntity
  8
BORDER
100
AcDbLine
 10
129.125936
 20
-34.17078
 30
0.0
 11
129.125936
 21
-34.339585
 31
0.0
  0
ARC
  5
1368
102
{ACAD_REACTORS
330
1353
102
}
100
AcDbEntity
  8
BORDER
100
AcDbCircle
 10
129.386561
 20
-33.361503
 30
0.0
 40
0.809277
100
AcDbArc
 50
270.0
 51
0.0
  0
ARC
  5
1369
100
AcDbEntity
  8
BORDER
100
AcDbCircle
 10
126.074267
 20
-28.409717
 30
0.0
 40
1.585641
100
AcDbArc
 50
90.0
 51
180.0
  0
ARC
  5
136A
102
{ACAD_REACTORS
330
1353
102
}
100
AcDbEntity
  8
BORDER
100
AcDbCircle
 10
129.483526
 20
-30.522743
 30
0.0
 40
1.615193
100
AcDbArc
 50
90.0
 51
179.923004
  0
LINE
  5
136B
102
{ACAD_REACTORS
330
1353
102
}
100
AcDbEntity
  8
BORDER
100
AcDbLine
 10
127.699401
 20
-30.520572
 30
0.0
 11
127.699401
 21
-28.494915
 31
0.0
  0
LINE
  5
136C
102
{ACAD_REACTORS
330
1353
102
}
100
AcDbEntity
  8
BORDER
100
AcDbLine
 10
127.699401
 20
-30.520572
 30
0.0
 11
127.868332
 21
-30.520572
 31
0.0
  0
LINE
  5
136D
102
{ACAD_REACTORS
330
1353
102
}
100
AcDbEntity
  8
BORDER
100
AcDbLine
 10
129.483526
 20
-28.907549
 30
0.0
 11
130.195838
 21
-28.907549
 31
0.0
  0
LWPOLYLINE
  5
136E
100
AcDbEntity
  8
BORDER
 62
     5
100
AcDbPolyline
 90
        2
 70
     0
 43
0.792821
 10
143.51632
 20
-25.238435
 42
-0.414214
 10
146.687603
 20
-28.409717
 42
0.560527
  0
ARC
  5
136F
102
{ACAD_REACTORS
330
1373
102
}
100
AcDbEntity
  8
BORDER
100
AcDbCircle
 10
141.264605
 20
-31.907854
 30
0.0
 40
0.747516
100
AcDbArc
 50
246.179097
 51
0.350223
  0
ARC
  5
1370
102
{ACAD_REACTORS
330
1373
102
}
100
AcDbEntity
  8
BORDER
100
AcDbCircle
 10
141.622876
 20
-31.836408
 30
0.0
 40
0.958371
100
AcDbArc
 50
265.488062
 51
358.394374
  0
ARC
  5
1371
102
{ACAD_REACTORS
330
1373
102
}
100
AcDbEntity
  8
BORDER
100
AcDbCircle
 10
141.563064
 20
-31.936364
 30
0.0
 40
1.020429
100
AcDbArc
 50
4.10812
 51
90.34444
  0
ARC
  5
1372
102
{ACAD_REACTORS
330
1373
102
}
100
AcDbEntity
  8
BORDER
100
AcDbCircle
 10
141.236549
 20
-31.892532
 30
0.0
 40
0.775633
100
AcDbArc
 50
359.205673
 51
110.674935
  0
HATCH
  5
1373
100
AcDbEntity
  8
BORDER
100
AcDbHatch
 10
0.0
 20
0.0
 30
0.0
210
0.0
220
0.0
230
1.0
  2
ANSI37
 70
     0
 71
     1
 91
        2
 92
        7
 72
     1
 73
     1
 93
       16
 10
140.4900652841145
 20
-33.89059191522279
 42
-0.4142135623729259
 10
140.1560032258575
 20
-34.22465397347954
 42
0.0
 10
140.0014093316541
 20
-34.22465397347954
 42
0.0
 10
140.0014093316542
 20
-34.31270609131838
 42
0.0
 10
141.4513553317244
 20
-34.31270609131837
 42
0.0
 10
141.4513553317244
 20
-34.22465397347954
 42
0.0
 10
141.2967614375217
 20
-34.22465397347954
 42
-0.414213562373525
 10
140.9626993792643
 20
-33.89059191522259
 42
0.0
 10
140.9626993792643
 20
-32.71976672738036
 42
0.0609117558027484
 10
141.5474843364893
 20
-32.79180900453752
 42
0.4291497434355508
 10
142.5808711376666
 20
-31.86326131297055
 42
0.3916311771497658
 10
141.5691983184086
 20
-30.91595300872779
 42
0.0
 10
140.0039211695643
 20
-30.91595300872779
 42
0.0
 10
140.0039211695643
 20
-31.00919140827651
 42
0.0
 10
140.1560032258576
 20
-31.00919140827651
 42
-0.4142135623730263
 10
140.4900652841145
 20
-31.34325346653346
 42
0.0
 97
       16
330
1371
330
13C9
330
13C5
330
13C6
330
13CA
330
1378
330
13A1
330
13A0
330
139F
330
13A2
330
139C
330
139B
330
139A
330
139E
330
139D
330
1370
 92
       22
 72
     1
 73
     1
 93
        3
 10
140.9626993792643
 20
-31.16685080588764
 42
-0.5287425889425613
 10
142.0121075029805
 20
-31.90328491170791
 42
-0.5439228899265196
 10
140.9626993792643
 20
-32.59169101079265
 42
0.0
 97
        3
330
1372
330
136F
330
1377
 75
     0
 76
     1
 52
0.0
 41
0.024567
 77
     0
 78
     2
 53
45.0
 43
121.945579
 44
-123.032227
 45
-0.0021714492614553
 46
0.0021714492614553
 79
     0
 53
135.0
 43
121.945579
 44
-123.032227
 45
-0.0021714492614553
 46
-0.0021714492614553
 79
     0
 47
0.027301
 98
        2
 10
140.686987
 20
-32.062985
 10
140.686987
 20
-32.062985
  0
LINE
  5
1374
100
AcDbEntity
  8
BORDER
100
AcDbLine
 10
141.423204
 20
-36.283314
 30
0.0
 11
141.915412
 21
-36.283314
 31
0.0
  0
LINE
  5
1375
100
AcDbEntity
  8
BORDER
100
AcDbLine
 10
141.915412
 20
-34.979156
 30
0.0
 11
141.423204
 21
-34.979156
 31
0.0
  0
LINE
  5
1376
100
AcDbEntity
  8
BORDER
100
AcDbLine
 10
134.308142
 20
-30.506483
 30
0.0
 11
142.434037
 21
-30.506483
 31
0.0
  0
LINE
  5
1377
102
{ACAD_REACTORS
330
1373
102
}
100
AcDbEntity
  8
BORDER
100
AcDbLine
 10
140.962699
 20
-31.166851
 30
0.0
 11
140.962699
 21
-32.591691
 31
0.0
  0
LINE
  5
1378
102
{ACAD_REACTORS
330
1373
102
}
100
AcDbEntity
  8
BORDER
100
AcDbLine
 10
140.490065
 20
-33.890592
 30
0.0
 11
140.490065
 21
-31.343253
 31
0.0
  0
HATCH
  5
1379
100
AcDbEntity
  8
BORDER
100
AcDbHatch
 10
0.0
 20
0.0
 30
0.0
210
0.0
220
0.0
230
1.0
  2
ANSI37
 70
     0
 71
     1
 91
        2
 92
        5
 93
        1
 72
     3
 10
135.21032
 20
-32.60949
 11
0.0
 21
1.771151
 40
0.93822
 50
0.0
 51
360.0
 73
     1
 97
        1
330
137A
 92
       20
 93
        1
 72
     3
 10
135.21032
 20
-32.599398
 11
0.0
 21
1.589494
 40
0.683214
 50
0.0
 51
360.0
 73
     1
 97
        1
330
137B
 75
     0
 76
     1
 52
0.0
 41
0.024567
 77
     0
 78
     2
 53
45.0
 43
121.945579
 44
-123.032227
 45
-0.0021714492614553
 46
0.0021714492614553
 79
     0
 53
135.0
 43
121.945579
 44
-123.032227
 45
-0.0021714492614553
 46
-0.0021714492614553
 79
     0
 47
0.027301
 98
        2
 10
134.015164
 20
-31.888601
 10
134.015164
 20
-31.888601
  0
ELLIPSE
  5
137A
102
{ACAD_REACTORS
330
1379
102
}
100
AcDbEntity
  8
BORDER
100
AcDbEllipse
 10
135.21032
 20
-32.60949
 30
0.0
 11
0.0000000000000119
 21
1.771150808641431
 31
0.0
210
0.0
220
0.0
230
1.0
 40
0.93822
 41
0.0
 42
6.283185307179586
  0
ELLIPSE
  5
137B
102
{ACAD_REACTORS
330
1379
102
}
100
AcDbEntity
  8
BORDER
100
AcDbEllipse
 10
135.21032
 20
-32.599398
 30
0.0
 11
0.0000000000000119
 21
1.589494379739458
 31
0.0
210
0.0
220
0.0
230
1.0
 40
0.683214
 41
0.0
 42
6.283185307179586
  0
HATCH
  5
137C
100
AcDbEntity
  8
BORDER
100
AcDbHatch
 10
0.0
 20
0.0
 30
0.0
210
0.0
220
0.0
230
1.0
  2
ANSI37
 70
     0
 71
     1
 91
        2
 92
        7
 72
     1
 73
     1
 93
       16
 10
137.6379415210354
 20
-33.87772366476982
 42
-0.4142135623731003
 10
137.3038794627786
 20
-34.2117857230266
 42
0.0
 10
137.1492855685753
 20
-34.2117857230266
 42
0.0
 10
137.1492855685753
 20
-34.29983784086609
 42
0.0
 10
138.5992315686458
 20
-34.29983784086609
 42
0.0
 10
138.5992315686459
 20
-34.2117857230266
 42
0.0
 10
138.4446376744424
 20
-34.2117857230266
 42
-0.4142135623731014
 10
138.1105756161857
 20
-33.87772366476984
 42
0.0
 10
138.1105756161857
 20
-32.70689847692802
 42
0.0609117558023547
 10
138.6953605734069
 20
-32.77894075408512
 42
0.4291497434370445
 10
139.7287473745874
 20
-31.85039306251663
 42
0.3916311771394165
 10
138.7170745553654
 20
-30.9030847582755
 42
0.0
 10
137.1517974064853
 20
-30.9030847582755
 42
0.0
 10
137.1517974064853
 20
-30.99632315782356
 42
0.0
 10
137.3038794627786
 20
-30.99632315782356
 42
-0.4142135623731042
 10
137.6379415210354
 20
-31.33038521608034
 42
0.0
 97
        1
330
137D
 92
       22
 72
     1
 73
     1
 93
        3
 10
138.1105756161857
 20
-31.15398255543555
 42
-0.5287425889468295
 10
139.1599837399018
 20
-31.89041666126608
 42
-0.5439228899216531
 10
138.1105756161857
 20
-32.57882276033987
 42
0.0
 97
        1
330
137E
 75
     0
 76
     1
 52
0.0
 41
0.024567
 77
     0
 78
     2
 53
45.0
 43
121.945579
 44
-123.032227
 45
-0.0021714492614553
 46
0.0021714492614553
 79
     0
 53
135.0
 43
121.945579
 44
-123.032227
 45
-0.0021714492614553
 46
-0.0021714492614553
 79
     0
 47
0.027301
 98
        2
 10
137.827634
 20
-31.767873
 10
137.827634
 20
-31.767873
  0
LWPOLYLINE
  5
137D
102
{ACAD_REACTORS
330
137C
102
}
100
AcDbEntity
  8
BORDER
100
AcDbPolyline
 90
       17
 70
     0
 43
0.0
 10
138.695361
 20
-32.778941
 42
-0.060912
 10
138.110576
 20
-32.706898
 10
138.110576
 20
-33.877724
 42
0.414214
 10
138.444638
 20
-34.211786
 10
138.599232
 20
-34.211786
 10
138.599232
 20
-34.299838
 10
137.149286
 20
-34.299838
 10
137.149286
 20
-34.211786
 10
137.303879
 20
-34.211786
 42
0.414214
 10
137.637942
 20
-33.877724
 10
137.637942
 20
-31.330385
 42
0.414214
 10
137.303879
 20
-30.996323
 10
137.151797
 20
-30.996323
 10
137.151797
 20
-30.903085
 10
138.704806
 20
-30.903085
 42
-0.395102
 10
139.728747
 20
-31.850393
 42
-0.42915
 10
138.695361
 20
-32.778941
  0
LWPOLYLINE
  5
137E
102
{ACAD_REACTORS
330
137C
102
}
100
AcDbEntity
  8
BORDER
100
AcDbPolyline
 90
        3
 70
     1
 43
0.0
 10
138.110576
 20
-32.578823
 42
0.543923
 10
139.159984
 20
-31.890417
 42
0.528743
 10
138.110576
 20
-31.153983
  0
LINE
  5
137F
100
AcDbEntity
  8
BORDER
100
AcDbLine
 10
136.310364
 20
-35.64786
 30
0.0
 11
136.761217
 21
-35.64786
 31
0.0
  0
LINE
  5
1380
100
AcDbEntity
  8
BORDER
100
AcDbLine
 10
136.761217
 20
-34.979156
 30
0.0
 11
136.310364
 21
-34.979156
 31
0.0
  0
LINE
  5
1381
100
AcDbEntity
  8
BORDER
100
AcDbLine
 10
136.667325
 20
-35.64786
 30
0.0
 11
137.185075
 21
-36.283314
 31
0.0
  0
ARC
  5
1382
100
AcDbEntity
  8
BORDER
100
AcDbCircle
 10
134.094226
 20
-35.313508
 30
0.0
 40
0.334352
100
AcDbArc
 50
270.0
 51
90.0
  0
LINE
  5
1383
100
AcDbEntity
  8
BORDER
100
AcDbLine
 10
134.094226
 20
-34.979156
 30
0.0
 11
133.755739
 21
-34.979156
 31
0.0
  0
LINE
  5
1384
100
AcDbEntity
  8
BORDER
100
AcDbLine
 10
133.755739
 20
-35.64786
 30
0.0
 11
134.094226
 21
-35.64786
 31
0.0
  0
LINE
  5
1385
100
AcDbEntity
  8
BORDER
100
AcDbLine
 10
133.755739
 20
-34.979156
 30
0.0
 11
133.755739
 21
-36.283314
 31
0.0
  0
ARC
  5
1386
100
AcDbEntity
  8
BORDER
100
AcDbCircle
 10
132.828913
 20
-35.313508
 30
0.0
 40
0.334352
100
AcDbArc
 50
270.0
 51
90.0
  0
LINE
  5
1387
100
AcDbEntity
  8
BORDER
100
AcDbLine
 10
132.73502
 20
-35.64786
 30
0.0
 11
133.252771
 21
-36.283314
 31
0.0
  0
LINE
  5
1388
100
AcDbEntity
  8
BORDER
100
AcDbLine
 10
132.828913
 20
-34.979156
 30
0.0
 11
132.37806
 21
-34.979156
 31
0.0
  0
LINE
  5
1389
100
AcDbEntity
  8
BORDER
100
AcDbLine
 10
132.37806
 20
-35.64786
 30
0.0
 11
132.828913
 21
-35.64786
 31
0.0
  0
LINE
  5
138A
100
AcDbEntity
  8
BORDER
100
AcDbLine
 10
132.37806
 20
-34.979156
 30
0.0
 11
132.37806
 21
-36.283314
 31
0.0
  0
LINE
  5
138B
100
AcDbEntity
  8
BORDER
100
AcDbLine
 10
136.310364
 20
-34.979156
 30
0.0
 11
136.310364
 21
-36.283314
 31
0.0
  0
SPLINE
  5
138C
100
AcDbEntity
  8
BORDER
100
AcDbSpline
210
0.0
220
0.0
230
1.0
 70
    11
 71
     3
 72
    24
 73
    20
 74
     0
 42
0.0000001
 43
0.0000001
 40
0.0
 40
0.0
 40
0.0
 40
0.0
 40
0.474866629778075
 40
0.474866629778075
 40
1.277791044886493
 40
1.277791044886493
 40
2.080715459994911
 40
2.080715459994911
 40
2.883639875103329
 40
2.883639875103329
 40
3.686564290211747
 40
3.686564290211747
 40
4.489488705320165
 40
4.489488705320165
 40
5.292413120428583
 40
5.292413120428583
 40
6.095337535537001
 40
6.095337535537001
 40
6.283185307179586
 40
6.283185307179586
 40
6.283185307179586
 40
6.283185307179586
 10
135.2827725228791
 20
-34.96146808859612
 30
0.0
 10
135.1770730727656
 20
-34.96146808859612
 30
0.0
 10
135.0714626584345
 20
-34.98710726529957
 30
0.0
 10
134.8185255791575
 20
-35.11755523511102
 30
0.0
 10
134.6951269515676
 20
-35.26619388343326
 30
0.0
 10
134.591910457335
 20
-35.60940743818416
 30
0.0
 10
134.6127787865973
 20
-35.80168286939224
 30
0.0
 10
134.7872152423642
 20
-36.11458142611336
 30
0.0
 10
134.9396209564788
 20
-36.23310320004553
 30
0.0
 10
135.2852311553123
 20
-36.32457475266672
 30
0.0
 10
135.4761073771346
 20
-36.29690347138857
 30
0.0
 10
135.7817504081073
 20
-36.11103301185973
 30
0.0
 10
135.8944648265558
 20
-35.95409174316644
 30
0.0
 10
135.9734617754362
 20
-35.60447127177441
 30
0.0
 10
135.9392193992317
 20
-35.41413323573714
 30
0.0
 10
135.743359832208
 20
-35.1142561888135
 30
0.0
 10
135.583049056261
 20
-35.00673301058081
 30
0.0
 10
135.366396842662
 20
-34.96541929784661
 30
0.0
 10
135.3245851180848
 20
-34.96146808859612
 30
0.0
 10
135.2827725228791
 20
-34.96146808859612
 30
0.0
  0
LINE
  5
138D
102
{ACAD_REACTORS
330
1353
102
}
100
AcDbEntity
  8
BORDER
100
AcDbLine
 10
132.664386
 20
-34.17078
 30
0.0
 11
132.403761
 21
-34.17078
 31
0.0
  0
LINE
  5
138E
102
{ACAD_REACTORS
330
1353
102
}
100
AcDbEntity
  8
BORDER
100
AcDbLine
 10
132.664386
 20
-34.17078
 30
0.0
 11
132.664386
 21
-34.339585
 31
0.0
  0
LINE
  5
138F
100
AcDbEntity
  8
BORDER
100
AcDbLine
 10
138.824982
 20
-34.979156
 30
0.0
 11
139.930065
 21
-34.979156
 31
0.0
  0
LINE
  5
1390
100
AcDbEntity
  8
BORDER
100
AcDbLine
 10
138.04253
 20
-34.979156
 30
0.0
 11
137.543018
 21
-36.283314
 31
0.0
  0
ARC
  5
1391
100
AcDbEntity
  8
BORDER
100
AcDbCircle
 10
136.761217
 20
-35.313508
 30
0.0
 40
0.334352
100
AcDbArc
 50
270.0
 51
90.0
  0
LINE
  5
1392
100
AcDbEntity
  8
BORDER
100
AcDbLine
 10
137.725152
 20
-35.807786
 30
0.0
 11
138.371163
 21
-35.807786
 31
0.0
  0
LINE
  5
1393
100
AcDbEntity
  8
BORDER
100
AcDbLine
 10
138.559756
 20
-36.283314
 30
0.0
 11
138.04253
 21
-34.979156
 31
0.0
  0
LINE
  5
1394
100
AcDbEntity
  8
BORDER
100
AcDbLine
 10
141.423204
 20
-34.979156
 30
0.0
 11
141.423204
 21
-36.283314
 31
0.0
  0
LINE
  5
1395
100
AcDbEntity
  8
BORDER
100
AcDbLine
 10
139.377524
 20
-34.979156
 30
0.0
 11
139.377524
 21
-36.283314
 31
0.0
  0
LINE
  5
1396
100
AcDbEntity
  8
BORDER
100
AcDbLine
 10
140.218347
 20
-36.283314
 30
0.0
 11
140.218347
 21
-34.979156
 31
0.0
  0
LINE
  5
1397
100
AcDbEntity
  8
BORDER
100
AcDbLine
 10
140.218347
 20
-34.979156
 30
0.0
 11
141.059751
 21
-34.979156
 31
0.0
  0
LINE
  5
1398
100
AcDbEntity
  8
BORDER
100
AcDbLine
 10
141.059751
 20
-36.283314
 30
0.0
 11
140.218347
 21
-36.283314
 31
0.0
  0
LINE
  5
1399
100
AcDbEntity
  8
BORDER
100
AcDbLine
 10
140.218347
 20
-35.631235
 30
0.0
 11
140.77789
 21
-35.631235
 31
0.0
  0
ARC
  5
139A
102
{ACAD_REACTORS
330
1373
102
}
100
AcDbEntity
  8
BORDER
100
AcDbCircle
 10
141.296761
 20
-33.890592
 30
0.0
 40
0.334062
100
AcDbArc
 50
180.0
 51
270.0
  0
LINE
  5
139B
102
{ACAD_REACTORS
330
1373
102
}
100
AcDbEntity
  8
BORDER
100
AcDbLine
 10
141.296761
 20
-34.224654
 30
0.0
 11
141.451355
 21
-34.224654
 31
0.0
  0
LINE
  5
139C
102
{ACAD_REACTORS
330
1373
102
}
100
AcDbEntity
  8
BORDER
100
AcDbLine
 10
141.451355
 20
-34.224654
 30
0.0
 11
141.451355
 21
-34.312706
 31
0.0
  0
ARC
  5
139D
102
{ACAD_REACTORS
330
1373
102
}
100
AcDbEntity
  8
BORDER
100
AcDbCircle
 10
141.549678
 20
-30.364561
 30
0.0
 40
2.427249
100
AcDbArc
 50
256.005504
 51
269.948223
  0
LINE
  5
139E
102
{ACAD_REACTORS
330
1373
102
}
100
AcDbEntity
  8
BORDER
100
AcDbLine
 10
140.962699
 20
-32.719767
 30
0.0
 11
140.962699
 21
-33.890592
 31
0.0
  0
LINE
  5
139F
102
{ACAD_REACTORS
330
1373
102
}
100
AcDbEntity
  8
BORDER
100
AcDbLine
 10
140.001409
 20
-34.224654
 30
0.0
 11
140.001409
 21
-34.312706
 31
0.0
  0
LINE
  5
13A0
102
{ACAD_REACTORS
330
1373
102
}
100
AcDbEntity
  8
BORDER
100
AcDbLine
 10
140.001409
 20
-34.224654
 30
0.0
 11
140.156003
 21
-34.224654
 31
0.0
  0
ARC
  5
13A1
102
{ACAD_REACTORS
330
1373
102
}
100
AcDbEntity
  8
BORDER
100
AcDbCircle
 10
140.156003
 20
-33.890592
 30
0.0
 40
0.334062
100
AcDbArc
 50
270.0
 51
360.0
  0
LINE
  5
13A2
102
{ACAD_REACTORS
330
1373
102
}
100
AcDbEntity
  8
BORDER
100
AcDbLine
 10
140.001409
 20
-34.312706
 30
0.0
 11
141.451355
 21
-34.312706
 31
0.0
  0
ARC
  5
13A3
102
{ACAD_REACTORS
330
1353
102
}
100
AcDbEntity
  8
BORDER
100
AcDbCircle
 10
132.306796
 20
-30.522743
 30
0.0
 40
1.615193
100
AcDbArc
 50
0.076996
 51
90.0
  0
LINE
  5
13A4
102
{ACAD_REACTORS
330
1353
102
}
100
AcDbEntity
  8
BORDER
100
AcDbLine
 10
134.090922
 20
-30.520572
 30
0.0
 11
134.090922
 21
-28.494915
 31
0.0
  0
LINE
  5
13A5
102
{ACAD_REACTORS
330
1353
102
}
100
AcDbEntity
  8
BORDER
100
AcDbLine
 10
134.090922
 20
-30.520572
 30
0.0
 11
133.92199
 21
-30.520572
 31
0.0
  0
ARC
  5
13A6
100
AcDbEntity
  8
BORDER
100
AcDbCircle
 10
136.223794
 20
-29.591937
 30
0.0
 40
0.475992
100
AcDbArc
 50
270.0
 51
90.0
  0
LINE
  5
13A7
100
AcDbEntity
  8
BORDER
100
AcDbLine
 10
136.021149
 20
-29.115945
 30
0.0
 11
136.021149
 21
-30.067929
 31
0.0
  0
LINE
  5
13A8
100
AcDbEntity
  8
BORDER
100
AcDbLine
 10
136.223794
 20
-29.115945
 30
0.0
 11
136.021149
 21
-29.115945
 31
0.0
  0
LINE
  5
13A9
100
AcDbEntity
  8
BORDER
100
AcDbLine
 10
136.021149
 20
-30.067929
 30
0.0
 11
136.223794
 21
-30.067929
 31
0.0
  0
LINE
  5
13AA
100
AcDbEntity
  8
BORDER
100
AcDbLine
 10
135.616578
 20
-30.067929
 30
0.0
 11
134.964043
 21
-29.096042
 31
0.0
  0
LINE
  5
13AB
100
AcDbEntity
  8
BORDER
100
AcDbLine
 10
134.964043
 20
-29.096042
 30
0.0
 11
134.964043
 21
-30.067929
 31
0.0
  0
LINE
  5
13AC
100
AcDbEntity
  8
BORDER
100
AcDbLine
 10
135.616578
 20
-29.115945
 30
0.0
 11
135.616578
 21
-30.067929
 31
0.0
  0
LINE
  5
13AD
100
AcDbEntity
  8
BORDER
100
AcDbLine
 10
134.386817
 20
-29.115945
 30
0.0
 11
134.53337
 21
-29.115945
 31
0.0
  0
LINE
  5
13AE
100
AcDbEntity
  8
BORDER
100
AcDbLine
 10
134.53337
 20
-29.115945
 30
0.0
 11
134.53337
 21
-30.067929
 31
0.0
  0
LINE
  5
13AF
100
AcDbEntity
  8
BORDER
100
AcDbLine
 10
134.53337
 20
-29.115945
 30
0.0
 11
134.679922
 21
-29.115945
 31
0.0
  0
LINE
  5
13B0
100
AcDbEntity
  8
BORDER
100
AcDbLine
 10
134.386817
 20
-30.067929
 30
0.0
 11
134.679922
 21
-30.067929
 31
0.0
  0
LINE
  5
13B1
100
AcDbEntity
  8
BORDER
100
AcDbLine
 10
138.712477
 20
-29.115945
 30
0.0
 11
139.494686
 21
-29.115945
 31
0.0
  0
ARC
  5
13B2
100
AcDbEntity
  8
BORDER
100
AcDbCircle
 10
138.424996
 20
-29.834174
 30
0.0
 40
0.134431
100
AcDbArc
 50
331.630608
 51
60.315223
  0
LINE
  5
13B3
100
AcDbEntity
  8
BORDER
100
AcDbLine
 10
139.103582
 20
-29.115945
 30
0.0
 11
139.103582
 21
-30.067929
 31
0.0
  0
ARC
  5
13B4
100
AcDbEntity
  8
BORDER
100
AcDbCircle
 10
137.358846
 20
-29.748187
 30
0.0
 40
0.319742
100
AcDbArc
 50
180.0
 51
0.0
  0
LINE
  5
13B5
100
AcDbEntity
  8
BORDER
100
AcDbLine
 10
137.039104
 20
-29.748187
 30
0.0
 11
137.039104
 21
-29.115945
 31
0.0
  0
LINE
  5
13B6
100
AcDbEntity
  8
BORDER
100
AcDbLine
 10
137.678589
 20
-29.115945
 30
0.0
 11
137.678589
 21
-29.748187
 31
0.0
  0
ARC
  5
13B7
100
AcDbEntity
  8
BORDER
100
AcDbCircle
 10
138.101153
 20
-29.318893
 30
0.0
 40
0.134431
100
AcDbArc
 50
140.101426
 51
236.383068
  0
ARC
  5
13B8
100
AcDbEntity
  8
BORDER
100
AcDbCircle
 10
142.432751
 20
-22.803492
 30
0.0
 40
7.958318
100
AcDbArc
 50
236.383068
 51
240.315223
  0
ARC
  5
13B9
100
AcDbEntity
  8
BORDER
100
AcDbCircle
 10
138.272317
 20
-29.766045
 30
0.0
 40
0.301409
100
AcDbArc
 50
200.502447
 51
334.026213
  0
ARC
  5
13BA
100
AcDbEntity
  8
BORDER
100
AcDbCircle
 10
138.233994
 20
-29.410176
 30
0.0
 40
0.295287
100
AcDbArc
 50
25.379638
 51
143.047804
  0
LINE
  5
13BB
100
AcDbEntity
  8
BORDER
100
AcDbLine
 10
141.163821
 20
-29.591937
 30
0.0
 11
141.611911
 21
-29.591937
 31
0.0
  0
LINE
  5
13BC
100
AcDbEntity
  8
BORDER
100
AcDbLine
 10
140.576057
 20
-29.115945
 30
0.0
 11
140.869161
 21
-29.115945
 31
0.0
  0
LINE
  5
13BD
100
AcDbEntity
  8
BORDER
100
AcDbLine
 10
140.576057
 20
-30.067929
 30
0.0
 11
140.869161
 21
-30.067929
 31
0.0
  0
LINE
  5
13BE
100
AcDbEntity
  8
BORDER
100
AcDbLine
 10
140.722609
 20
-29.115945
 30
0.0
 11
140.722609
 21
-30.067929
 31
0.0
  0
LINE
  5
13BF
100
AcDbEntity
  8
BORDER
100
AcDbLine
 10
141.163821
 20
-30.067929
 30
0.0
 11
141.163821
 21
-29.115945
 31
0.0
  0
LINE
  5
13C0
100
AcDbEntity
  8
BORDER
100
AcDbLine
 10
141.163821
 20
-29.115945
 30
0.0
 11
141.73686
 21
-29.115945
 31
0.0
  0
LINE
  5
13C1
100
AcDbEntity
  8
BORDER
100
AcDbLine
 10
141.73686
 20
-30.067929
 30
0.0
 11
141.163821
 21
-30.067929
 31
0.0
  0
LINE
  5
13C2
100
AcDbEntity
  8
BORDER
100
AcDbLine
 10
140.043031
 20
-29.115945
 30
0.0
 11
139.696756
 21
-29.115945
 31
0.0
  0
LINE
  5
13C3
100
AcDbEntity
  8
BORDER
100
AcDbLine
 10
139.696756
 20
-29.596524
 30
0.0
 11
140.043031
 21
-29.596524
 31
0.0
  0
LINE
  5
13C4
100
AcDbEntity
  8
BORDER
100
AcDbLine
 10
139.696756
 20
-29.115945
 30
0.0
 11
139.696756
 21
-30.067929
 31
0.0
  0
LINE
  5
13C5
102
{ACAD_REACTORS
330
1373
102
}
100
AcDbEntity
  8
BORDER
100
AcDbLine
 10
140.003921
 20
-30.915953
 30
0.0
 11
140.003921
 21
-31.009191
 31
0.0
  0
LINE
  5
13C6
102
{ACAD_REACTORS
330
1373
102
}
100
AcDbEntity
  8
BORDER
100
AcDbLine
 10
140.003921
 20
-31.009191
 30
0.0
 11
140.156003
 21
-31.009191
 31
0.0
  0
ARC
  5
13C7
100
AcDbEntity
  8
BORDER
100
AcDbCircle
 10
140.043031
 20
-29.356235
 30
0.0
 40
0.24029
100
AcDbArc
 50
270.0
 51
90.0
  0
LINE
  5
13C8
100
AcDbEntity
  8
BORDER
100
AcDbLine
 10
139.976653
 20
-29.596524
 30
0.0
 11
140.278579
 21
-30.067929
 31
0.0
  0
LINE
  5
13C9
102
{ACAD_REACTORS
330
1373
102
}
100
AcDbEntity
  8
BORDER
100
AcDbLine
 10
140.003921
 20
-30.915953
 30
0.0
 11
141.569198
 21
-30.915953
 31
0.0
  0
ARC
  5
13CA
102
{ACAD_REACTORS
330
1373
102
}
100
AcDbEntity
  8
BORDER
100
AcDbCircle
 10
140.156003
 20
-31.343253
 30
0.0
 40
0.334062
100
AcDbArc
 50
0.0
 51
90.0
  0
LINE
  5
13CB
100
AcDbEntity
  8
BORDER
100
AcDbLine
 10
149.858885
 20
-33.166641
 30
0.0
 11
149.858885
 21
-28.409717
 31
0.0
  0
ARC
  5
13CC
100
AcDbEntity
  8
BORDER
100
AcDbCircle
 10
141.915412
 20
-35.631235
 30
0.0
 40
0.652079
100
AcDbArc
 50
270.0
 51
90.0
  0
ARC
  5
13CD
100
AcDbEntity
  8
BORDER
100
AcDbCircle
 10
142.061048
 20
-29.318893
 30
0.0
 40
0.134431
100
AcDbArc
 50
140.101426
 51
236.383068
  0
ARC
  5
13CE
100
AcDbEntity
  8
BORDER
100
AcDbCircle
 10
146.392646
 20
-22.803492
 30
0.0
 40
7.958318
100
AcDbArc
 50
236.383068
 51
240.315223
  0
ARC
  5
13CF
100
AcDbEntity
  8
BORDER
100
AcDbCircle
 10
142.384891
 20
-29.834174
 30
0.0
 40
0.134431
100
AcDbArc
 50
331.630608
 51
60.315223
  0
ARC
  5
13D0
100
AcDbEntity
  8
BORDER
100
AcDbCircle
 10
142.193889
 20
-29.410176
 30
0.0
 40
0.295287
100
AcDbArc
 50
25.379638
 51
143.047804
  0
ARC
  5
13D1
100
AcDbEntity
  8
BORDER
100
AcDbCircle
 10
142.232212
 20
-29.766045
 30
0.0
 40
0.301409
100
AcDbArc
 50
200.502447
 51
334.026213
  0
ARC
  5
13D2
100
AcDbEntity
  8
BORDER
100
AcDbCircle
 10
143.51632
 20
-28.409717
 30
0.0
 40
1.585641
100
AcDbArc
 50
0.0
 51
90.0
  0
ARC
  5
13D3
100
AcDbEntity
  8
BORDER
100
AcDbCircle
 10
151.444526
 20
-28.409717
 30
0.0
 40
1.585641
100
AcDbArc
 50
90.0
 51
180.0
  0
LINE
  5
13D4
100
AcDbEntity
  8
BORDER
100
AcDbLine
 10
191.916546
 20
-34.305691
 30
0.0
 11
191.916546
 21
-37.923565
 31
0.0
  0
LINE
  5
13D5
100
AcDbEntity
  8
BORDER
100
AcDbLine
 10
174.027901
 20
-37.923565
 30
0.0
 11
174.027901
 21
-34.305691
 31
0.0
  0
LINE
  5
13D6
100
AcDbEntity
  8
BORDER
100
AcDbLine
 10
174.027901
 20
-37.923565
 30
0.0
 11
191.916546
 21
-37.923565
 31
0.0
  0
TEXT
  5
13D7
100
AcDbEntity
  8
BORDER
 62
     6
100
AcDbText
 10
154.199162
 20
-28.404565
 30
0.0
 40
0.818155
  1
12 GAGE x 28" OD STEEL
  7
ROMANC
100
AcDbText
  0
TEXT
  5
13D8
100
AcDbEntity
  8
BORDER
 62
     6
100
AcDbText
 10
153.829361
 20
-35.370002
 30
0.0
 40
0.604723
  1
Highway 25 North P.O. Box 420
  7
ROMANC
100
AcDbText
  0
TEXT
  5
13D9
100
AcDbEntity
  8
BORDER
 62
     6
100
AcDbText
 10
156.433471
 20
-36.443936
 30
0.0
 40
0.604723
  1
Rochester, IN  46975
  7
ROMANC
100
AcDbText
  0
TEXT
  5
13DA
100
AcDbEntity
  8
BORDER
 62
     6
100
AcDbText
 10
161.322796
 20
-32.046688
 30
0.0
 40
0.711439
  1
C24-12SSA
  7
ROMANC
100
AcDbText
  0
TEXT
  5
13DB
100
AcDbEntity
  8
BORDER
 62
     6
100
AcDbText
 10
180.881946
 20
-29.644531
 30
0.0
 40
0.970338
  1
RM
  7
COUNTRYBLUEPRINT
100
AcDbText
  0
LINE
  5
13DC
100
AcDbEntity
  8
BORDER
100
AcDbLine
 10
174.027901
 20
-34.305691
 30
0.0
 11
191.916546
 21
-34.305691
 31
0.0
  0
TEXT
  5
13DD
100
AcDbEntity
  8
BORDER
 62
     6
100
AcDbText
 10
174.393454
 20
-35.543632
 30
0.0
 40
0.711439
  1
Supersedes Prints
  7
ROMANC
100
AcDbText
  0
TEXT
  5
13DE
100
AcDbEntity
  8
BORDER
 62
     6
100
AcDbText
 10
174.352899
 20
-32.959009
 30
0.0
 40
0.711439
  1
Date: 02/24/04
  7
ROMANC
100
AcDbText
  0
LINE
  5
13DF
100
AcDbEntity
  8
BORDER
100
AcDbLine
 10
174.027901
 20
-33.166641
 30
0.0
 11
174.027901
 21
-26.824076
 31
0.0
  0
TEXT
  5
13E0
100
AcDbEntity
  8
BORDER
 62
     6
100
AcDbText
 10
174.393454
 20
-36.695486
 30
0.0
 40
0.711439
  1
Prior To:
  7
ROMANC
100
AcDbText
  0
TEXT
  5
13E1
100
AcDbEntity
  8
BORDER
 62
     6
100
AcDbText
 10
174.352899
 20
-29.568763
 30
0.0
 40
0.711439
  1
Drawn By:
  7
ROMANC
100
AcDbText
  0
TEXT
  5
13E2
100
AcDbEntity
  8
BORDER
 62
     6
100
AcDbText
 10
174.352899
 20
-31.263886
 30
0.0
 40
0.711439
  1
Appv'd By: .
  7
ROMANC
100
AcDbText
  0
TEXT
  5
13E3
100
AcDbEntity
  8
BORDER
 62
     6
100
AcDbText
 10
174.352899
 20
-27.87364
 30
0.0
 40
0.711439
  1
Scale: None
  7
ROMANC
100
AcDbText
  0
TEXT
  5
13E4
100
AcDbEntity
  8
BORDER
 62
     6
100
AcDbText
 10
182.044526
 20
-37.286493
 30
0.0
 40
0.911744
  1
02/24/04
  7
ROMAND
100
AcDbText
  0
TEXT
  5
1417
100
AcDbEntity
  8
BORDER
 62
     6
100
AcDbText
 10
219.0087
 20
-30.841715
 30
0.0
 40
0.792821
  1
First Released 06/27/03
  7
ROMAND
100
AcDbText
  0
LINE
  5
1418
100
AcDbEntity
  8
BORDER
100
AcDbLine
 10
234.728859
 20
-37.923565
 30
0.0
 11
215.701165
 21
-37.923565
 31
0.0
  0
LINE
  5
1419
100
AcDbEntity
  8
BORDER
100
AcDbLine
 10
234.728859
 20
-35.996401
 30
0.0
 11
217.286806
 21
-35.996401
 31
0.0
  0
LINE
  5
141A
100
AcDbEntity
  8
BORDER
100
AcDbLine
 10
234.728859
 20
-34.41076
 30
0.0
 11
217.286806
 21
-34.41076
 31
0.0
  0
LINE
  5
141B
100
AcDbEntity
  8
BORDER
100
AcDbLine
 10
234.728859
 20
-32.825119
 30
0.0
 11
217.286806
 21
-32.825119
 31
0.0
  0
LINE
  5
141C
100
AcDbEntity
  8
BORDER
100
AcDbLine
 10
234.728859
 20
-31.239478
 30
0.0
 11
217.286806
 21
-31.239478
 31
0.0
  0
LINE
  5
141D
100
AcDbEntity
  8
BORDER
100
AcDbLine
 10
234.728859
 20
-29.653836
 30
0.0
 11
217.286806
 21
-29.653836
 31
0.0
  0
LINE
  5
141E
100
AcDbEntity
  8
BORDER
100
AcDbLine
 10
234.728859
 20
-26.824076
 30
0.0
 11
217.286806
 21
-26.824076
 31
0.0
  0
LWPOLYLINE
  5
141F
100
AcDbEntity
  8
BORDER
 62
     5
100
AcDbPolyline
 90
        2
 70
     0
 43
0.792821
 10
234.728859
 20
-25.238435
 10
217.286806
 20
-25.238435
  0
LINE
  5
1420
100
AcDbEntity
  8
BORDER
100
AcDbLine
 10
215.701165
 20
-37.923565
 30
0.0
 11
215.701165
 21
-28.409717
 31
0.0
  0
LWPOLYLINE
  5
1421
100
AcDbEntity
  8
BORDER
 62
     5
100
AcDbPolyline
 90
        2
 70
     0
 43
0.792821
 10
214.115523
 20
-37.923565
 10
214.115523
 20
-28.409717
  0
LWPOLYLINE
  5
1422
100
AcDbEntity
  8
BORDER
 62
     5
100
AcDbPolyline
 90
        2
 70
     0
 43
0.792821
 10
212.529882
 20
-37.923565
 10
212.529882
 20
-28.409717
  0
LINE
  5
1423
100
AcDbEntity
  8
BORDER
100
AcDbLine
 10
210.944241
 20
-34.305691
 30
0.0
 11
210.944241
 21
-37.923565
 31
0.0
  0
LINE
  5
1424
100
AcDbEntity
  8
BORDER
100
AcDbLine
 10
193.055596
 20
-34.305691
 30
0.0
 11
193.055596
 21
-37.923565
 31
0.0
  0
LINE
  5
1425
100
AcDbEntity
  8
BORDER
100
AcDbLine
 10
193.055596
 20
-37.923565
 30
0.0
 11
210.944241
 21
-37.923565
 31
0.0
  0
LWPOLYLINE
  5
1426
100
AcDbEntity
  8
BORDER
 62
     5
100
AcDbPolyline
 90
        2
 70
     0
 43
0.792821
 10
209.3586
 20
-25.238435
 42
-0.414214
 10
212.529882
 20
-28.409717
 42
0.560527
  0
TEXT
  5
1427
100
AcDbEntity
  8
BORDER
 62
     6
100
AcDbText
 10
199.515014
 20
-37.114782
 30
0.0
 40
2.134318
  1
15102
  7
ROMANC
100
AcDbText
  0
LINE
  5
1428
100
AcDbEntity
  8
BORDER
100
AcDbLine
 10
193.055596
 20
-34.305691
 30
0.0
 11
210.944241
 21
-34.305691
 31
0.0
  0
TEXT
  5
1429
100
AcDbEntity
  8
BORDER
 62
     6
100
AcDbText
 10
193.430012
 20
-35.464795
 30
0.0
 40
0.711439
  1
Reference
  7
ROMANC
100
AcDbText
  0
TEXT
  5
142A
100
AcDbEntity
  8
BORDER
 62
     6
100
AcDbText
 10
193.430012
 20
-36.616649
 30
0.0
 40
0.711439
  1
No:
  7
ROMANC
100
AcDbText
  0
LINE
  5
142B
100
AcDbEntity
  8
BORDER
100
AcDbLine
 10
210.944241
 20
-28.409717
 30
0.0
 11
210.944241
 21
-33.166641
 31
0.0
  0
ARC
  5
142C
100
AcDbEntity
  8
BORDER
100
AcDbCircle
 10
209.3586
 20
-28.409717
 30
0.0
 40
1.585641
100
AcDbArc
 50
0.0
 51
90.0
  0
LWPOLYLINE
  5
142D
100
AcDbEntity
  8
BORDER
 62
     5
100
AcDbPolyline
 90
        2
 70
     0
 43
0.792821
 10
217.286806
 20
-25.238435
 42
0.414214
 10
214.115523
 20
-28.409717
 42
-0.560527
  0
TEXT
  5
142E
100
AcDbEntity
  8
BORDER
 62
     6
100
AcDbText
 10
221.778802
 20
-28.943687
 30
0.0
 40
1.067159
  1
Revisions
  7
ROMANC
100
AcDbText
  0
LINE
  5
142F
100
AcDbEntity
  8
BORDER
100
AcDbLine
 10
218.872447
 20
-29.653836
 30
0.0
 11
218.872447
 21
-35.996401
 31
0.0
  0
LINE
  5
1430
100
AcDbEntity
  8
BORDER
100
AcDbLine
 10
217.286806
 20
-29.653836
 30
0.0
 11
217.286806
 21
-35.996401
 31
0.0
  0
ARC
  5
1431
100
AcDbEntity
  8
BORDER
100
AcDbCircle
 10
217.286806
 20
-28.409717
 30
0.0
 40
1.585641
100
AcDbArc
 50
90.0
 51
180.0
  0
LWPOLYLINE
  5
1432
100
AcDbEntity
  8
BORDER
100
AcDbPolyline
 90
        6
 70
     1
 43
0.0
 10
218.417206
 20
-31.034613
 10
218.755028
 20
-30.449489
 10
218.417206
 20
-29.864365
 10
217.741563
 20
-29.864365
 10
217.403742
 20
-30.449489
 10
217.741563
 20
-31.034613
  0
TEXT
  5
1433
100
AcDbEntity
  8
BORDER
 62
     6
100
AcDbText
 10
217.702856
 20
-30.841715
 30
0.0
 40
0.792821
  1
1
  7
ROMAND
100
AcDbText
  0
ARC
  5
1434
100
AcDbEntity
  8
BORDER
100
AcDbCircle
 10
234.728859
 20
-36.337923
 30
0.0
 40
1.585641
100
AcDbArc
 50
270.0
 51
0.0
  0
LWPOLYLINE
  5
1435
100
AcDbEntity
  8
BORDER
 62
     5
100
AcDbPolyline
 90
        2
 70
     0
 43
0.792821
 10
234.728859
 20
-39.509206
 42
0.414214
 10
237.900142
 20
-36.337923
 42
-0.560527
  0
LWPOLYLINE
  5
1436
100
AcDbEntity
  8
BORDER
 62
     5
100
AcDbPolyline
 90
        2
 70
     0
 43
0.792821
 10
234.728859
 20
-25.238435
 42
-0.414214
 10
237.900142
 20
-28.409717
 42
0.560527
  0
LWPOLYLINE
  5
1437
100
AcDbEntity
  8
BORDER
 62
     5
100
AcDbPolyline
 90
        2
 70
     0
 43
0.792821
 10
237.900142
 20
-28.409717
 10
237.900142
 20
-36.337923
  0
LINE
  5
1438
100
AcDbEntity
  8
BORDER
100
AcDbLine
 10
234.728859
 20
-29.653836
 30
0.0
 11
234.728859
 21
-35.996401
 31
0.0
  0
LINE
  5
1439
100
AcDbEntity
  8
BORDER
100
AcDbLine
 10
236.314501
 20
-36.337923
 30
0.0
 11
236.314501
 21
-28.409717
 31
0.0
  0
ARC
  5
143A
100
AcDbEntity
  8
BORDER
100
AcDbCircle
 10
234.728859
 20
-28.409717
 30
0.0
 40
1.585641
100
AcDbArc
 50
0.0
 51
90.0
  0
LWPOLYLINE
  5
143B
100
AcDbEntity
  8
BORDER
 62
     5
100
AcDbPolyline
 90
        2
 70
     0
 43
0.317128
 10
236.631629
 20
110.168757
 10
124.171497
 20
110.168757
  0
LINE
  5
143C
100
AcDbEntity
  8
BORDER
 62
     5
100
AcDbLine
 10
236.631629
 20
110.168757
 30
0.0
 11
124.171497
 21
110.168757
 31
0.0
  0
LINE
  5
143D
100
AcDbEntity
  8
LIMITS
 62
     7
100
AcDbLine
 10
240.437168
 20
112.705783
 30
0.0
 11
120.365958
 21
112.705783
 31
0.0
  0
TEXT
  5
1517
100
AcDbEntity
  8
BORDER
 62
     6
100
AcDbText
 10
150.912084
 20
-29.681878
 30
0.0
 40
0.818155
  1
SIMPLEX STEEL COVER W/ACCESS
  7
ROMANC
100
AcDbText
  0
LWPOLYLINE
  5
1523
100
AcDbEntity
  8
DIM
 62
     6
100
AcDbPolyline
 90
        2
 70
     0
 43
0.2125
 39
17.0
 10
126.288728
 20
-6.070548
 10
231.853614
 20
-6.070548
  0
TEXT
  5
1524
100
AcDbEntity
  8
DIM
 62
     6
100
AcDbText
 10
188.21889
 20
-5.035309
 30
0.0
 40
1.275
  1
 18
  7
ROMANS
100
AcDbText
  0
TEXT
  5
1525
100
AcDbEntity
  8
DIM
 62
     6
100
AcDbText
 10
127.634714
 20
-5.035309
 30
0.0
 40
1.275
  1
C30-12SSA
  7
ROMANS
100
AcDbText
  0
TEXT
  5
1526
100
AcDbEntity
  8
DIM
 62
     6
100
AcDbText
 10
141.603889
 20
-5.035309
 30
0.0
 40
1.275
  1
ROUND
  7
ROMANS
100
AcDbText
  0
TEXT
  5
1527
100
AcDbEntity
  8
DIM
 62
     6
100
AcDbText
 10
167.314298
 20
-5.035309
 30
0.0
 40
1.275
  1
32.5
  7
ROMANS
100
AcDbText
  0
TEXT
  5
1528
100
AcDbEntity
  8
DIM
 62
     6
100
AcDbText
 10
159.743127
 20
-5.035309
 30
0.0
 40
1.275
  1
34
  7
ROMANS
100
AcDbText
  0
TEXT
  5
1529
100
AcDbEntity
  8
DIM
 62
     6
100
AcDbText
 10
151.672459
 20
-5.035309
 30
0.0
 40
1.275
  1
30
  7
ROMANS
100
AcDbText
  0
TEXT
  5
152A
100
AcDbEntity
  8
DIM
 62
     6
100
AcDbText
 10
178.064349
 20
-5.035309
 30
0.0
 40
1.275
  1
12 GAGE
  7
ROMANS
100
AcDbText
  0
TEXT
  5
152B
100
AcDbEntity
  8
DIM
 62
     6
100
AcDbText
 10
196.282888
 20
-5.035309
 30
0.0
 40
1.275
  1
 16
  7
ROMANS
100
AcDbText
  0
TEXT
  5
152C
100
AcDbEntity
  8
DIM
 62
     6
100
AcDbText
 10
203.857926
 20
-5.035309
 30
0.0
 40
1.275
  1
 N/A
  7
ROMANS
100
AcDbText
  0
TEXT
  5
152D
100
AcDbEntity
  8
DIM
 62
     6
100
AcDbText
 10
220.540772
 20
-5.456487
 30
0.0
 40
1.275
  1
11
  7
ROMANS
100
AcDbText
  0
TEXT
  5
152E
100
AcDbEntity
  8
DIM
 62
     6
100
AcDbText
 10
212.236719
 20
-5.035309
 30
0.0
 40
1.275
  1
 9.50
  7
ROMANS
100
AcDbText
  0
TEXT
  5
152F
100
AcDbEntity
  8
DIM
 62
     6
100
AcDbText
 10
225.406332
 20
-5.456487
 30
0.0
 40
1.275
  1
 7.00
  7
ROMANS
100
AcDbText
  0
LWPOLYLINE
  5
1530
100
AcDbEntity
  8
DIM
 62
     6
100
AcDbPolyline
 90
        2
 70
     0
 43
0.2125
 39
17.0
 10
126.288728
 20
-6.070548
 10
231.853614
 20
-6.070548
  0
LWPOLYLINE
  5
1531
100
AcDbEntity
  8
DIM
 62
     6
100
AcDbPolyline
 90
        2
 70
     0
 43
0.2125
 39
17.0
 10
126.288728
 20
-9.672482
 10
231.853614
 20
-9.672482
  0
TEXT
  5
1532
100
AcDbEntity
  8
DIM
 62
     6
100
AcDbText
 10
188.21889
 20
-8.637243
 30
0.0
 40
1.275
  1
 18
  7
ROMANS
100
AcDbText
  0
TEXT
  5
1533
100
AcDbEntity
  8
DIM
 62
     6
100
AcDbText
 10
127.634714
 20
-8.637243
 30
0.0
 40
1.275
  1
C36-12SSA
  7
ROMANS
100
AcDbText
  0
TEXT
  5
1534
100
AcDbEntity
  8
DIM
 62
     6
100
AcDbText
 10
141.603889
 20
-8.637243
 30
0.0
 40
1.275
  1
ROUND
  7
ROMANS
100
AcDbText
  0
TEXT
  5
1535
100
AcDbEntity
  8
DIM
 62
     6
100
AcDbText
 10
167.314298
 20
-8.637243
 30
0.0
 40
1.275
  1
38.5
  7
ROMANS
100
AcDbText
  0
TEXT
  5
1536
100
AcDbEntity
  8
DIM
 62
     6
100
AcDbText
 10
159.743127
 20
-8.637243
 30
0.0
 40
1.275
  1
40
  7
ROMANS
100
AcDbText
  0
TEXT
  5
1537
100
AcDbEntity
  8
DIM
 62
     6
100
AcDbText
 10
151.672459
 20
-8.637243
 30
0.0
 40
1.275
  1
36
  7
ROMANS
100
AcDbText
  0
TEXT
  5
1538
100
AcDbEntity
  8
DIM
 62
     6
100
AcDbText
 10
178.064349
 20
-8.637243
 30
0.0
 40
1.275
  1
12 GAGE
  7
ROMANS
100
AcDbText
  0
TEXT
  5
1539
100
AcDbEntity
  8
DIM
 62
     6
100
AcDbText
 10
196.282888
 20
-8.637243
 30
0.0
 40
1.275
  1
 16
  7
ROMANS
100
AcDbText
  0
TEXT
  5
153A
100
AcDbEntity
  8
DIM
 62
     6
100
AcDbText
 10
203.857926
 20
-8.637243
 30
0.0
 40
1.275
  1
 N/A
  7
ROMANS
100
AcDbText
  0
TEXT
  5
153B
100
AcDbEntity
  8
DIM
 62
     6
100
AcDbText
 10
220.540772
 20
-9.058421
 30
0.0
 40
1.275
  1
14
  7
ROMANS
100
AcDbText
  0
TEXT
  5
153C
100
AcDbEntity
  8
DIM
 62
     6
100
AcDbText
 10
212.236719
 20
-8.637243
 30
0.0
 40
1.275
  1
13.00
  7
ROMANS
100
AcDbText
  0
TEXT
  5
153D
100
AcDbEntity
  8
DIM
 62
     6
100
AcDbText
 10
225.406332
 20
-9.058421
 30
0.0
 40
1.275
  1
 7.00
  7
ROMANS
100
AcDbText
  0
ENDSEC
  0
SECTION
  2
OBJECTS
  0
DICTIONARY
  5
C
100
AcDbDictionary
  3
ACAD_GROUP
350
D
  3
ACAD_MLINESTYLE
350
1A
  3
ACDBVARIABLEDICTIONARY
350
3E
  3
DRAWINGVARIABLESDICT
350
1079
  0
DICTIONARY
  5
D
102
{ACAD_REACTORS
330
C
102
}
100
AcDbDictionary
  0
DICTIONARY
  5
1A
102
{ACAD_REACTORS
330
C
102
}
100
AcDbDictionary
  3
STANDARD
350
1B
  0
DICTIONARY
  5
3E
102
{ACAD_REACTORS
330
C
102
}
100
AcDbDictionary
  3
DIMADEC
350
3F
  0
DICTIONARY
  5
1079
102
{ACAD_REACTORS
330
C
102
}
100
AcDbDictionary
1001
DRAWINGVARIABLESXDATA
1000
POLARANG
1000
0.785398
1000
POLARMODE
1000
1
  0
MLINESTYLE
  5
1B
102
{ACAD_REACTORS
330
1A
102
}
100
AcDbMlineStyle
  2
STANDARD
 70
     0
  3

 62
   256
 51
90.0
 52
90.0
 71
     2
 49
0.5
 62
   256
  6
BYLAYER
 49
-0.5
 62
   256
  6
BYLAYER
  0
DICTIONARYVAR
  5
3F
102
{ACAD_REACTORS
330
3E
102
}
100
DictionaryVariables
280
     0
  1
0
  0
ENDSEC
  0
EOF
