  0
SECTION
  2
HEADER
  9
$ACADVER
  1
AC1014
  9
$ACADMAINTVER
 70
     0
  9
$DWGCODEPAGE
  3
ANSI_1252
  9
$INSBASE
 10
0.0
 20
0.0
 30
0.0
  9
$EXTMIN
 10
15.765254
 20
-13.331751
 30
0.0
  9
$EXTMAX
 10
216.660459
 20
246.650279
 30
20.0
  9
$LIMMIN
 10
-85.513509
 20
-2.660909
  9
$LIMMAX
 10
57.923991
 20
182.964091
  9
$ORTHOMODE
 70
     1
  9
$REGENMODE
 70
     1
  9
$FILLMODE
 70
     1
  9
$QTEXTMODE
 70
     0
  9
$MIRRTEXT
 70
     1
  9
$DRAGMODE
 70
     2
  9
$LTSCALE
 40
3.0
  9
$OSMODE
 70
   675
  9
$ATTMODE
 70
     1
  9
$TEXTSIZE
 40
1.35
  9
$TRACEWID
 40
0.05
  9
$TEXTSTYLE
  7
ROMAND
  9
$CLAYER
  8
DIM
  9
$CELTYPE
  6
BYLAYER
  9
$CECOLOR
 62
   256
  9
$CELTSCALE
 40
1.0
  9
$DELOBJ
 70
     1
  9
$DISPSILH
 70
     0
  9
$DIMSCALE
 40
1.0
  9
$DIMASZ
 40
1.25
  9
$DIMEXO
 40
0.25
  9
$DIMDLI
 40
0.38
  9
$DIMRND
 40
0.0
  9
$DIMDLE
 40
0.0
  9
$DIMEXE
 40
1.35
  9
$DIMTP
 40
0.0
  9
$DIMTM
 40
0.0
  9
$DIMTXT
 40
0.18
  9
$DIMCEN
 40
0.09
  9
$DIMTSZ
 40
0.0
  9
$DIMTOL
 70
     0
  9
$DIMLIM
 70
     0
  9
$DIMTIH
 70
     1
  9
$DIMTOH
 70
     1
  9
$DIMSE1
 70
     0
  9
$DIMSE2
 70
     0
  9
$DIMTAD
 70
     0
  9
$DIMZIN
 70
     0
  9
$DIMBLK
  1

  9
$DIMASO
 70
     1
  9
$DIMSHO
 70
     1
  9
$DIMPOST
  1

  9
$DIMAPOST
  1

  9
$DIMALT
 70
     0
  9
$DIMALTD
 70
     2
  9
$DIMALTF
 40
25.4
  9
$DIMLFAC
 40
1.0
  9
$DIMTOFL
 70
     0
  9
$DIMTVP
 40
0.0
  9
$DIMTIX
 70
     0
  9
$DIMSOXD
 70
     0
  9
$DIMSAH
 70
     0
  9
$DIMBLK1
  1

  9
$DIMBLK2
  1

  9
$DIMSTYLE
  2
STANDARD
  9
$DIMCLRD
 70
     0
  9
$DIMCLRE
 70
     0
  9
$DIMCLRT
 70
     0
  9
$DIMTFAC
 40
1.0
  9
$DIMGAP
 40
1.2
  9
$DIMJUST
 70
     0
  9
$DIMSD1
 70
     0
  9
$DIMSD2
 70
     0
  9
$DIMTOLJ
 70
     1
  9
$DIMTZIN
 70
     0
  9
$DIMALTZ
 70
     0
  9
$DIMALTTZ
 70
     0
  9
$DIMFIT
 70
     0
  9
$DIMUPT
 70
     0
  9
$DIMUNIT
 70
     7
  9
$DIMDEC
 70
     4
  9
$DIMTDEC
 70
     4
  9
$DIMALTU
 70
     2
  9
$DIMALTTD
 70
     2
  9
$DIMTXSTY
  7
ROMAND
  9
$DIMAUNIT
 70
     0
  9
$LUNITS
 70
     2
  9
$LUPREC
 70
     4
  9
$SKETCHINC
 40
0.1
  9
$FILLETRAD
 40
0.0
  9
$AUNITS
 70
     0
  9
$AUPREC
 70
     0
  9
$MENU
  1
acad
  9
$ELEVATION
 40
0.0
  9
$PELEVATION
 40
0.0
  9
$THICKNESS
 40
0.0
  9
$LIMCHECK
 70
     0
  9
$BLIPMODE
 70
     0
  9
$CHAMFERA
 40
0.0
  9
$CHAMFERB
 40
0.0
  9
$CHAMFERC
 40
0.0
  9
$CHAMFERD
 40
0.0
  9
$SKPOLY
 70
     0
  9
$TDCREATE
 40
2450283.690284954
  9
$TDUPDATE
 40
2453110.448383796
  9
$TDINDWG
 40
0.2279433796
  9
$TDUSRTIMER
 40
0.2279433796
  9
$USRTIMER
 70
     1
  9
$ANGBASE
 50
0.0
  9
$ANGDIR
 70
     0
  9
$PDMODE
 70
    34
  9
$PDSIZE
 40
0.0
  9
$PLINEWID
 40
0.0
  9
$COORDS
 70
     1
  9
$SPLFRAME
 70
     0
  9
$SPLINETYPE
 70
     6
  9
$SPLINESEGS
 70
     8
  9
$ATTDIA
 70
     0
  9
$ATTREQ
 70
     1
  9
$HANDLING
 70
     1
  9
$HANDSEED
  5
28C3
  9
$SURFTAB1
 70
     6
  9
$SURFTAB2
 70
     6
  9
$SURFTYPE
 70
     6
  9
$SURFU
 70
     6
  9
$SURFV
 70
     6
  9
$UCSNAME
  2

  9
$UCSORG
 10
163.4164420131816
 20
134.7967677170076
 30
0.0
  9
$UCSXDIR
 10
1.0
 20
0.0
 30
0.0
  9
$UCSYDIR
 10
0.0
 20
1.0
 30
0.0
  9
$PUCSNAME
  2

  9
$PUCSORG
 10
0.0
 20
0.0
 30
0.0
  9
$PUCSXDIR
 10
1.0
 20
0.0
 30
0.0
  9
$PUCSYDIR
 10
0.0
 20
1.0
 30
0.0
  9
$USERI1
 70
     0
  9
$USERI2
 70
     0
  9
$USERI3
 70
     0
  9
$USERI4
 70
     0
  9
$USERI5
 70
     0
  9
$USERR1
 40
0.0
  9
$USERR2
 40
0.0
  9
$USERR3
 40
0.0
  9
$USERR4
 40
0.0
  9
$USERR5
 40
0.0
  9
$WORLDVIEW
 70
     1
  9
$SHADEDGE
 70
     3
  9
$SHADEDIF
 70
    70
  9
$TILEMODE
 70
     1
  9
$MAXACTVP
 70
    16
  9
$PINSBASE
 10
0.0
 20
0.0
 30
0.0
  9
$PLIMCHECK
 70
     0
  9
$PEXTMIN
 10
1.000000E+20
 20
1.000000E+20
 30
1.000000E+20
  9
$PEXTMAX
 10
-1.000000E+20
 20
-1.000000E+20
 30
-1.000000E+20
  9
$PLIMMIN
 10
0.0
 20
0.0
  9
$PLIMMAX
 10
12.0
 20
9.0
  9
$UNITMODE
 70
     0
  9
$VISRETAIN
 70
     0
  9
$PLINEGEN
 70
     0
  9
$PSLTSCALE
 70
     1
  9
$TREEDEPTH
 70
  3020
  9
$PICKSTYLE
 70
     1
  9
$CMLSTYLE
  2
STANDARD
  9
$CMLJUST
 70
     0
  9
$CMLSCALE
 40
1.0
  9
$PROXYGRAPHICS
 70
     1
  9
$MEASUREMENT
 70
     0
  0
ENDSEC
  0
SECTION
  2
CLASSES
  0
CLASS
  1
DICTIONARYVAR
  2
AcDbDictionaryVar
  3
"AutoCAD"
 90
        0
280
     0
281
     0
  0
CLASS
  1
LWPOLYLINE
  2
AcDbPolyline
  3
"AutoCAD"
 90
        0
280
     0
281
     1
  0
CLASS
  1
HATCH
  2
AcDbHatch
  3
"ACAD_SEDONA"
 90
        0
280
     0
281
     1
  0
ENDSEC
  0
SECTION
  2
TABLES
  0
TABLE
  2
VPORT
  5
8
100
AcDbSymbolTable
 70
     1
  0
VPORT
  5
28BB
100
AcDbSymbolTableRecord
100
AcDbViewportTableRecord
  2
*ACTIVE
 70
     0
 10
0.0
 20
0.0
 11
1.0
 21
1.0
 12
116.217508
 22
116.657229
 13
0.0
 23
0.0
 14
1.0
 24
1.0
 15
0.0
 25
0.0
 16
0.0
 26
0.0
 36
1.0
 17
0.0
 27
0.0
 37
0.0
 40
262.842643
 41
1.750909
 42
50.0
 43
0.0
 44
0.0
 50
0.0
 51
0.0
 71
     0
 72
   100
 73
     1
 74
     0
 75
     0
 76
     0
 77
     0
 78
     0
  0
ENDTAB
  0
TABLE
  2
LTYPE
  5
5
100
AcDbSymbolTable
 70
     4
  0
LTYPE
  5
11
100
AcDbSymbolTableRecord
100
AcDbLinetypeTableRecord
  2
BYBLOCK
 70
     0
  3

 72
    65
 73
     0
 40
0.0
  0
LTYPE
  5
12
100
AcDbSymbolTableRecord
100
AcDbLinetypeTableRecord
  2
BYLAYER
 70
     0
  3

 72
    65
 73
     0
 40
0.0
  0
LTYPE
  5
13
100
AcDbSymbolTableRecord
100
AcDbLinetypeTableRecord
  2
CONTINUOUS
 70
     0
  3
Solid line
 72
    65
 73
     0
 40
0.0
  0
LTYPE
  5
35
100
AcDbSymbolTableRecord
100
AcDbLinetypeTableRecord
  2
HIDDEN
 70
     0
  3
__ __ __ __ __ __ __ __ __ __ __ __ __ __ __ __
 72
    65
 73
     2
 40
0.375
 49
0.25
 74
     0
 49
-0.125
 74
     0
  0
LTYPE
  5
36
100
AcDbSymbolTableRecord
100
AcDbLinetypeTableRecord
  2
CENTER
 70
     0
  3
____ _ ____ _ ____ _ ____ _ ____ _ ____ _ ____ 
 72
    65
 73
     4
 40
2.0
 49
1.25
 74
     0
 49
-0.25
 74
     0
 49
0.25
 74
     0
 49
-0.25
 74
     0
  0
LTYPE
  5
21E8
100
AcDbSymbolTableRecord
100
AcDbLinetypeTableRecord
  2
PHANTOM
 70
     0
  3
______  __  __  ______  __  __  ______  __  __ 
 72
    65
 73
     6
 40
2.5
 49
1.25
 74
     0
 49
-0.25
 74
     0
 49
0.25
 74
     0
 49
-0.25
 74
     0
 49
0.25
 74
     0
 49
-0.25
 74
     0
  0
ENDTAB
  0
TABLE
  2
LAYER
  5
2
100
AcDbSymbolTable
 70
     9
  0
LAYER
  5
E
100
AcDbSymbolTableRecord
100
AcDbLayerTableRecord
  2
0
 70
     0
 62
     7
  6
CONTINUOUS
  0
LAYER
  5
39
100
AcDbSymbolTableRecord
100
AcDbLayerTableRecord
  2
BORDER
 70
     0
 62
     5
  6
CONTINUOUS
  0
LAYER
  5
3A
100
AcDbSymbolTableRecord
100
AcDbLayerTableRecord
  2
LIMITS
 70
     0
 62
     7
  6
CONTINUOUS
  0
LAYER
  5
3B
100
AcDbSymbolTableRecord
100
AcDbLayerTableRecord
  2
DIM
 70
     0
 62
     6
  6
CONTINUOUS
  0
LAYER
  5
3C
100
AcDbSymbolTableRecord
100
AcDbLayerTableRecord
  2
HIDDEN
 70
     0
 62
     1
  6
HIDDEN
  0
LAYER
  5
3D
100
AcDbSymbolTableRecord
100
AcDbLayerTableRecord
  2
CENTER
 70
     0
 62
     3
  6
CENTER
  0
LAYER
  5
3E
100
AcDbSymbolTableRecord
100
AcDbLayerTableRecord
  2
OBJECT
 70
     0
 62
     2
  6
CONTINUOUS
  0
LAYER
  5
3F
100
AcDbSymbolTableRecord
100
AcDbLayerTableRecord
  2
15
 70
     0
 62
     4
  6
CONTINUOUS
  0
LAYER
  5
40
100
AcDbSymbolTableRecord
100
AcDbLayerTableRecord
  2
DEFPOINTS
 70
     0
 62
     7
  6
CONTINUOUS
  0
ENDTAB
  0
TABLE
  2
STYLE
  5
3
100
AcDbSymbolTable
 70
     5
  0
STYLE
  5
F
100
AcDbSymbolTableRecord
100
AcDbTextStyleTableRecord
  2
STANDARD
 70
     0
 40
0.0
 41
1.0
 50
0.0
 71
     0
 42
0.2
  3
txt
  4

  0
STYLE
  5
2F
100
AcDbSymbolTableRecord
100
AcDbTextStyleTableRecord
  2
ROMAND
 70
     0
 40
1.35
 41
1.0
 50
0.0
 71
     0
 42
1.35
  3
romand
  4

  0
STYLE
  5
30
100
AcDbSymbolTableRecord
100
AcDbTextStyleTableRecord
  2
ROMANS
 70
     0
 40
0.040706
 41
1.0
 50
0.0
 71
     0
 42
0.040706
  3
romans
  4

  0
STYLE
  5
33
100
AcDbSymbolTableRecord
100
AcDbTextStyleTableRecord
  2
COUNTRYBLUEPRINT
 70
     0
 40
0.061059
 41
1.0
 50
0.0
 71
     0
 42
0.061059
  3
cobt____.pfb
  4

  0
STYLE
  5
34
100
AcDbSymbolTableRecord
100
AcDbTextStyleTableRecord
  2
ROMANC
 70
     0
 40
0.050364
 41
1.0
 50
0.0
 71
     0
 42
0.050364
  3
romanc
  4

  0
ENDTAB
  0
TABLE
  2
VIEW
  5
6
100
AcDbSymbolTable
 70
     0
  0
ENDTAB
  0
TABLE
  2
UCS
  5
7
100
AcDbSymbolTable
 70
     0
  0
ENDTAB
  0
TABLE
  2
APPID
  5
9
100
AcDbSymbolTable
 70
     1
  0
APPID
  5
10
100
AcDbSymbolTableRecord
100
AcDbRegAppTableRecord
  2
ACAD
 70
     0
  0
ENDTAB
  0
TABLE
  2
DIMSTYLE
  5
A
100
AcDbSymbolTable
 70
     1
  0
DIMSTYLE
105
14AF
102
{ACAD_REACTORS
330
264C
330
2717
330
2749
330
2763
330
277D
330
27AF
330
28AA
330
28B9
102
}
100
AcDbSymbolTableRecord
100
AcDbDimStyleTableRecord
  2
STANDARD
 70
     0
  3

  4

  5

  6

  7

 40
1.0
 41
0.18
 42
0.0625
 43
0.38
 44
0.18
 45
0.0
 46
0.0
 47
0.0
 48
0.0
140
0.18
141
0.09
142
0.0
143
25.4
144
1.0
145
0.0
146
1.0
147
0.09
 71
     0
 72
     0
 73
     1
 74
     1
 75
     0
 76
     0
 77
     0
 78
     0
170
     0
171
     2
172
     0
173
     0
174
     0
175
     0
176
     0
177
     0
178
     0
270
     2
271
     4
272
     4
273
     2
274
     2
340
F
275
     0
280
     0
281
     0
282
     0
283
     1
284
     0
285
     0
286
     0
287
     3
288
     0
  0
ENDTAB
  0
TABLE
  2
BLOCK_RECORD
  5
1
100
AcDbSymbolTable
 70
    27
  0
BLOCK_RECORD
  5
17
100
AcDbSymbolTableRecord
100
AcDbBlockTableRecord
  2
*MODEL_SPACE
  0
BLOCK_RECORD
  5
14
100
AcDbSymbolTableRecord
100
AcDbBlockTableRecord
  2
*PAPER_SPACE
  0
BLOCK_RECORD
  5
217F
100
AcDbSymbolTableRecord
100
AcDbBlockTableRecord
  2
*U0
  0
BLOCK_RECORD
  5
2183
100
AcDbSymbolTableRecord
100
AcDbBlockTableRecord
  2
*U1
  0
BLOCK_RECORD
  5
218B
100
AcDbSymbolTableRecord
100
AcDbBlockTableRecord
  2
*U2
  0
BLOCK_RECORD
  5
2193
100
AcDbSymbolTableRecord
100
AcDbBlockTableRecord
  2
*U3
  0
BLOCK_RECORD
  5
2197
100
AcDbSymbolTableRecord
100
AcDbBlockTableRecord
  2
*U4
  0
BLOCK_RECORD
  5
219F
100
AcDbSymbolTableRecord
100
AcDbBlockTableRecord
  2
*U5
  0
BLOCK_RECORD
  5
21A3
100
AcDbSymbolTableRecord
100
AcDbBlockTableRecord
  2
*U6
  0
BLOCK_RECORD
  5
21A7
100
AcDbSymbolTableRecord
100
AcDbBlockTableRecord
  2
*U7
  0
BLOCK_RECORD
  5
21AB
100
AcDbSymbolTableRecord
100
AcDbBlockTableRecord
  2
*U8
  0
BLOCK_RECORD
  5
21AF
100
AcDbSymbolTableRecord
100
AcDbBlockTableRecord
  2
*U9
  0
BLOCK_RECORD
  5
21B3
100
AcDbSymbolTableRecord
100
AcDbBlockTableRecord
  2
*U10
  0
BLOCK_RECORD
  5
21B7
100
AcDbSymbolTableRecord
100
AcDbBlockTableRecord
  2
*U11
  0
BLOCK_RECORD
  5
21BB
100
AcDbSymbolTableRecord
100
AcDbBlockTableRecord
  2
*U12
  0
BLOCK_RECORD
  5
21BF
100
AcDbSymbolTableRecord
100
AcDbBlockTableRecord
  2
*D13
  0
BLOCK_RECORD
  5
21CC
100
AcDbSymbolTableRecord
100
AcDbBlockTableRecord
  2
*D14
  0
BLOCK_RECORD
  5
21D9
100
AcDbSymbolTableRecord
100
AcDbBlockTableRecord
  2
*D15
  0
BLOCK_RECORD
  5
21E9
100
AcDbSymbolTableRecord
100
AcDbBlockTableRecord
  2
A$C0D455053
  0
BLOCK_RECORD
  5
263F
100
AcDbSymbolTableRecord
100
AcDbBlockTableRecord
  2
*D17
  0
BLOCK_RECORD
  5
270A
100
AcDbSymbolTableRecord
100
AcDbBlockTableRecord
  2
*D20
  0
BLOCK_RECORD
  5
273C
100
AcDbSymbolTableRecord
100
AcDbBlockTableRecord
  2
*D21
  0
BLOCK_RECORD
  5
2756
100
AcDbSymbolTableRecord
100
AcDbBlockTableRecord
  2
*D22
  0
BLOCK_RECORD
  5
2770
100
AcDbSymbolTableRecord
100
AcDbBlockTableRecord
  2
*D23
  0
BLOCK_RECORD
  5
27A2
100
AcDbSymbolTableRecord
100
AcDbBlockTableRecord
  2
*D24
  0
BLOCK_RECORD
  5
289D
100
AcDbSymbolTableRecord
100
AcDbBlockTableRecord
  2
*D25
  0
BLOCK_RECORD
  5
28AC
100
AcDbSymbolTableRecord
100
AcDbBlockTableRecord
  2
*D26
  0
ENDTAB
  0
ENDSEC
  0
SECTION
  2
BLOCKS
  0
BLOCK
  5
43
100
AcDbEntity
  8
0
100
AcDbBlockBegin
  2
*MODEL_SPACE
 70
     0
 10
0.0
 20
0.0
 30
0.0
  3
*MODEL_SPACE
  1

  0
ENDBLK
  5
44
100
AcDbEntity
  8
0
100
AcDbBlockEnd
  0
BLOCK
  5
41
100
AcDbEntity
 67
     1
  8
0
100
AcDbBlockBegin
  2
*PAPER_SPACE
 70
     0
 10
0.0
 20
0.0
 30
0.0
  3
*PAPER_SPACE
  1

  0
ENDBLK
  5
42
100
AcDbEntity
 67
     1
  8
0
100
AcDbBlockEnd
  0
BLOCK
  5
2181
100
AcDbEntity
  8
0
100
AcDbBlockBegin
  2
*U0
 70
     1
 10
0.0
 20
0.0
 30
0.0
  3
*U0
  1

  0
TEXT
  5
2180
100
AcDbEntity
  8
DIM
100
AcDbText
 10
352.566447
 20
112.933485
 30
0.0
 40
1.5
  1
8
 50
90.0
  7
ROMANS
100
AcDbText
  0
ENDBLK
  5
2182
100
AcDbEntity
  8
0
100
AcDbBlockEnd
  0
BLOCK
  5
2189
100
AcDbEntity
  8
0
100
AcDbBlockBegin
  2
*U1
 70
     1
 10
0.0
 20
0.0
 30
0.0
  3
*U1
  1

  0
SOLID
  5
2184
100
AcDbEntity
  8
DIM
100
AcDbTrace
 10
213.41767
 20
157.225471
 30
0.0
 11
214.124582
 21
158.277221
 31
0.0
 12
213.79699
 22
157.053053
 32
0.0
 13
213.79699
 23
157.053053
 33
0.0
  0
POLYLINE
  5
2185
100
AcDbEntity
  8
DIM
100
AcDb2dPolyline
 66
     1
 10
0.0
 20
0.0
 30
0.0
  0
VERTEX
  5
2186
100
AcDbEntity
  8
DIM
100
AcDbVertex
100
AcDb2dVertex
 10
213.60733
 20
157.139262
 30
0.0
  0
VERTEX
  5
2187
100
AcDbEntity
  8
DIM
100
AcDbVertex
100
AcDb2dVertex
 10
204.009913
 20
136.024861
 30
0.0
  0
SEQEND
  5
2188
100
AcDbEntity
  8
DIM
  0
ENDBLK
  5
218A
100
AcDbEntity
  8
0
100
AcDbBlockEnd
  0
BLOCK
  5
2191
100
AcDbEntity
  8
0
100
AcDbBlockBegin
  2
*U2
 70
     1
 10
0.0
 20
0.0
 30
0.0
  3
*U2
  1

  0
SOLID
  5
218C
100
AcDbEntity
  8
DIM
100
AcDbTrace
 10
212.98644
 20
105.174464
 30
0.0
 11
214.130976
 21
105.718467
 31
0.0
 12
213.22474
 22
104.832669
 32
0.0
 13
213.22474
 23
104.832669
 33
0.0
  0
POLYLINE
  5
218D
100
AcDbEntity
  8
DIM
100
AcDb2dPolyline
 66
     1
 10
0.0
 20
0.0
 30
0.0
  0
VERTEX
  5
218E
100
AcDbEntity
  8
DIM
100
AcDbVertex
100
AcDb2dVertex
 10
213.10559
 20
105.003567
 30
0.0
  0
VERTEX
  5
218F
100
AcDbEntity
  8
DIM
100
AcDbVertex
100
AcDb2dVertex
 10
206.900153
 20
100.677131
 30
0.0
  0
SEQEND
  5
2190
100
AcDbEntity
  8
DIM
  0
ENDBLK
  5
2192
100
AcDbEntity
  8
0
100
AcDbBlockEnd
  0
BLOCK
  5
2195
100
AcDbEntity
  8
0
100
AcDbBlockBegin
  2
*U3
 70
     1
 10
0.0
 20
0.0
 30
0.0
  3
*U3
  1

  0
TEXT
  5
2194
100
AcDbEntity
  8
DIM
100
AcDbText
 10
363.884397
 20
108.605531
 30
0.0
 40
1.5
  1
6
  7
ROMANS
100
AcDbText
  0
ENDBLK
  5
2196
100
AcDbEntity
  8
0
100
AcDbBlockEnd
  0
BLOCK
  5
219D
100
AcDbEntity
  8
0
100
AcDbBlockBegin
  2
*U4
 70
     1
 10
0.0
 20
0.0
 30
0.0
  3
*U4
  1

  0
SOLID
  5
2198
100
AcDbEntity
  8
DIM
100
AcDbTrace
 10
236.304328
 20
114.165616
 30
0.0
 11
235.170095
 21
113.600446
 31
0.0
 12
236.05972
 22
114.502926
 32
0.0
 13
236.05972
 23
114.502926
 33
0.0
  0
POLYLINE
  5
2199
100
AcDbEntity
  8
DIM
100
AcDb2dPolyline
 66
     1
 10
0.0
 20
0.0
 30
0.0
  0
VERTEX
  5
219A
100
AcDbEntity
  8
DIM
100
AcDbVertex
100
AcDb2dVertex
 10
236.182024
 20
114.334271
 30
0.0
  0
VERTEX
  5
219B
100
AcDbEntity
  8
DIM
100
AcDbVertex
100
AcDb2dVertex
 10
243.268869
 20
119.473471
 30
0.0
  0
SEQEND
  5
219C
100
AcDbEntity
  8
DIM
  0
ENDBLK
  5
219E
100
AcDbEntity
  8
0
100
AcDbBlockEnd
  0
BLOCK
  5
21A1
100
AcDbEntity
  8
0
100
AcDbBlockBegin
  2
*U5
 70
     1
 10
0.0
 20
0.0
 30
0.0
  3
*U5
  1

  0
TEXT
  5
21A0
100
AcDbEntity
  8
DIM
100
AcDbText
 10
383.955825
 20
155.518002
 30
0.0
 40
1.5
  1
6
  7
ROMANS
100
AcDbText
  0
ENDBLK
  5
21A2
100
AcDbEntity
  8
0
100
AcDbBlockEnd
  0
BLOCK
  5
21A5
100
AcDbEntity
  8
0
100
AcDbBlockBegin
  2
*U6
 70
     1
 10
0.0
 20
0.0
 30
0.0
  3
*U6
  1

  0
TEXT
  5
21A4
100
AcDbEntity
  8
DIM
100
AcDbText
 10
373.24154
 20
160.10015
 30
0.0
 40
1.5
  1
38
  7
ROMANS
100
AcDbText
  0
ENDBLK
  5
21A6
100
AcDbEntity
  8
0
100
AcDbBlockEnd
  0
BLOCK
  5
21A9
100
AcDbEntity
  8
0
100
AcDbBlockBegin
  2
*U7
 70
     1
 10
0.0
 20
0.0
 30
0.0
  3
*U7
  1

  0
TEXT
  5
21A8
100
AcDbEntity
  8
DIM
100
AcDbText
 10
349.039178
 20
133.219199
 30
0.0
 40
1.5
  1
36
 50
90.0
  7
ROMANS
100
AcDbText
  0
ENDBLK
  5
21AA
100
AcDbEntity
  8
0
100
AcDbBlockEnd
  0
BLOCK
  5
21AD
100
AcDbEntity
  8
0
100
AcDbBlockBegin
  2
*U8
 70
     1
 10
0.0
 20
0.0
 30
0.0
  3
*U8
  1

  0
TEXT
  5
21AC
100
AcDbEntity
  8
DIM
100
AcDbText
 10
254.824951
 20
91.601919
 30
0.0
 40
1.5
  1
25
 50
90.0
  7
ROMANS
100
AcDbText
  0
ENDBLK
  5
21AE
100
AcDbEntity
  8
0
100
AcDbBlockEnd
  0
BLOCK
  5
21B1
100
AcDbEntity
  8
0
100
AcDbBlockBegin
  2
*U9
 70
     1
 10
0.0
 20
0.0
 30
0.0
  3
*U9
  1

  0
TEXT
  5
21B0
100
AcDbEntity
  8
DIM
100
AcDbText
 10
228.584452
 20
184.375419
 30
0.0
 40
1.5
  1
38
  7
ROMANS
100
AcDbText
  0
ENDBLK
  5
21B2
100
AcDbEntity
  8
0
100
AcDbBlockEnd
  0
BLOCK
  5
21B5
100
AcDbEntity
  8
0
100
AcDbBlockBegin
  2
*U10
 70
     1
 10
0.0
 20
0.0
 30
0.0
  3
*U10
  1

  0
TEXT
  5
21B4
100
AcDbEntity
  8
DIM
100
AcDbText
 10
227.120167
 20
180.765577
 30
0.0
 40
1.5
  1
32CA
  7
ROMANS
100
AcDbText
  0
ENDBLK
  5
21B6
100
AcDbEntity
  8
0
100
AcDbBlockEnd
  0
BLOCK
  5
21B9
100
AcDbEntity
  8
0
100
AcDbBlockBegin
  2
*U11
 70
     1
 10
0.0
 20
0.0
 30
0.0
  3
*U11
  1

  0
TEXT
  5
21B8
100
AcDbEntity
  8
DIM
100
AcDbText
 10
200.351736
 20
156.946941
 30
0.0
 40
1.5
  1
36
 50
90.0
  7
ROMANS
100
AcDbText
  0
ENDBLK
  5
21BA
100
AcDbEntity
  8
0
100
AcDbBlockEnd
  0
BLOCK
  5
21BD
100
AcDbEntity
  8
0
100
AcDbBlockBegin
  2
*U12
 70
     1
 10
0.0
 20
0.0
 30
0.0
  3
*U12
  1

  0
TEXT
  5
21BC
100
AcDbEntity
  8
DIM
100
AcDbText
 10
204.605939
 20
155.482656
 30
0.0
 40
1.5
  1
30CA
 50
90.0
  7
ROMANS
100
AcDbText
  0
ENDBLK
  5
21BE
100
AcDbEntity
  8
0
100
AcDbBlockEnd
  0
BLOCK
  5
21CA
100
AcDbEntity
  8
0
100
AcDbBlockBegin
  2
*D13
 70
     1
 10
0.0
 20
0.0
 30
0.0
  3
*D13
  1

  0
LINE
  5
21C0
100
AcDbEntity
  8
0
  6
BYBLOCK
 62
     0
100
AcDbLine
 10
589.823883
 20
119.965067
 30
0.0
 11
595.825688
 21
119.965067
 31
0.0
  0
LINE
  5
21C1
100
AcDbEntity
  8
0
  6
BYBLOCK
 62
     0
100
AcDbLine
 10
590.936494
 20
122.965067
 30
0.0
 11
595.825688
 21
122.965067
 31
0.0
  0
LINE
  5
21C2
100
AcDbEntity
  8
0
  6
BYBLOCK
 62
     0
100
AcDbLine
 10
595.645688
 20
117.965067
 30
0.0
 11
595.645688
 21
115.965067
 31
0.0
  0
LINE
  5
21C3
100
AcDbEntity
  8
0
  6
BYBLOCK
 62
     0
100
AcDbLine
 10
595.645688
 20
124.965067
 30
0.0
 11
595.645688
 21
126.965067
 31
0.0
  0
SOLID
  5
21C4
100
AcDbEntity
  8
0
  6
BYBLOCK
 62
     0
100
AcDbTrace
 10
595.312355
 20
117.965067
 30
0.0
 11
595.979022
 21
117.965067
 31
0.0
 12
595.645688
 22
119.965067
 32
0.0
 13
595.645688
 23
119.965067
 33
0.0
  0
SOLID
  5
21C5
100
AcDbEntity
  8
0
  6
BYBLOCK
 62
     0
100
AcDbTrace
 10
595.312355
 20
124.965067
 30
0.0
 11
595.979022
 21
124.965067
 31
0.0
 12
595.645688
 22
122.965067
 32
0.0
 13
595.645688
 23
122.965067
 33
0.0
  0
MTEXT
  5
21C6
100
AcDbEntity
  8
0
  6
BYBLOCK
 62
     0
100
AcDbMText
 10
595.645688
 20
128.965067
 30
0.0
 40
1.5
 41
0.0
 71
     5
 72
     1
  1
\A1;3
 11
0.0
 21
1.0
 31
0.0
  0
POINT
  5
21C7
100
AcDbEntity
  8
DEFPOINTS
  6
BYBLOCK
 62
     0
100
AcDbPoint
 10
589.761383
 20
119.965067
 30
0.0
  0
POINT
  5
21C8
100
AcDbEntity
  8
DEFPOINTS
  6
BYBLOCK
 62
     0
100
AcDbPoint
 10
590.873994
 20
122.965067
 30
0.0
  0
POINT
  5
21C9
100
AcDbEntity
  8
DEFPOINTS
  6
BYBLOCK
 62
     0
100
AcDbPoint
 10
595.645688
 20
122.965067
 30
0.0
  0
ENDBLK
  5
21CB
100
AcDbEntity
  8
0
100
AcDbBlockEnd
  0
BLOCK
  5
21D7
100
AcDbEntity
  8
0
100
AcDbBlockBegin
  2
*D14
 70
     1
 10
0.0
 20
0.0
 30
0.0
  3
*D14
  1

  0
LINE
  5
21CD
100
AcDbEntity
  8
0
  6
BYBLOCK
 62
     0
100
AcDbLine
 10
589.823883
 20
89.965067
 30
0.0
 11
595.886973
 21
89.965067
 31
0.0
  0
LINE
  5
21CE
100
AcDbEntity
  8
0
  6
BYBLOCK
 62
     0
100
AcDbLine
 10
590.936494
 20
86.965067
 30
0.0
 11
595.886973
 21
86.965067
 31
0.0
  0
LINE
  5
21CF
100
AcDbEntity
  8
0
  6
BYBLOCK
 62
     0
100
AcDbLine
 10
595.706973
 20
91.965067
 30
0.0
 11
595.706973
 21
93.965067
 31
0.0
  0
LINE
  5
21D0
100
AcDbEntity
  8
0
  6
BYBLOCK
 62
     0
100
AcDbLine
 10
595.706973
 20
84.965067
 30
0.0
 11
595.706973
 21
82.965067
 31
0.0
  0
SOLID
  5
21D1
100
AcDbEntity
  8
0
  6
BYBLOCK
 62
     0
100
AcDbTrace
 10
595.37364
 20
91.965067
 30
0.0
 11
596.040306
 21
91.965067
 31
0.0
 12
595.706973
 22
89.965067
 32
0.0
 13
595.706973
 23
89.965067
 33
0.0
  0
SOLID
  5
21D2
100
AcDbEntity
  8
0
  6
BYBLOCK
 62
     0
100
AcDbTrace
 10
595.37364
 20
84.965067
 30
0.0
 11
596.040306
 21
84.965067
 31
0.0
 12
595.706973
 22
86.965067
 32
0.0
 13
595.706973
 23
86.965067
 33
0.0
  0
MTEXT
  5
21D3
100
AcDbEntity
  8
0
  6
BYBLOCK
 62
     0
100
AcDbMText
 10
595.706973
 20
80.965067
 30
0.0
 40
1.5
 41
0.0
 71
     5
 72
     1
  1
\A1;3
 11
0.0
 21
1.0
 31
0.0
  0
POINT
  5
21D4
100
AcDbEntity
  8
DEFPOINTS
  6
BYBLOCK
 62
     0
100
AcDbPoint
 10
589.761383
 20
89.965067
 30
0.0
  0
POINT
  5
21D5
100
AcDbEntity
  8
DEFPOINTS
  6
BYBLOCK
 62
     0
100
AcDbPoint
 10
590.873994
 20
86.965067
 30
0.0
  0
POINT
  5
21D6
100
AcDbEntity
  8
DEFPOINTS
  6
BYBLOCK
 62
     0
100
AcDbPoint
 10
595.706973
 20
86.965067
 30
0.0
  0
ENDBLK
  5
21D8
100
AcDbEntity
  8
0
100
AcDbBlockEnd
  0
BLOCK
  5
21E6
100
AcDbEntity
  8
0
100
AcDbBlockBegin
  2
*D15
 70
     1
 10
0.0
 20
0.0
 30
0.0
  3
*D15
  1

  0
LINE
  5
21DA
100
AcDbEntity
  8
0
  6
BYBLOCK
 62
     0
100
AcDbLine
 10
589.373994
 20
89.515178
 30
0.0
 11
589.373994
 21
78.01754
 31
0.0
  0
LINE
  5
21DB
100
AcDbEntity
  8
0
  6
BYBLOCK
 62
     0
100
AcDbLine
 10
571.873994
 20
84.67466
 30
0.0
 11
571.873994
 21
78.01754
 31
0.0
  0
LINE
  5
21DC
100
AcDbEntity
  8
0
  6
BYBLOCK
 62
     0
100
AcDbLine
 10
591.373994
 20
78.19754
 30
0.0
 11
593.373994
 21
78.19754
 31
0.0
  0
LINE
  5
21DD
100
AcDbEntity
  8
0
  6
BYBLOCK
 62
     0
100
AcDbLine
 10
569.873994
 20
78.19754
 30
0.0
 11
567.873994
 21
78.19754
 31
0.0
  0
LINE
  5
21DE
100
AcDbEntity
  8
0
  6
BYBLOCK
 62
     0
100
AcDbLine
 10
589.373994
 20
78.19754
 30
0.0
 11
585.873994
 21
78.19754
 31
0.0
  0
LINE
  5
21DF
100
AcDbEntity
  8
0
  6
BYBLOCK
 62
     0
100
AcDbLine
 10
571.873994
 20
78.19754
 30
0.0
 11
575.373994
 21
78.19754
 31
0.0
  0
SOLID
  5
21E0
100
AcDbEntity
  8
0
  6
BYBLOCK
 62
     0
100
AcDbTrace
 10
591.373994
 20
78.530873
 30
0.0
 11
591.373994
 21
77.864207
 31
0.0
 12
589.373994
 22
78.19754
 32
0.0
 13
589.373994
 23
78.19754
 33
0.0
  0
SOLID
  5
21E1
100
AcDbEntity
  8
0
  6
BYBLOCK
 62
     0
100
AcDbTrace
 10
569.873994
 20
78.530873
 30
0.0
 11
569.873994
 21
77.864207
 31
0.0
 12
571.873994
 22
78.19754
 32
0.0
 13
571.873994
 23
78.19754
 33
0.0
  0
MTEXT
  5
21E2
100
AcDbEntity
  8
0
  6
BYBLOCK
 62
     0
100
AcDbMText
 10
580.623994
 20
78.19754
 30
0.0
 40
1.5
 41
0.0
 71
     5
 72
     1
  1
\A1;17 1/2
  0
POINT
  5
21E3
100
AcDbEntity
  8
DEFPOINTS
  6
BYBLOCK
 62
     0
100
AcDbPoint
 10
589.373994
 20
89.577678
 30
0.0
  0
POINT
  5
21E4
100
AcDbEntity
  8
DEFPOINTS
  6
BYBLOCK
 62
     0
100
AcDbPoint
 10
571.873994
 20
84.73716
 30
0.0
  0
POINT
  5
21E5
100
AcDbEntity
  8
DEFPOINTS
  6
BYBLOCK
 62
     0
100
AcDbPoint
 10
571.873994
 20
78.19754
 30
0.0
  0
ENDBLK
  5
21E7
100
AcDbEntity
  8
0
100
AcDbBlockEnd
  0
BLOCK
  5
23C5
100
AcDbEntity
  8
0
100
AcDbBlockBegin
  2
A$C0D455053
 70
     0
 10
0.0
 20
0.0
 30
0.0
  3
A$C0D455053
  1

  0
LWPOLYLINE
  5
21EA
100
AcDbEntity
  8
BORDER
 62
     5
100
AcDbPolyline
 90
        2
 70
     0
 43
0.489245
 10
181.324104
 20
27.841818
 10
181.324104
 20
233.848908
  0
LINE
  5
21EB
100
AcDbEntity
  8
LIMITS
 62
     7
100
AcDbLine
 10
185.238063
 20
0.0
 30
0.0
 11
185.238063
 21
239.719846
 31
0.0
  0
LINE
  5
21EC
100
AcDbEntity
  8
LIMITS
100
AcDbLine
 10
185.238063
 20
234.837533
 30
0.0
 11
185.238063
 21
0.0
 31
0.0
  0
LINE
  5
21ED
100
AcDbEntity
  8
LIMITS
100
AcDbLine
 10
185.238063
 20
0.0
 30
0.0
 11
185.238063
 21
234.837533
 31
0.0
  0
LWPOLYLINE
  5
21EE
100
AcDbEntity
  8
BORDER
 62
     5
100
AcDbPolyline
 90
        2
 70
     0
 43
0.489245
 10
3.913959
 20
27.841818
 10
3.913959
 20
233.848908
  0
LINE
  5
21EF
100
AcDbEntity
  8
LIMITS
 62
     7
100
AcDbLine
 10
0.0
 20
239.719846
 30
0.0
 11
0.0
 21
0.0
 31
0.0
  0
LWPOLYLINE
  5
21F0
100
AcDbEntity
  8
BORDER
 62
     5
100
AcDbPolyline
 90
        6
 70
     0
 43
0.871709
 10
3.913959
 20
27.841818
 10
3.913959
 20
233.848908
 42
-0.414214
 10
5.870939
 20
235.805887
 10
179.367125
 20
235.805887
 42
-0.414214
 10
181.324104
 20
233.848908
 10
181.324104
 20
27.841818
  0
TEXT
  5
21F1
100
AcDbEntity
  8
DIM
100
AcDbText
 10
51.95265
 20
101.710378
 30
0.0
 40
2.25
  1
FROGMOUTH ALUMINUM COVER-CFM32X30A
  7
ROMANS
100
AcDbText
  0
LINE
  5
21F2
100
AcDbEntity
  8
BORDER
100
AcDbLine
 10
176.431656
 20
20.096673
 30
0.0
 11
149.523188
 21
20.096673
 31
0.0
  0
LINE
  5
21F3
100
AcDbEntity
  8
BORDER
100
AcDbLine
 10
176.431656
 20
24.462243
 30
0.0
 11
149.523188
 21
24.462243
 31
0.0
  0
LWPOLYLINE
  5
21F4
100
AcDbEntity
  8
BORDER
 62
     5
100
AcDbPolyline
 90
        2
 70
     0
 43
1.223112
 10
176.431656
 20
26.908467
 10
149.523188
 20
26.908467
  0
LINE
  5
21F5
100
AcDbEntity
  8
BORDER
100
AcDbLine
 10
176.431656
 20
7.338673
 30
0.0
 11
147.076964
 21
7.338673
 31
0.0
  0
LINE
  5
21F6
100
AcDbEntity
  8
BORDER
100
AcDbLine
 10
176.431656
 20
10.311775
 30
0.0
 11
149.523188
 21
10.311775
 31
0.0
  0
LINE
  5
21F7
100
AcDbEntity
  8
BORDER
100
AcDbLine
 10
176.431656
 20
12.758
 30
0.0
 11
149.523188
 21
12.758
 31
0.0
  0
LINE
  5
21F8
100
AcDbEntity
  8
BORDER
100
AcDbLine
 10
176.431656
 20
15.204224
 30
0.0
 11
149.523188
 21
15.204224
 31
0.0
  0
LINE
  5
21F9
100
AcDbEntity
  8
BORDER
100
AcDbLine
 10
176.431656
 20
17.650448
 30
0.0
 11
149.523188
 21
17.650448
 31
0.0
  0
TEXT
  5
21FA
100
AcDbEntity
  8
BORDER
 62
     6
100
AcDbText
 10
152.179615
 20
18.26409
 30
0.0
 40
1.223112
  1
First Released 06/27/03
  7
ROMAND
100
AcDbText
  0
LWPOLYLINE
  5
21FB
100
AcDbEntity
  8
BORDER
 62
     5
100
AcDbPolyline
 90
        2
 70
     0
 43
1.223112
 10
176.431656
 20
4.892449
 10
8.806408
 20
4.892449
  0
LINE
  5
21FC
100
AcDbEntity
  8
LIMITS
 62
     7
100
AcDbLine
 10
0.0
 20
0.0
 30
0.0
 11
185.238063
 21
0.0
 31
0.0
  0
LINE
  5
21FD
100
AcDbEntity
  8
BORDER
100
AcDbLine
 10
151.969413
 20
20.096673
 30
0.0
 11
151.969413
 21
10.311775
 31
0.0
  0
LINE
  5
21FE
100
AcDbEntity
  8
BORDER
100
AcDbLine
 10
149.523188
 20
20.096673
 30
0.0
 11
149.523188
 21
10.311775
 31
0.0
  0
LINE
  5
21FF
100
AcDbEntity
  8
BORDER
100
AcDbLine
 10
147.076964
 20
7.338673
 30
0.0
 11
147.076964
 21
22.016019
 31
0.0
  0
LWPOLYLINE
  5
2200
100
AcDbEntity
  8
BORDER
 62
     5
100
AcDbPolyline
 90
        2
 70
     0
 43
1.223112
 10
144.63074
 20
7.338673
 10
144.63074
 20
22.016019
  0
LINE
  5
2201
100
AcDbEntity
  8
BORDER
100
AcDbLine
 10
139.738291
 20
22.016019
 30
0.0
 11
139.738291
 21
14.677346
 31
0.0
  0
LWPOLYLINE
  5
2202
100
AcDbEntity
  8
BORDER
 62
     5
100
AcDbPolyline
 90
        2
 70
     0
 43
1.223112
 10
142.184516
 20
7.338673
 10
142.184516
 20
22.016019
  0
TEXT
  5
2203
100
AcDbEntity
  8
BORDER
 62
     6
100
AcDbText
 10
101.246348
 20
18.321442
 30
0.0
 40
0.918144
  1
be used as a record or to identify or inspect parts or for other information purposes
 41
0.596266
  7
ROMANS
 72
     5
 11
139.073079
 21
18.321442
 31
0.0
100
AcDbText
  0
LWPOLYLINE
  5
2204
100
AcDbEntity
  8
BORDER
100
AcDbPolyline
 90
        6
 70
     1
 43
0.0
 10
151.267097
 20
17.9665
 10
151.788266
 20
18.869192
 10
151.267097
 20
19.771883
 10
150.224759
 20
19.771883
 10
149.70359
 20
18.869192
 10
150.224759
 20
17.9665
  0
LINE
  5
2205
100
AcDbEntity
  8
BORDER
100
AcDbLine
 10
82.78616
 20
14.677346
 30
0.0
 11
82.78616
 21
24.462243
 31
0.0
  0
TEXT
  5
2206
100
AcDbEntity
  8
BORDER
 62
     6
100
AcDbText
 10
83.287546
 20
17.612792
 30
0.0
 40
1.097562
  1
Appv'd By: .
  7
ROMANC
100
AcDbText
  0
LINE
  5
2207
100
AcDbEntity
  8
BORDER
100
AcDbLine
 10
45.499772
 20
14.677346
 30
0.0
 11
45.499772
 21
22.016019
 31
0.0
  0
LWPOLYLINE
  5
2208
100
AcDbEntity
  8
BORDER
 62
     5
100
AcDbPolyline
 90
        2
 70
     0
 43
1.223112
 10
43.053548
 20
22.016019
 10
43.053548
 20
7.338673
  0
LINE
  5
2209
100
AcDbEntity
  8
BORDER
100
AcDbLine
 10
38.161099
 20
7.338673
 30
0.0
 11
38.161099
 21
22.016019
 31
0.0
  0
LWPOLYLINE
  5
220A
100
AcDbEntity
  8
BORDER
 62
     5
100
AcDbPolyline
 90
        2
 70
     0
 43
1.223112
 10
40.607324
 20
7.338673
 10
40.607324
 20
22.016019
  0
ARC
  5
220B
102
{ACAD_REACTORS
330
2255
102
}
100
AcDbEntity
  8
BORDER
100
AcDbCircle
 10
32.701518
 20
16.575338
 30
0.0
 40
1.574252
100
AcDbArc
 50
4.10812
 51
90.34444
  0
HATCH
  5
220C
100
AcDbEntity
  8
BORDER
100
AcDbHatch
 10
0.0
 20
0.0
 30
0.0
210
0.0
220
0.0
230
1.0
  2
ANSI37
 70
     0
 71
     1
 91
        2
 92
        5
 93
        1
 72
     3
 10
22.900918
 20
15.536882
 11
0.0
 21
2.732416
 40
0.93822
 50
0.0
 51
360.0
 73
     1
 97
        1
330
220D
 92
       20
 93
        1
 72
     3
 10
22.900918
 20
15.552452
 11
0.0
 21
2.452169
 40
0.683214
 50
0.0
 51
360.0
 73
     1
 97
        1
330
2215
 75
     0
 76
     1
 52
0.0
 41
0.037901
 77
     0
 78
     2
 53
45.0
 43
2.436937
 44
-123.961443
 45
-0.0033499708691682
 46
0.0033499708691682
 79
     0
 53
135.0
 43
2.436937
 44
-123.961443
 45
-0.0033499708691682
 46
-0.0033499708691682
 79
     0
 47
0.027301
 98
        2
 10
21.057109
 20
16.649023
 10
21.057109
 20
16.649023
  0
ELLIPSE
  5
220D
102
{ACAD_REACTORS
330
220C
102
}
100
AcDbEntity
  8
BORDER
100
AcDbEllipse
 10
22.900918
 20
15.536882
 30
0.0
 11
0.0000000000000184
 21
2.732416418459644
 31
0.0
210
0.0
220
0.0
230
1.0
 40
0.93822
 41
0.0
 42
6.283185307179586
  0
LWPOLYLINE
  5
220E
102
{ACAD_REACTORS
330
225D
102
}
100
AcDbEntity
  8
BORDER
100
AcDbPolyline
 90
       17
 70
     0
 43
0.0
 10
28.277412
 20
15.275465
 42
-0.060912
 10
27.375244
 20
15.386607
 10
27.375244
 20
13.580334
 42
0.414214
 10
27.890613
 20
13.064964
 10
28.12911
 20
13.064964
 10
28.12911
 20
12.929123
 10
25.892228
 20
12.929123
 10
25.892228
 20
13.064964
 10
26.130725
 20
13.064964
 42
0.414214
 10
26.646094
 20
13.580334
 10
26.646094
 20
17.510202
 42
0.414214
 10
26.130725
 20
18.025571
 10
25.896103
 20
18.025571
 10
25.896103
 20
18.169413
 10
28.291983
 20
18.169413
 42
-0.395102
 10
29.871654
 20
16.707968
 42
-0.42915
 10
28.277412
 20
15.275465
  0
LINE
  5
220F
102
{ACAD_REACTORS
330
2212
102
}
100
AcDbEntity
  8
BORDER
100
AcDbLine
 10
17.322641
 20
14.376725
 30
0.0
 11
17.322641
 21
21.247996
 31
0.0
  0
LINE
  5
2210
102
{ACAD_REACTORS
330
2212
102
}
100
AcDbEntity
  8
BORDER
100
AcDbLine
 10
15.164901
 20
14.376725
 30
0.0
 11
15.164901
 21
21.247996
 31
0.0
  0
LINE
  5
2211
100
AcDbEntity
  8
BORDER
100
AcDbLine
 10
6.360183
 20
9.784897
 30
0.0
 11
6.360183
 21
22.016019
 31
0.0
  0
HATCH
  5
2212
100
AcDbEntity
  8
BORDER
100
AcDbHatch
 10
0.0
 20
0.0
 30
0.0
210
0.0
220
0.0
230
1.0
  2
ANSI37
 70
     0
 71
     1
 91
        1
 92
        7
 72
     1
 73
     1
 93
       18
 10
15.16490068200329
 20
14.37672513910587
 42
-0.4142135623730684
 10
13.91640054228435
 20
13.12822499938705
 42
0.0
 10
13.51432573052198
 20
13.12822499938705
 42
0.0
 10
13.5143257305221
 20
12.86780403133846
 42
0.0
 10
18.97321579978938
 20
12.86780403133847
 42
0.0
 10
18.97321579978927
 20
13.12822499938704
 42
0.0
 10
18.57114098802628
 20
13.12822499938705
 42
-0.4142135623730283
 10
17.32264084830762
 20
14.37672513910598
 42
0.0
 10
17.32264084830762
 20
21.2479957984503
 42
0.0
 10
18.42155012992304
 20
21.2479957984503
 42
-0.4138200196737635
 10
20.91336335817209
 20
18.75952888504959
 42
0.0
 10
21.17398240176487
 20
18.75952888504959
 42
0.0
 10
21.17398240176549
 20
21.88458050162727
 42
0.0
 10
11.31355912854593
 20
21.88458050162727
 42
0.0
 10
11.31355912854593
 20
18.75952888504959
 42
0.0
 10
11.57417817213922
 20
18.75952888504959
 42
-0.4138200196737639
 10
14.06599140038827
 20
21.2479957984503
 42
0.0
 10
15.16490068200329
 20
21.24799579845029
 42
0.0
 97
       18
330
229C
330
229D
330
2299
330
2296
330
2290
330
2292
330
2293
330
2294
330
2291
330
2210
330
221F
330
2233
330
221E
330
2222
330
221C
330
2234
330
221D
330
220F
 75
     0
 76
     1
 52
0.0
 41
0.037901
 77
     0
 78
     2
 53
45.0
 43
2.436937
 44
-123.961443
 45
-0.0033499708691682
 46
0.0033499708691682
 79
     0
 53
135.0
 43
2.436937
 44
-123.961443
 45
-0.0033499708691682
 46
-0.0033499708691682
 79
     0
 47
0.049862
 98
        1
 10
15.97897
 20
17.679063
  0
LWPOLYLINE
  5
2213
100
AcDbEntity
  8
BORDER
 62
     5
100
AcDbPolyline
 90
        2
 70
     0
 43
1.223112
 10
3.913959
 20
22.016019
 10
3.913959
 20
9.784897
  0
TEXT
  5
2214
100
AcDbEntity
  8
BORDER
 62
     6
100
AcDbText
 10
45.854223
 20
17.18329
 30
0.0
 40
1.097562
  1
Reference:
  7
ROMANC
100
AcDbText
  0
ELLIPSE
  5
2215
102
{ACAD_REACTORS
330
220C
102
}
100
AcDbEntity
  8
BORDER
100
AcDbEllipse
 10
22.900918
 20
15.552452
 30
0.0
 11
0.0000000000000184
 21
2.452168679854462
 31
0.0
210
0.0
220
0.0
230
1.0
 40
0.683214
 41
0.0
 42
6.283185307179586
  0
SPLINE
  5
2216
100
AcDbEntity
  8
BORDER
100
AcDbSpline
210
0.0
220
0.0
230
1.0
 70
    11
 71
     3
 72
    24
 73
    20
 74
     0
 42
0.0000001
 43
0.0000001
 40
0.0
 40
0.0
 40
0.0
 40
0.0
 40
0.474866629778075
 40
0.474866629778075
 40
1.277791044886493
 40
1.277791044886493
 40
2.080715459994911
 40
2.080715459994911
 40
2.883639875103329
 40
2.883639875103329
 40
3.686564290211747
 40
3.686564290211747
 40
4.489488705320165
 40
4.489488705320165
 40
5.292413120428583
 40
5.292413120428583
 40
6.095337535537001
 40
6.095337535537001
 40
6.283185307179586
 40
6.283185307179586
 40
6.283185307179586
 40
6.283185307179586
 10
23.01269263202744
 20
11.90840313371179
 30
0.0
 10
22.84962638633953
 20
11.90840313371179
 30
0.0
 10
22.68669749927329
 20
11.86884867734452
 30
0.0
 10
22.29648260346562
 20
11.66760202306271
 30
0.0
 10
22.10611121645718
 20
11.43829197159122
 30
0.0
 10
21.94687551381633
 20
10.90880439353536
 30
0.0
 10
21.97906981665255
 20
10.61217434795366
 30
0.0
 10
22.24817904969461
 20
10.12945477967878
 30
0.0
 10
22.48330068557237
 20
9.946607085706517
 30
0.0
 10
23.01648565043945
 20
9.805490716064426
 30
0.0
 10
23.31095708666953
 20
9.848180171369577
 30
0.0
 10
23.78248330111887
 20
10.13492904269399
 30
0.0
 10
23.95637178428086
 20
10.37704783755842
 30
0.0
 10
24.0782431455878
 20
10.91641959043246
 30
0.0
 10
24.02541623187056
 20
11.21006074859251
 30
0.0
 10
23.72325681436837
 20
11.67269157739352
 30
0.0
 10
23.47593976258696
 20
11.83857135235933
 30
0.0
 10
23.14170280058158
 20
11.90230746473985
 30
0.0
 10
23.07719838787915
 20
11.90840313371179
 30
0.0
 10
23.01269263202744
 20
11.90840313371179
 30
0.0
  0
LINE
  5
2217
100
AcDbEntity
  8
BORDER
100
AcDbLine
 10
10.034677
 20
12.528372
 30
0.0
 11
34.623753
 21
12.528372
 31
0.0
  0
LINE
  5
2218
100
AcDbEntity
  8
BORDER
100
AcDbLine
 10
10.034677
 20
12.528372
 30
0.0
 11
34.623753
 21
12.528372
 31
0.0
  0
LINE
  5
2219
100
AcDbEntity
  8
BORDER
100
AcDbLine
 10
8.806408
 20
7.338673
 30
0.0
 11
38.161099
 21
7.338673
 31
0.0
  0
ARC
  5
221A
100
AcDbEntity
  8
BORDER
100
AcDbCircle
 10
8.806408
 20
9.784897
 30
0.0
 40
2.446224
100
AcDbArc
 50
180.0
 51
270.0
  0
LWPOLYLINE
  5
221B
100
AcDbEntity
  8
BORDER
 62
     5
100
AcDbPolyline
 90
        2
 70
     0
 43
1.223112
 10
8.806408
 20
4.892449
 42
-0.414214
 10
3.913959
 20
9.784897
 42
0.560527
  0
LINE
  5
221C
102
{ACAD_REACTORS
330
2212
102
}
100
AcDbEntity
  8
BORDER
100
AcDbLine
 10
18.973216
 20
13.128225
 30
0.0
 11
18.973216
 21
12.867804
 31
0.0
  0
ARC
  5
221D
102
{ACAD_REACTORS
330
2212
102
}
100
AcDbEntity
  8
BORDER
100
AcDbCircle
 10
18.571141
 20
14.376725
 30
0.0
 40
1.2485
100
AcDbArc
 50
180.0
 51
270.0
  0
LINE
  5
221E
102
{ACAD_REACTORS
330
2212
102
}
100
AcDbEntity
  8
BORDER
100
AcDbLine
 10
13.514326
 20
13.128225
 30
0.0
 11
13.514326
 21
12.867804
 31
0.0
  0
ARC
  5
221F
102
{ACAD_REACTORS
330
2212
102
}
100
AcDbEntity
  8
BORDER
100
AcDbCircle
 10
13.916401
 20
14.376725
 30
0.0
 40
1.2485
100
AcDbArc
 50
270.0
 51
0.0
  0
ARC
  5
2220
100
AcDbEntity
  8
BORDER
100
AcDbCircle
 10
14.926713
 20
10.790509
 30
0.0
 40
0.922666
100
AcDbArc
 50
174.737783
 51
327.723969
  0
ARC
  5
2221
100
AcDbEntity
  8
BORDER
100
AcDbCircle
 10
14.998232
 20
10.890948
 30
0.0
 40
0.990423
100
AcDbArc
 50
44.321228
 51
180.91508
  0
LINE
  5
2222
102
{ACAD_REACTORS
330
2212
102
}
100
AcDbEntity
  8
BORDER
100
AcDbLine
 10
13.514326
 20
12.867804
 30
0.0
 11
18.973216
 21
12.867804
 31
0.0
  0
LINE
  5
2223
100
AcDbEntity
  8
BORDER
100
AcDbLine
 10
13.536025
 20
11.881115
 30
0.0
 11
13.536025
 21
9.869145
 31
0.0
  0
LINE
  5
2224
100
AcDbEntity
  8
BORDER
100
AcDbLine
 10
11.994451
 20
11.881115
 30
0.0
 11
11.994451
 21
9.869145
 31
0.0
  0
LINE
  5
2225
100
AcDbEntity
  8
BORDER
100
AcDbLine
 10
11.113551
 20
11.881115
 30
0.0
 11
11.113551
 21
9.869145
 31
0.0
  0
LINE
  5
2226
100
AcDbEntity
  8
BORDER
100
AcDbLine
 10
10.70157
 20
11.881115
 30
0.0
 11
11.525532
 21
11.881115
 31
0.0
  0
LINE
  5
2227
100
AcDbEntity
  8
BORDER
100
AcDbLine
 10
10.70157
 20
9.869145
 30
0.0
 11
11.525532
 21
9.869145
 31
0.0
  0
LINE
  5
2228
100
AcDbEntity
  8
BORDER
100
AcDbLine
 10
13.536025
 20
9.869145
 30
0.0
 11
11.994451
 21
11.881115
 31
0.0
  0
LINE
  5
2229
100
AcDbEntity
  8
BORDER
100
AcDbLine
 10
21.17908
 20
11.881115
 30
0.0
 11
20.656884
 21
11.881115
 31
0.0
  0
LINE
  5
222A
100
AcDbEntity
  8
BORDER
100
AcDbLine
 10
20.656884
 20
10.849483
 30
0.0
 11
21.17908
 21
10.849483
 31
0.0
  0
LINE
  5
222B
100
AcDbEntity
  8
BORDER
100
AcDbLine
 10
20.656884
 20
11.881115
 30
0.0
 11
20.656884
 21
9.869145
 31
0.0
  0
ARC
  5
222C
100
AcDbEntity
  8
BORDER
100
AcDbCircle
 10
21.17908
 20
11.365299
 30
0.0
 40
0.515816
100
AcDbArc
 50
270.0
 51
90.0
  0
ARC
  5
222D
100
AcDbEntity
  8
BORDER
100
AcDbCircle
 10
19.227037
 20
11.365299
 30
0.0
 40
0.515816
100
AcDbArc
 50
270.0
 51
90.0
  0
LINE
  5
222E
100
AcDbEntity
  8
BORDER
100
AcDbLine
 10
19.082186
 20
10.849483
 30
0.0
 11
19.880938
 21
9.869145
 31
0.0
  0
LINE
  5
222F
100
AcDbEntity
  8
BORDER
100
AcDbLine
 10
19.227037
 20
11.881115
 30
0.0
 11
18.531491
 21
11.881115
 31
0.0
  0
LINE
  5
2230
100
AcDbEntity
  8
BORDER
100
AcDbLine
 10
18.531491
 20
10.849483
 30
0.0
 11
19.227037
 21
10.849483
 31
0.0
  0
LINE
  5
2231
100
AcDbEntity
  8
BORDER
100
AcDbLine
 10
18.531491
 20
11.881115
 30
0.0
 11
18.531491
 21
9.869145
 31
0.0
  0
SPLINE
  5
2232
100
AcDbEntity
  8
BORDER
100
AcDbSpline
210
0.0
220
0.0
230
1.0
 70
    11
 71
     3
 72
    24
 73
    20
 74
     0
 42
0.0000001
 43
0.0000001
 40
0.0
 40
0.0
 40
0.0
 40
0.0
 40
0.474866629778075
 40
0.474866629778075
 40
1.277791044886493
 40
1.277791044886493
 40
2.080715459994911
 40
2.080715459994911
 40
2.883639875103329
 40
2.883639875103329
 40
3.686564290211747
 40
3.686564290211747
 40
4.489488705320165
 40
4.489488705320165
 40
5.292413120428583
 40
5.292413120428583
 40
6.095337535537001
 40
6.095337535537001
 40
6.283185307179586
 40
6.283185307179586
 40
6.283185307179586
 40
6.283185307179586
 10
17.02617419354339
 20
11.90840313371179
 30
0.0
 10
16.86310794785606
 20
11.90840313371179
 30
0.0
 10
16.70017906078959
 20
11.86884867734452
 30
0.0
 10
16.30996416498209
 20
11.66760202306271
 30
0.0
 10
16.11959277797331
 20
11.43829197159122
 30
0.0
 10
15.96035707533235
 20
10.90880439353536
 30
0.0
 10
15.99255137816851
 20
10.61217434795366
 30
0.0
 10
16.26166061121102
 20
10.12945477967878
 30
0.0
 10
16.49678224708884
 20
9.946607085706517
 30
0.0
 10
17.02996721195574
 20
9.805490716064426
 30
0.0
 10
17.324438648186
 20
9.848180171369577
 30
0.0
 10
17.79596486263562
 20
10.13492904269399
 30
0.0
 10
17.96985334579733
 20
10.37704783755842
 30
0.0
 10
18.09172470710359
 20
10.91641959043246
 30
0.0
 10
18.03889779338669
 20
11.21006074859251
 30
0.0
 10
17.73673837588421
 20
11.67269157739352
 30
0.0
 10
17.48942132410332
 20
11.83857135235933
 30
0.0
 10
17.15518436209794
 20
11.90230746473985
 30
0.0
 10
17.09067994939499
 20
11.90840313371179
 30
0.0
 10
17.02617419354339
 20
11.90840313371179
 30
0.0
  0
LINE
  5
2233
102
{ACAD_REACTORS
330
2212
102
}
100
AcDbEntity
  8
BORDER
100
AcDbLine
 10
13.514326
 20
13.128225
 30
0.0
 11
13.916401
 21
13.128225
 31
0.0
  0
LINE
  5
2234
102
{ACAD_REACTORS
330
2212
102
}
100
AcDbEntity
  8
BORDER
100
AcDbLine
 10
18.973216
 20
13.128225
 30
0.0
 11
18.571141
 21
13.128225
 31
0.0
  0
TEXT
  5
2235
100
AcDbEntity
  8
BORDER
 62
     6
100
AcDbText
 10
83.350112
 20
9.233273
 30
0.0
 40
1.097562
  1
Prior To:
  7
ROMANC
100
AcDbText
  0
TEXT
  5
2236
100
AcDbEntity
  8
BORDER
 62
     6
100
AcDbText
 10
83.350112
 20
11.010279
 30
0.0
 40
1.097562
  1
Supersedes Prints
  7
ROMANC
100
AcDbText
  0
TEXT
  5
2237
100
AcDbEntity
  8
BORDER
 62
     6
100
AcDbText
 10
83.287546
 20
14.997667
 30
0.0
 40
1.097562
  1
Date: 06/26/03
  7
ROMANC
100
AcDbText
  0
LINE
  5
2238
100
AcDbEntity
  8
BORDER
100
AcDbLine
 10
82.78616
 20
14.677346
 30
0.0
 11
139.738291
 21
14.677346
 31
0.0
  0
LINE
  5
2239
100
AcDbEntity
  8
BORDER
100
AcDbLine
 10
82.78616
 20
12.920093
 30
0.0
 11
110.3836
 21
12.920093
 31
0.0
  0
LINE
  5
223A
100
AcDbEntity
  8
BORDER
100
AcDbLine
 10
82.78616
 20
7.338673
 30
0.0
 11
110.3836
 21
7.338673
 31
0.0
  0
LINE
  5
223B
100
AcDbEntity
  8
BORDER
100
AcDbLine
 10
45.499772
 20
12.920093
 30
0.0
 11
103.205176
 21
12.920093
 31
0.0
  0
LINE
  5
223C
100
AcDbEntity
  8
BORDER
100
AcDbLine
 10
45.499772
 20
14.677346
 30
0.0
 11
103.205176
 21
14.677346
 31
0.0
  0
LINE
  5
223D
100
AcDbEntity
  8
BORDER
100
AcDbLine
 10
45.499772
 20
7.338673
 30
0.0
 11
103.205176
 21
7.338673
 31
0.0
  0
TEXT
  5
223E
100
AcDbEntity
  8
BORDER
 62
     6
100
AcDbText
 10
51.625164
 20
11.278144
 30
0.0
 40
0.932928
  1
Highway 25 North P.O. Box 420
  7
ROMANC
100
AcDbText
  0
TEXT
  5
223F
100
AcDbEntity
  8
BORDER
 62
     6
100
AcDbText
 10
55.642616
 20
9.621348
 30
0.0
 40
0.932928
  1
Rochester, IN  46975
  7
ROMANC
100
AcDbText
  0
TEXT
  5
2240
100
AcDbEntity
  8
BORDER
 62
     6
100
AcDbText
 10
47.219518
 20
7.745039
 30
0.0
 40
0.932928
  1
Phone: 800/354-4534  Fax: 574/223-6106
  7
ROMANC
100
AcDbText
  0
LINE
  5
2241
100
AcDbEntity
  8
BORDER
100
AcDbLine
 10
45.499772
 20
7.338673
 30
0.0
 11
45.499772
 21
12.920093
 31
0.0
  0
LINE
  5
2242
100
AcDbEntity
  8
BORDER
100
AcDbLine
 10
30.626976
 20
11.881115
 30
0.0
 11
31.92504
 21
11.881115
 31
0.0
  0
LINE
  5
2243
100
AcDbEntity
  8
BORDER
100
AcDbLine
 10
31.92504
 20
9.869145
 30
0.0
 11
30.626976
 21
9.869145
 31
0.0
  0
LINE
  5
2244
100
AcDbEntity
  8
BORDER
100
AcDbLine
 10
30.626976
 20
9.869145
 30
0.0
 11
30.626976
 21
11.881115
 31
0.0
  0
LINE
  5
2245
100
AcDbEntity
  8
BORDER
100
AcDbLine
 10
30.626976
 20
10.87513
 30
0.0
 11
31.490203
 21
10.87513
 31
0.0
  0
LINE
  5
2246
100
AcDbEntity
  8
BORDER
100
AcDbLine
 10
29.329809
 20
11.881115
 30
0.0
 11
29.329809
 21
9.869145
 31
0.0
  0
LINE
  5
2247
100
AcDbEntity
  8
BORDER
100
AcDbLine
 10
28.477384
 20
11.881115
 30
0.0
 11
30.182233
 21
11.881115
 31
0.0
  0
LINE
  5
2248
100
AcDbEntity
  8
BORDER
100
AcDbLine
 10
27.270267
 20
11.881115
 30
0.0
 11
26.499653
 21
9.869145
 31
0.0
  0
LINE
  5
2249
100
AcDbEntity
  8
BORDER
100
AcDbLine
 10
24.597994
 20
10.849483
 30
0.0
 11
25.293541
 21
10.849483
 31
0.0
  0
LINE
  5
224A
100
AcDbEntity
  8
BORDER
100
AcDbLine
 10
25.293541
 20
11.881115
 30
0.0
 11
24.597994
 21
11.881115
 31
0.0
  0
LINE
  5
224B
100
AcDbEntity
  8
BORDER
100
AcDbLine
 10
24.597994
 20
11.881115
 30
0.0
 11
24.597994
 21
9.869145
 31
0.0
  0
ARC
  5
224C
100
AcDbEntity
  8
BORDER
100
AcDbCircle
 10
25.293541
 20
11.365299
 30
0.0
 40
0.515816
100
AcDbArc
 50
270.0
 51
90.0
  0
LINE
  5
224D
100
AcDbEntity
  8
BORDER
100
AcDbLine
 10
25.14869
 20
10.849483
 30
0.0
 11
25.947441
 21
9.869145
 31
0.0
  0
LINE
  5
224E
100
AcDbEntity
  8
BORDER
100
AcDbLine
 10
26.780638
 20
10.602759
 30
0.0
 11
27.77726
 21
10.602759
 31
0.0
  0
LINE
  5
224F
100
AcDbEntity
  8
BORDER
100
AcDbLine
 10
28.068209
 20
9.869145
 30
0.0
 11
27.270267
 21
11.881115
 31
0.0
  0
ARC
  5
2250
100
AcDbEntity
  8
BORDER
100
AcDbCircle
 10
33.245098
 20
10.87513
 30
0.0
 40
1.005985
100
AcDbArc
 50
270.0
 51
90.0
  0
LINE
  5
2251
100
AcDbEntity
  8
BORDER
100
AcDbLine
 10
32.485751
 20
11.881115
 30
0.0
 11
32.485751
 21
9.869145
 31
0.0
  0
LINE
  5
2252
100
AcDbEntity
  8
BORDER
100
AcDbLine
 10
32.485751
 20
9.869145
 30
0.0
 11
33.245098
 21
9.869145
 31
0.0
  0
LINE
  5
2253
100
AcDbEntity
  8
BORDER
100
AcDbLine
 10
33.245098
 20
11.881115
 30
0.0
 11
32.485751
 21
11.881115
 31
0.0
  0
ARC
  5
2254
102
{ACAD_REACTORS
330
2255
102
}
100
AcDbEntity
  8
BORDER
100
AcDbCircle
 10
32.290684
 20
13.560481
 30
0.0
 40
0.515369
100
AcDbArc
 50
180.0
 51
270.0
  0
HATCH
  5
2255
100
AcDbEntity
  8
BORDER
100
AcDbHatch
 10
0.0
 20
0.0
 30
0.0
210
0.0
220
0.0
230
1.0
  2
ANSI37
 70
     0
 71
     1
 91
        2
 92
        7
 72
     1
 73
     1
 93
       16
 10
31.04616565256583
 20
13.56048133280481
 42
-0.4142135623729124
 10
30.53079640884465
 20
13.04511208908394
 42
0.0
 10
30.29229899086436
 20
13.04511208908394
 42
0.0
 10
30.29229899086431
 20
12.90927100130692
 42
0.0
 10
32.52918149524612
 20
12.90927100130692
 42
0.0
 10
32.52918149524612
 20
13.04511208908393
 42
0.0
 10
32.29068407726686
 20
13.04511208908394
 42
-0.4142135623735596
 10
31.77531483354482
 20
13.56048133280515
 42
0.0
 10
31.77531483354482
 20
15.36675437900616
 42
0.0609117558027525
 10
32.67748307952024
 20
15.25561223347739
 42
0.4291497434355222
 10
34.27172511039623
 20
16.68811529610852
 42
0.3916311771492478
 10
32.71098200034714
 20
18.14956101333771
 42
0.0
 10
30.29617409122988
 20
18.14956101333771
 42
0.0
 10
30.29617409122983
 20
18.00571886702538
 42
0.0
 10
30.53079640884482
 20
18.00571886702538
 42
-0.4142135623729981
 10
31.04616565256583
 20
17.49034962330419
 42
0.0
 97
       16
330
220B
330
2257
330
225B
330
225F
330
225A
330
2258
330
2259
330
2260
330
225C
330
2256
330
2262
330
2261
330
2254
330
2264
330
2263
330
2266
 92
       22
 72
     1
 73
     1
 93
        3
 10
31.77531483354482
 20
17.76249218951416
 42
-0.5287425889412538
 10
33.39427352013274
 20
16.62636948780488
 42
-0.5439228899279119
 10
31.77531483354482
 20
15.56434127510947
 42
0.0
 97
        3
330
2267
330
2265
330
2268
 75
     0
 76
     1
 52
0.0
 41
0.037901
 77
     0
 78
     2
 53
45.0
 43
2.436937
 44
-123.961443
 45
-0.0033499708691682
 46
0.0033499708691682
 79
     0
 53
135.0
 43
2.436937
 44
-123.961443
 45
-0.0033499708691682
 46
-0.0033499708691682
 79
     0
 47
0.027301
 98
        2
 10
31.349964
 20
16.379994
 10
31.349964
 20
16.379994
  0
LINE
  5
2256
102
{ACAD_REACTORS
330
2255
102
}
100
AcDbEntity
  8
BORDER
100
AcDbLine
 10
30.292299
 20
12.909271
 30
0.0
 11
32.529181
 21
12.909271
 31
0.0
  0
LINE
  5
2257
102
{ACAD_REACTORS
330
2255
102
}
100
AcDbEntity
  8
BORDER
100
AcDbLine
 10
30.296174
 20
18.149561
 30
0.0
 11
32.710982
 21
18.149561
 31
0.0
  0
LINE
  5
2258
102
{ACAD_REACTORS
330
2255
102
}
100
AcDbEntity
  8
BORDER
100
AcDbLine
 10
31.046166
 20
13.560481
 30
0.0
 11
31.046166
 21
17.49035
 31
0.0
  0
ARC
  5
2259
102
{ACAD_REACTORS
330
2255
102
}
100
AcDbEntity
  8
BORDER
100
AcDbCircle
 10
30.530796
 20
13.560481
 30
0.0
 40
0.515369
100
AcDbArc
 50
270.0
 51
360.0
  0
ARC
  5
225A
102
{ACAD_REACTORS
330
2255
102
}
100
AcDbEntity
  8
BORDER
100
AcDbCircle
 10
30.530796
 20
17.49035
 30
0.0
 40
0.515369
100
AcDbArc
 50
0.0
 51
90.0
  0
LINE
  5
225B
102
{ACAD_REACTORS
330
2255
102
}
100
AcDbEntity
  8
BORDER
100
AcDbLine
 10
30.296174
 20
18.149561
 30
0.0
 11
30.296174
 21
18.005719
 31
0.0
  0
LINE
  5
225C
102
{ACAD_REACTORS
330
2255
102
}
100
AcDbEntity
  8
BORDER
100
AcDbLine
 10
30.292299
 20
13.045112
 30
0.0
 11
30.292299
 21
12.909271
 31
0.0
  0
HATCH
  5
225D
100
AcDbEntity
  8
BORDER
100
AcDbHatch
 10
0.0
 20
0.0
 30
0.0
210
0.0
220
0.0
230
1.0
  2
ANSI37
 70
     0
 71
     1
 91
        2
 92
        7
 72
     1
 73
     1
 93
       16
 10
26.64609437704644
 20
13.58033363371731
 42
-0.4142135623730741
 10
26.13072513332554
 20
13.06496438999638
 42
0.0
 10
25.89222771534514
 20
13.06496438999639
 42
0.0
 10
25.89222771534497
 20
12.92912330221834
 42
0.0
 10
28.12911021972746
 20
12.92912330221834
 42
0.0
 10
28.12911021972757
 20
13.06496438999639
 42
0.0
 10
27.89061280174701
 20
13.06496438999638
 42
-0.4142135623730749
 10
27.37524355802617
 20
13.58033363371726
 42
0.0
 10
27.37524355802617
 20
15.38660667991773
 42
0.0609117558023567
 10
28.27741180399561
 20
15.27546453438897
 42
0.4291497434370737
 10
29.87165383487683
 20
16.70796759702261
 42
0.3951020987304174
 10
28.29198323739052
 20
18.16941331424914
 42
0.0
 10
25.89610281571054
 20
18.16941331424913
 42
0.0
 10
25.89610281571066
 20
18.02557116793784
 42
0.0
 10
26.13072513332548
 20
18.02557116793784
 42
-0.414213562373103
 10
26.64609437704644
 20
17.5102019242169
 42
0.0
 97
        1
330
220E
 92
       22
 72
     1
 73
     1
 93
        3
 10
27.37524355802617
 20
17.78234449042532
 42
-0.5287425889465087
 10
28.99420224461363
 20
16.64622178869642
 42
-0.5439228899219494
 10
27.37524355802617
 20
15.58419357602166
 42
0.0
 97
        1
330
225E
 75
     0
 76
     1
 52
0.0
 41
0.037901
 77
     0
 78
     2
 53
45.0
 43
2.436937
 44
-123.961443
 45
-0.0033499708691682
 46
0.0033499708691682
 79
     0
 53
135.0
 43
2.436937
 44
-123.961443
 45
-0.0033499708691682
 46
-0.0033499708691682
 79
     0
 47
0.027301
 98
        2
 10
26.93874
 20
16.835275
 10
26.93874
 20
16.835275
  0
LWPOLYLINE
  5
225E
102
{ACAD_REACTORS
330
225D
102
}
100
AcDbEntity
  8
BORDER
100
AcDbPolyline
 90
        3
 70
     1
 43
0.0
 10
27.375244
 20
15.584194
 42
0.543923
 10
28.994202
 20
16.646222
 42
0.528743
 10
27.375244
 20
17.782344
  0
LINE
  5
225F
102
{ACAD_REACTORS
330
2255
102
}
100
AcDbEntity
  8
BORDER
100
AcDbLine
 10
30.296174
 20
18.005719
 30
0.0
 11
30.530796
 21
18.005719
 31
0.0
  0
LINE
  5
2260
102
{ACAD_REACTORS
330
2255
102
}
100
AcDbEntity
  8
BORDER
100
AcDbLine
 10
30.292299
 20
13.045112
 30
0.0
 11
30.530796
 21
13.045112
 31
0.0
  0
LINE
  5
2261
102
{ACAD_REACTORS
330
2255
102
}
100
AcDbEntity
  8
BORDER
100
AcDbLine
 10
32.290684
 20
13.045112
 30
0.0
 11
32.529181
 21
13.045112
 31
0.0
  0
LINE
  5
2262
102
{ACAD_REACTORS
330
2255
102
}
100
AcDbEntity
  8
BORDER
100
AcDbLine
 10
32.529181
 20
13.045112
 30
0.0
 11
32.529181
 21
12.909271
 31
0.0
  0
ARC
  5
2263
102
{ACAD_REACTORS
330
2255
102
}
100
AcDbEntity
  8
BORDER
100
AcDbCircle
 10
32.680867
 20
19.000213
 30
0.0
 40
3.744602
100
AcDbArc
 50
256.005504
 51
269.948223
  0
LINE
  5
2264
102
{ACAD_REACTORS
330
2255
102
}
100
AcDbEntity
  8
BORDER
100
AcDbLine
 10
31.775315
 20
15.366754
 30
0.0
 11
31.775315
 21
13.560481
 31
0.0
  0
ARC
  5
2265
102
{ACAD_REACTORS
330
2255
102
}
100
AcDbEntity
  8
BORDER
100
AcDbCircle
 10
32.241076
 20
16.61932
 30
0.0
 40
1.153219
100
AcDbArc
 50
246.179097
 51
0.350223
  0
ARC
  5
2266
102
{ACAD_REACTORS
330
2255
102
}
100
AcDbEntity
  8
BORDER
100
AcDbCircle
 10
32.793793
 20
16.729543
 30
0.0
 40
1.478513
100
AcDbArc
 50
265.488062
 51
358.394374
  0
ARC
  5
2267
102
{ACAD_REACTORS
330
2255
102
}
100
AcDbEntity
  8
BORDER
100
AcDbCircle
 10
32.197792
 20
16.642958
 30
0.0
 40
1.196597
100
AcDbArc
 50
359.205673
 51
110.674935
  0
LINE
  5
2268
102
{ACAD_REACTORS
330
2255
102
}
100
AcDbEntity
  8
BORDER
100
AcDbLine
 10
31.775315
 20
17.762492
 30
0.0
 11
31.775315
 21
15.564341
 31
0.0
  0
LINE
  5
2269
100
AcDbEntity
  8
BORDER
100
AcDbLine
 10
82.78616
 20
7.338673
 30
0.0
 11
82.78616
 21
12.920093
 31
0.0
  0
TEXT
  5
226A
100
AcDbEntity
  8
BORDER
 62
     6
100
AcDbText
 10
63.185549
 20
16.405136
 30
0.0
 40
1.097562
  1
CFM32x30x25
  7
ROMANC
100
AcDbText
  0
LINE
  5
226B
100
AcDbEntity
  8
BORDER
100
AcDbLine
 10
112.140852
 20
7.338673
 30
0.0
 11
139.738291
 21
7.338673
 31
0.0
  0
LINE
  5
226C
100
AcDbEntity
  8
BORDER
100
AcDbLine
 10
112.140852
 20
12.920093
 30
0.0
 11
139.738291
 21
12.920093
 31
0.0
  0
TEXT
  5
226D
100
AcDbEntity
  8
BORDER
 62
     6
100
AcDbText
 10
101.246348
 20
15.348405
 30
0.0
 40
0.918144
  1
in this print by any other source than TOPP INDUSTRIES, INC.
 41
0.839168
  7
ROMANS
 72
     5
 11
139.073079
 21
15.348405
 31
0.0
100
AcDbText
  0
TEXT
  5
226E
100
AcDbEntity
  8
BORDER
 62
     6
100
AcDbText
 10
101.246348
 20
16.834924
 30
0.0
 40
0.918144
  1
and will not be used to manufacture or procure the manufacture of the items shown
 41
0.600404
  7
ROMANS
 72
     5
 11
139.073079
 21
16.834924
 31
0.0
100
AcDbText
  0
LINE
  5
226F
100
AcDbEntity
  8
BORDER
100
AcDbLine
 10
112.140852
 20
12.920093
 30
0.0
 11
112.140852
 21
7.338673
 31
0.0
  0
LINE
  5
2270
100
AcDbEntity
  8
BORDER
100
AcDbLine
 10
110.3836
 20
12.920093
 30
0.0
 11
110.3836
 21
7.338673
 31
0.0
  0
TEXT
  5
2271
100
AcDbEntity
  8
BORDER
 62
     6
100
AcDbText
 10
95.153688
 20
8.321506
 30
0.0
 40
1.406579
  1
06/26/03
  7
ROMAND
100
AcDbText
  0
TEXT
  5
2272
100
AcDbEntity
  8
BORDER
 62
     6
100
AcDbText
 10
112.718476
 20
9.354898
 30
0.0
 40
1.097562
  1
No:
  7
ROMANC
100
AcDbText
  0
TEXT
  5
2273
100
AcDbEntity
  8
BORDER
 62
     6
100
AcDbText
 10
112.718476
 20
11.131904
 30
0.0
 40
1.097562
  1
Reference
  7
ROMANC
100
AcDbText
  0
LINE
  5
2274
100
AcDbEntity
  8
BORDER
100
AcDbLine
 10
139.738291
 20
12.920093
 30
0.0
 11
139.738291
 21
7.338673
 31
0.0
  0
TEXT
  5
2275
100
AcDbEntity
  8
BORDER
 62
     6
100
AcDbText
 10
122.106023
 20
8.586411
 30
0.0
 40
3.292687
  1
16074
  7
ROMANC
100
AcDbText
  0
LINE
  5
2276
100
AcDbEntity
  8
DIM
 62
     2
100
AcDbLine
 39
20.0
 10
104.692784
 20
51.553675
 30
0.0
 11
104.692784
 21
55.553675
 31
0.0
  0
LINE
  5
2277
100
AcDbEntity
  8
DIM
 62
     2
100
AcDbLine
 39
20.0
 10
104.442784
 20
51.553675
 30
0.0
 11
104.442784
 21
55.553675
 31
0.0
  0
LINE
  5
2278
100
AcDbEntity
  8
DIM
 62
     2
100
AcDbLine
 39
20.0
 10
104.692784
 20
55.553675
 30
0.0
 11
104.442784
 21
55.553675
 31
0.0
  0
LINE
  5
2279
100
AcDbEntity
  8
DIM
 62
     2
100
AcDbLine
 39
20.0
 10
104.692784
 20
51.553675
 30
0.0
 11
104.442784
 21
51.553675
 31
0.0
  0
LINE
  5
227A
100
AcDbEntity
  8
DIM
 62
     2
100
AcDbLine
 39
20.0
 10
106.817784
 20
51.553675
 30
0.0
 11
106.817784
 21
55.553675
 31
0.0
  0
LINE
  5
227B
100
AcDbEntity
  8
DIM
 62
     2
100
AcDbLine
 39
20.0
 10
104.942784
 20
55.553675
 30
0.0
 11
104.692784
 21
55.553675
 31
0.0
  0
LINE
  5
227C
100
AcDbEntity
  8
DIM
 62
     2
100
AcDbLine
 39
20.0
 10
104.942784
 20
51.553675
 30
0.0
 11
104.692784
 21
51.553675
 31
0.0
  0
LINE
  5
227D
100
AcDbEntity
  8
DIM
 62
     2
100
AcDbLine
 39
20.0
 10
104.692784
 20
55.553675
 30
0.0
 11
104.692784
 21
51.553675
 31
0.0
  0
LINE
  5
227E
100
AcDbEntity
  8
DIM
 62
     2
100
AcDbLine
 39
20.0
 10
104.942784
 20
55.553675
 30
0.0
 11
104.942784
 21
51.553675
 31
0.0
  0
LINE
  5
227F
100
AcDbEntity
  8
DIM
 62
     2
100
AcDbLine
 39
20.0
 10
102.817784
 20
51.553675
 30
0.0
 11
102.817784
 21
55.553675
 31
0.0
  0
LINE
  5
2280
100
AcDbEntity
  8
DIM
 62
     2
100
AcDbLine
 39
20.0
 10
102.817784
 20
78.115406
 30
0.0
 11
102.817784
 21
74.115406
 31
0.0
  0
LINE
  5
2281
100
AcDbEntity
  8
DIM
 62
     2
100
AcDbLine
 39
20.0
 10
104.942784
 20
74.115406
 30
0.0
 11
104.942784
 21
78.115406
 31
0.0
  0
LINE
  5
2282
100
AcDbEntity
  8
DIM
 62
     2
100
AcDbLine
 39
20.0
 10
104.692784
 20
74.115406
 30
0.0
 11
104.692784
 21
78.115406
 31
0.0
  0
LINE
  5
2283
100
AcDbEntity
  8
DIM
 62
     2
100
AcDbLine
 39
20.0
 10
104.942784
 20
78.115406
 30
0.0
 11
104.692784
 21
78.115406
 31
0.0
  0
LINE
  5
2284
100
AcDbEntity
  8
DIM
 62
     2
100
AcDbLine
 39
20.0
 10
104.942784
 20
74.115406
 30
0.0
 11
104.692784
 21
74.115406
 31
0.0
  0
LINE
  5
2285
100
AcDbEntity
  8
DIM
 62
     2
100
AcDbLine
 39
20.0
 10
106.817784
 20
78.115406
 30
0.0
 11
106.817784
 21
74.115406
 31
0.0
  0
LINE
  5
2286
100
AcDbEntity
  8
DIM
 62
     2
100
AcDbLine
 39
20.0
 10
104.692784
 20
78.115406
 30
0.0
 11
104.442784
 21
78.115406
 31
0.0
  0
LINE
  5
2287
100
AcDbEntity
  8
DIM
 62
     2
100
AcDbLine
 39
20.0
 10
104.692784
 20
74.115406
 30
0.0
 11
104.442784
 21
74.115406
 31
0.0
  0
LINE
  5
2288
100
AcDbEntity
  8
DIM
 62
     2
100
AcDbLine
 39
20.0
 10
104.442784
 20
78.115406
 30
0.0
 11
104.442784
 21
74.115406
 31
0.0
  0
LINE
  5
2289
100
AcDbEntity
  8
DIM
 62
     2
100
AcDbLine
 39
20.0
 10
104.692784
 20
78.115406
 30
0.0
 11
104.692784
 21
74.115406
 31
0.0
  0
LINE
  5
228A
100
AcDbEntity
  8
BORDER
100
AcDbLine
 10
23.527666
 20
19.457837
 30
0.0
 11
22.520977
 21
20.957201
 31
0.0
  0
LINE
  5
228B
100
AcDbEntity
  8
BORDER
100
AcDbLine
 10
21.509096
 20
18.781265
 30
0.0
 11
34.0452
 21
18.781265
 31
0.0
  0
LWPOLYLINE
  5
228C
100
AcDbEntity
  8
BORDER
 62
     5
100
AcDbPolyline
 90
        2
 70
     0
 43
1.223112
 10
8.806408
 20
26.908467
 10
35.714875
 20
26.908467
  0
LINE
  5
228D
100
AcDbEntity
  8
BORDER
100
AcDbLine
 10
8.806408
 20
24.462243
 30
0.0
 11
35.714875
 21
24.462243
 31
0.0
  0
ARC
  5
228E
100
AcDbEntity
  8
BORDER
100
AcDbCircle
 10
8.806408
 20
22.016019
 30
0.0
 40
2.446224
100
AcDbArc
 50
90.0
 51
180.0
  0
LWPOLYLINE
  5
228F
100
AcDbEntity
  8
BORDER
 62
     5
100
AcDbPolyline
 90
        2
 70
     0
 43
1.223112
 10
8.806408
 20
26.908467
 42
0.414214
 10
3.913959
 20
22.016019
 42
-0.560527
  0
LINE
  5
2290
102
{ACAD_REACTORS
330
2212
102
}
100
AcDbEntity
  8
BORDER
100
AcDbLine
 10
11.313559
 20
21.884581
 30
0.0
 11
21.173982
 21
21.884581
 31
0.0
  0
LINE
  5
2291
102
{ACAD_REACTORS
330
2212
102
}
100
AcDbEntity
  8
BORDER
100
AcDbLine
 10
14.065991
 20
21.247996
 30
0.0
 11
15.164901
 21
21.247996
 31
0.0
  0
LINE
  5
2292
102
{ACAD_REACTORS
330
2212
102
}
100
AcDbEntity
  8
BORDER
100
AcDbLine
 10
11.313559
 20
18.759529
 30
0.0
 11
11.313559
 21
21.884581
 31
0.0
  0
LINE
  5
2293
102
{ACAD_REACTORS
330
2212
102
}
100
AcDbEntity
  8
BORDER
100
AcDbLine
 10
11.313559
 20
18.759529
 30
0.0
 11
11.574176
 21
18.759529
 31
0.0
  0
ARC
  5
2294
102
{ACAD_REACTORS
330
2212
102
}
100
AcDbEntity
  8
BORDER
100
AcDbCircle
 10
14.065991
 20
18.75618
 30
0.0
 40
2.491815
100
AcDbArc
 50
90.0
 51
179.923004
  0
LINE
  5
2295
100
AcDbEntity
  8
BORDER
100
AcDbLine
 10
22.520977
 20
20.957201
 30
0.0
 11
22.520977
 21
19.457837
 31
0.0
  0
LINE
  5
2296
102
{ACAD_REACTORS
330
2212
102
}
100
AcDbEntity
  8
BORDER
100
AcDbLine
 10
21.173982
 20
18.759529
 30
0.0
 11
21.173982
 21
21.884581
 31
0.0
  0
LINE
  5
2297
100
AcDbEntity
  8
BORDER
100
AcDbLine
 10
21.630471
 20
20.926496
 30
0.0
 11
21.856563
 21
20.926496
 31
0.0
  0
LINE
  5
2298
100
AcDbEntity
  8
BORDER
100
AcDbLine
 10
21.856563
 20
20.926496
 30
0.0
 11
21.856563
 21
19.457837
 31
0.0
  0
LINE
  5
2299
102
{ACAD_REACTORS
330
2212
102
}
100
AcDbEntity
  8
BORDER
100
AcDbLine
 10
21.173982
 20
18.759529
 30
0.0
 11
20.913366
 21
18.759529
 31
0.0
  0
LINE
  5
229A
100
AcDbEntity
  8
BORDER
100
AcDbLine
 10
21.856563
 20
20.926496
 30
0.0
 11
22.082654
 21
20.926496
 31
0.0
  0
LINE
  5
229B
100
AcDbEntity
  8
BORDER
100
AcDbLine
 10
21.630471
 20
19.457837
 30
0.0
 11
22.082654
 21
19.457837
 31
0.0
  0
LINE
  5
229C
102
{ACAD_REACTORS
330
2212
102
}
100
AcDbEntity
  8
BORDER
100
AcDbLine
 10
18.42155
 20
21.247996
 30
0.0
 11
17.322641
 21
21.247996
 31
0.0
  0
ARC
  5
229D
102
{ACAD_REACTORS
330
2212
102
}
100
AcDbEntity
  8
BORDER
100
AcDbCircle
 10
18.42155
 20
18.75618
 30
0.0
 40
2.491815
100
AcDbArc
 50
0.076996
 51
90.0
  0
LINE
  5
229E
100
AcDbEntity
  8
OBJECT
100
AcDbLine
 10
104.692784
 20
82.834541
 30
0.0
 11
104.692784
 21
46.834541
 31
0.0
  0
LINE
  5
229F
100
AcDbEntity
  8
CENTER
100
AcDbLine
 10
91.442784
 20
44.606633
 30
0.0
 11
91.442784
 21
85.062448
 31
0.0
  0
LINE
  5
22A0
100
AcDbEntity
  8
OBJECT
100
AcDbLine
 10
104.442784
 20
46.834541
 30
0.0
 11
104.442784
 21
82.834541
 31
0.0
  0
LINE
  5
22A1
100
AcDbEntity
  8
OBJECT
100
AcDbLine
 10
72.442784
 20
46.834541
 30
0.0
 11
72.442784
 21
82.834541
 31
0.0
  0
LINE
  5
22A2
100
AcDbEntity
  8
OBJECT
100
AcDbLine
 10
110.442784
 20
46.834541
 30
0.0
 11
110.442784
 21
82.834541
 31
0.0
  0
LINE
  5
22A3
100
AcDbEntity
  8
DIM
100
AcDbLine
 10
65.061852
 20
48.084541
 30
0.0
 11
65.061852
 21
62.370255
 31
0.0
  0
DIMENSION
  5
22A4
100
AcDbEntity
  8
DIM
100
AcDbDimension
  2
*D15
 10
91.442784
 20
38.067013
 30
0.0
 11
100.192784
 21
38.067013
 31
0.0
 12
-480.43121
 22
-40.130527
 32
0.0
  3
STANDARD
100
AcDbAlignedDimension
 13
108.942784
 23
49.447152
 33
0.0
 14
91.442784
 24
44.606633
 34
0.0
100
AcDbRotatedDimension
1001
ACAD
1000
DSTYLE
1002
{
1070
    78
1070
     8
1070
   270
1070
     7
1070
   140
1040
1.5
1070
    74
1070
     0
1070
   172
1070
     1
1070
    73
1070
     0
1070
   147
1040
1.5
1070
    41
1040
2.0
1002
}
  0
TEXT
  5
22A5
100
AcDbEntity
  8
BORDER
 62
     6
100
AcDbText
 10
83.287546
 20
20.227918
 30
0.0
 40
1.097562
  1
Drawn By:
  7
ROMANC
100
AcDbText
  0
TEXT
  5
22A6
100
AcDbEntity
  8
BORDER
 62
     6
100
AcDbText
 10
83.287546
 20
22.843044
 30
0.0
 40
1.097562
  1
Scale: None
  7
ROMANC
100
AcDbText
  0
LINE
  5
22A7
100
AcDbEntity
  8
BORDER
100
AcDbLine
 10
82.78616
 20
24.462243
 30
0.0
 11
137.292067
 21
24.462243
 31
0.0
  0
LINE
  5
22A8
100
AcDbEntity
  8
OBJECT
100
AcDbLine
 10
110.442784
 20
46.834541
 30
0.0
 11
72.442784
 21
46.834541
 31
0.0
  0
LWPOLYLINE
  5
22A9
100
AcDbEntity
  8
BORDER
 62
     5
100
AcDbPolyline
 90
        2
 70
     0
 43
1.223112
 10
47.945997
 20
26.908467
 10
137.292067
 20
26.908467
  0
LINE
  5
22AA
100
AcDbEntity
  8
BORDER
100
AcDbLine
 10
47.945997
 20
24.462243
 30
0.0
 11
103.205176
 21
24.462243
 31
0.0
  0
LINE
  5
22AB
100
AcDbEntity
  8
DIM
100
AcDbLine
 10
72.442784
 20
46.772041
 30
0.0
 11
72.442784
 21
39.362301
 31
0.0
  0
LINE
  5
22AC
100
AcDbEntity
  8
DIM
100
AcDbLine
 10
78.442784
 20
51.991727
 30
0.0
 11
78.442784
 21
39.362301
 31
0.0
  0
SOLID
  5
22AD
100
AcDbEntity
  8
DIM
100
AcDbTrace
 10
73.692784
 20
39.750634
 30
0.0
 11
73.692784
 21
39.333968
 31
0.0
 12
72.442784
 22
39.542301
 32
0.0
 13
72.442784
 23
39.542301
 33
0.0
  0
SOLID
  5
22AE
100
AcDbEntity
  8
DIM
100
AcDbTrace
 10
77.192784
 20
39.750634
 30
0.0
 11
77.192784
 21
39.333968
 31
0.0
 12
78.442784
 22
39.542301
 32
0.0
 13
78.442784
 23
39.542301
 33
0.0
  0
INSERT
  5
22AF
100
AcDbEntity
  8
DIM
100
AcDbBlockReference
  2
*U3
 10
-283.227326
 20
-69.81323
 30
0.0
  0
TEXT
  5
22B0
100
AcDbEntity
  8
BORDER
 62
     6
100
AcDbText
 10
54.230936
 20
19.935861
 30
0.0
 40
0.946648
  1
Frogmouth Alum. Cover 
  7
ROMANC
100
AcDbText
  0
TEXT
  5
22B1
100
AcDbEntity
  8
BORDER
 62
     6
100
AcDbText
 10
46.755957
 20
22.373625
 30
0.0
 40
0.946648
  1
32"x30"x25" Rectangular Fiberglass Valvebox
  7
ROMANC
100
AcDbText
  0
LINE
  5
22B2
100
AcDbEntity
  8
BORDER
100
AcDbLine
 10
45.499772
 20
18.812965
 30
0.0
 11
82.78616
 21
18.812965
 31
0.0
  0
LWPOLYLINE
  5
22B3
100
AcDbEntity
  8
BORDER
 62
     5
100
AcDbPolyline
 90
        2
 70
     0
 43
1.223112
 10
35.714875
 20
26.908467
 42
-0.414214
 10
40.607324
 20
22.016019
 42
0.560527
  0
ARC
  5
22B4
100
AcDbEntity
  8
BORDER
100
AcDbCircle
 10
35.714875
 20
22.016019
 30
0.0
 40
2.446224
100
AcDbArc
 50
0.0
 51
90.0
  0
LINE
  5
22B5
100
AcDbEntity
  8
BORDER
100
AcDbLine
 10
31.178827
 20
20.926496
 30
0.0
 11
31.631011
 21
20.926496
 31
0.0
  0
LINE
  5
22B6
100
AcDbEntity
  8
BORDER
100
AcDbLine
 10
31.178827
 20
19.457837
 30
0.0
 11
31.631011
 21
19.457837
 31
0.0
  0
LINE
  5
22B7
100
AcDbEntity
  8
BORDER
100
AcDbLine
 10
31.404919
 20
20.926496
 30
0.0
 11
31.404919
 21
19.457837
 31
0.0
  0
LINE
  5
22B8
100
AcDbEntity
  8
BORDER
100
AcDbLine
 10
30.356509
 20
20.926496
 30
0.0
 11
29.822299
 21
20.926496
 31
0.0
  0
LINE
  5
22B9
100
AcDbEntity
  8
BORDER
100
AcDbLine
 10
29.822299
 20
20.18509
 30
0.0
 11
30.356509
 21
20.18509
 31
0.0
  0
LINE
  5
22BA
100
AcDbEntity
  8
BORDER
100
AcDbLine
 10
29.822299
 20
20.926496
 30
0.0
 11
29.822299
 21
19.457837
 31
0.0
  0
ARC
  5
22BB
100
AcDbEntity
  8
BORDER
100
AcDbCircle
 10
27.860311
 20
19.818459
 30
0.0
 40
0.207392
100
AcDbArc
 50
331.630608
 51
60.315223
  0
LINE
  5
22BC
100
AcDbEntity
  8
BORDER
100
AcDbLine
 10
28.907189
 20
20.926496
 30
0.0
 11
28.907189
 21
19.457837
 31
0.0
  0
LINE
  5
22BD
100
AcDbEntity
  8
BORDER
100
AcDbLine
 10
28.303818
 20
20.926496
 30
0.0
 11
29.510559
 21
20.926496
 31
0.0
  0
ARC
  5
22BE
100
AcDbEntity
  8
BORDER
100
AcDbCircle
 10
26.215525
 20
19.951115
 30
0.0
 40
0.493278
100
AcDbArc
 50
180.0
 51
0.0
  0
LINE
  5
22BF
100
AcDbEntity
  8
BORDER
100
AcDbLine
 10
25.722247
 20
19.951115
 30
0.0
 11
25.722247
 21
20.926496
 31
0.0
  0
LINE
  5
22C0
100
AcDbEntity
  8
BORDER
100
AcDbLine
 10
26.708802
 20
20.926496
 30
0.0
 11
26.708802
 21
19.951115
 31
0.0
  0
ARC
  5
22C1
100
AcDbEntity
  8
BORDER
100
AcDbCircle
 10
27.360706
 20
20.613401
 30
0.0
 40
0.207392
100
AcDbArc
 50
140.101426
 51
236.383068
  0
ARC
  5
22C2
100
AcDbEntity
  8
BORDER
100
AcDbCircle
 10
24.464439
 20
20.192167
 30
0.0
 40
0.73433
100
AcDbArc
 50
270.0
 51
90.0
  0
LINE
  5
22C3
100
AcDbEntity
  8
BORDER
100
AcDbLine
 10
24.151813
 20
20.926496
 30
0.0
 11
24.151813
 21
19.457837
 31
0.0
  0
LINE
  5
22C4
100
AcDbEntity
  8
BORDER
100
AcDbLine
 10
24.464439
 20
20.926496
 30
0.0
 11
24.151813
 21
20.926496
 31
0.0
  0
LINE
  5
22C5
100
AcDbEntity
  8
BORDER
100
AcDbLine
 10
24.151813
 20
19.457837
 30
0.0
 11
24.464439
 21
19.457837
 31
0.0
  0
LINE
  5
22C6
100
AcDbEntity
  8
BORDER
100
AcDbLine
 10
23.527666
 20
20.926496
 30
0.0
 11
23.527666
 21
19.457837
 31
0.0
  0
ARC
  5
22C7
100
AcDbEntity
  8
BORDER
100
AcDbCircle
 10
34.043215
 20
30.66494
 30
0.0
 40
12.277577
100
AcDbArc
 50
236.383068
 51
240.315223
  0
ARC
  5
22C8
100
AcDbEntity
  8
BORDER
100
AcDbCircle
 10
27.624768
 20
19.923565
 30
0.0
 40
0.464994
100
AcDbArc
 50
200.502447
 51
334.026213
  0
ARC
  5
22C9
100
AcDbEntity
  8
BORDER
100
AcDbCircle
 10
27.565646
 20
20.472575
 30
0.0
 40
0.45555
100
AcDbArc
 50
25.379638
 51
143.047804
  0
ARC
  5
22CA
100
AcDbEntity
  8
BORDER
100
AcDbCircle
 10
30.356509
 20
20.555793
 30
0.0
 40
0.370703
100
AcDbArc
 50
270.0
 51
90.0
  0
LINE
  5
22CB
100
AcDbEntity
  8
BORDER
100
AcDbLine
 10
30.254106
 20
20.18509
 30
0.0
 11
30.719899
 21
19.457837
 31
0.0
  0
ARC
  5
22CC
100
AcDbEntity
  8
BORDER
100
AcDbCircle
 10
33.469775
 20
20.613401
 30
0.0
 40
0.207392
100
AcDbArc
 50
140.101426
 51
236.383068
  0
ARC
  5
22CD
100
AcDbEntity
  8
BORDER
100
AcDbCircle
 10
40.152284
 20
30.66494
 30
0.0
 40
12.277577
100
AcDbArc
 50
236.383068
 51
240.315223
  0
ARC
  5
22CE
100
AcDbEntity
  8
BORDER
100
AcDbCircle
 10
33.96938
 20
19.818459
 30
0.0
 40
0.207392
100
AcDbArc
 50
331.630608
 51
60.315223
  0
ARC
  5
22CF
100
AcDbEntity
  8
BORDER
100
AcDbCircle
 10
33.674715
 20
20.472575
 30
0.0
 40
0.45555
100
AcDbArc
 50
25.379638
 51
143.047804
  0
ARC
  5
22D0
100
AcDbEntity
  8
BORDER
100
AcDbCircle
 10
33.733837
 20
19.923565
 30
0.0
 40
0.464994
100
AcDbArc
 50
200.502447
 51
334.026213
  0
LINE
  5
22D1
100
AcDbEntity
  8
BORDER
100
AcDbLine
 10
32.085592
 20
20.192167
 30
0.0
 11
32.776877
 21
20.192167
 31
0.0
  0
LINE
  5
22D2
100
AcDbEntity
  8
BORDER
100
AcDbLine
 10
32.085592
 20
19.457837
 30
0.0
 11
32.085592
 21
20.926496
 31
0.0
  0
LINE
  5
22D3
100
AcDbEntity
  8
BORDER
100
AcDbLine
 10
32.085592
 20
20.926496
 30
0.0
 11
32.969639
 21
20.926496
 31
0.0
  0
LINE
  5
22D4
100
AcDbEntity
  8
BORDER
100
AcDbLine
 10
32.969639
 20
19.457837
 30
0.0
 11
32.085592
 21
19.457837
 31
0.0
  0
ARC
  5
22D5
100
AcDbEntity
  8
BORDER
100
AcDbCircle
 10
47.945997
 20
22.016019
 30
0.0
 40
2.446224
100
AcDbArc
 50
90.0
 51
180.0
  0
LWPOLYLINE
  5
22D6
100
AcDbEntity
  8
BORDER
 62
     5
100
AcDbPolyline
 90
        2
 70
     0
 43
1.223112
 10
47.945997
 20
26.908467
 42
0.414214
 10
43.053548
 20
22.016019
 42
-0.560527
  0
LINE
  5
22D7
100
AcDbEntity
  8
DIM
100
AcDbLine
 10
68.58912
 20
53.584541
 30
0.0
 11
68.58912
 21
48.084541
 31
0.0
  0
INSERT
  5
22D8
100
AcDbEntity
  8
DIM
100
AcDbBlockReference
  2
*U0
 10
-283.227326
 20
-69.81323
 30
0.0
  0
LINE
  5
22D9
100
AcDbEntity
  8
DIM
100
AcDbLine
 10
68.58912
 20
46.834541
 30
0.0
 11
68.58912
 21
45.584541
 31
0.0
  0
SOLID
  5
22DA
100
AcDbEntity
  8
DIM
100
AcDbTrace
 10
68.380787
 20
48.084541
 30
0.0
 11
68.797453
 21
48.084541
 31
0.0
 12
68.58912
 22
46.834541
 32
0.0
 13
68.58912
 23
46.834541
 33
0.0
  0
LINE
  5
22DB
100
AcDbEntity
  8
DIM
100
AcDbLine
 10
72.380284
 20
46.834541
 30
0.0
 11
68.683804
 21
46.834541
 31
0.0
  0
LINE
  5
22DC
100
AcDbEntity
  8
DIM
100
AcDbLine
 10
72.380284
 20
46.834541
 30
0.0
 11
68.40912
 21
46.834541
 31
0.0
  0
SOLID
  5
22DD
100
AcDbEntity
  8
DIM
100
AcDbTrace
 10
64.853519
 20
48.084541
 30
0.0
 11
65.270185
 21
48.084541
 31
0.0
 12
65.061852
 22
46.834541
 32
0.0
 13
65.061852
 23
46.834541
 33
0.0
  0
LINE
  5
22DE
100
AcDbEntity
  8
DIM
100
AcDbLine
 10
72.380284
 20
46.834541
 30
0.0
 11
64.881852
 21
46.834541
 31
0.0
  0
LINE
  5
22DF
100
AcDbEntity
  8
DIM
100
AcDbLine
 10
73.692784
 20
39.542301
 30
0.0
 11
77.192784
 21
39.542301
 31
0.0
  0
LINE
  5
22E0
100
AcDbEntity
  8
DIM
100
AcDbLine
 10
78.442784
 20
39.542301
 30
0.0
 11
79.692784
 21
39.542301
 31
0.0
  0
LINE
  5
22E1
100
AcDbEntity
  8
DIM
100
AcDbLine
 10
77.000666
 20
54.834541
 30
0.0
 11
68.40912
 21
54.834541
 31
0.0
  0
SOLID
  5
22E2
100
AcDbEntity
  8
DIM
100
AcDbTrace
 10
68.380787
 20
53.584541
 30
0.0
 11
68.797453
 21
53.584541
 31
0.0
 12
68.58912
 22
54.834541
 32
0.0
 13
68.58912
 23
54.834541
 33
0.0
  0
LINE
  5
22E3
100
AcDbEntity
  8
CENTER
100
AcDbLine
 10
78.442784
 20
52.345767
 30
0.0
 11
78.442784
 21
57.325933
 31
0.0
  0
LINE
  5
22E4
100
AcDbEntity
  8
OBJECT
100
AcDbLine
 10
78.911534
 20
55.334541
 30
0.0
 11
78.911534
 21
56.897041
 31
0.0
  0
LINE
  5
22E5
100
AcDbEntity
  8
OBJECT
100
AcDbLine
 10
77.974034
 20
56.897041
 30
0.0
 11
77.974034
 21
55.334541
 31
0.0
  0
LINE
  5
22E6
100
AcDbEntity
  8
OBJECT
100
AcDbLine
 10
78.817784
 20
52.865791
 30
0.0
 11
78.817784
 21
56.803291
 31
0.0
  0
LINE
  5
22E7
100
AcDbEntity
  8
OBJECT
100
AcDbLine
 10
78.067784
 20
56.803291
 30
0.0
 11
78.067784
 21
52.865791
 31
0.0
  0
LINE
  5
22E8
100
AcDbEntity
  8
OBJECT
100
AcDbLine
 10
77.974034
 20
54.334541
 30
0.0
 11
77.974034
 21
52.772041
 31
0.0
  0
LINE
  5
22E9
100
AcDbEntity
  8
OBJECT
100
AcDbLine
 10
77.974034
 20
52.772041
 30
0.0
 11
78.911534
 21
52.772041
 31
0.0
  0
LINE
  5
22EA
100
AcDbEntity
  8
OBJECT
100
AcDbLine
 10
78.911534
 20
52.772041
 30
0.0
 11
78.911534
 21
54.334541
 31
0.0
  0
ARC
  5
22EB
100
AcDbEntity
  8
OBJECT
100
AcDbCircle
 10
77.974034
 20
54.834541
 30
0.0
 40
0.5
100
AcDbArc
 50
90.0
 51
270.0
  0
LINE
  5
22EC
100
AcDbEntity
  8
OBJECT
100
AcDbLine
 10
78.817784
 20
52.865791
 30
0.0
 11
78.067784
 21
52.865791
 31
0.0
  0
LINE
  5
22ED
100
AcDbEntity
  8
CENTER
100
AcDbLine
 10
79.622547
 20
54.834541
 30
0.0
 11
77.284113
 21
54.834541
 31
0.0
  0
ARC
  5
22EE
100
AcDbEntity
  8
OBJECT
100
AcDbCircle
 10
78.911534
 20
54.834541
 30
0.0
 40
0.5
100
AcDbArc
 50
270.0
 51
90.0
  0
LINE
  5
22EF
100
AcDbEntity
  8
OBJECT
100
AcDbLine
 10
78.911534
 20
56.897041
 30
0.0
 11
77.974034
 21
56.897041
 31
0.0
  0
LINE
  5
22F0
100
AcDbEntity
  8
OBJECT
100
AcDbLine
 10
78.817784
 20
56.803291
 30
0.0
 11
78.067784
 21
56.803291
 31
0.0
  0
TEXT
  5
22F1
100
AcDbEntity
  8
BORDER
 62
     6
100
AcDbText
 10
101.246348
 20
19.807961
 30
0.0
 40
0.918144
  1
restriction includes, but is not limited to the condition that this print will not only
 41
0.626489
  7
ROMANS
 72
     5
 11
139.073079
 21
19.807961
 31
0.0
100
AcDbText
  0
TEXT
  5
22F2
100
AcDbEntity
  8
BORDER
 62
     6
100
AcDbText
 10
101.246348
 20
21.294479
 30
0.0
 40
0.918144
  1
by TOPP INDUSTRIES, INC. It is furnished on a strictly confidential basis.  This
 41
0.659437
  7
ROMANS
 72
     5
 11
139.073079
 21
21.294479
 31
0.0
100
AcDbText
  0
TEXT
  5
22F3
100
AcDbEntity
  8
BORDER
 62
     6
100
AcDbText
 10
101.246348
 20
22.780998
 30
0.0
 40
0.918144
  1
This print is and contains confidential proprietary information owned exclusively
 41
0.656934
  7
ROMANS
 72
     5
 11
139.073079
 21
22.780998
 31
0.0
100
AcDbText
  0
TEXT
  5
22F4
100
AcDbEntity
  8
BORDER
 62
     6
100
AcDbText
 10
93.360136
 20
20.111028
 30
0.0
 40
1.496975
  1
RM
  7
COUNTRYBLUEPRINT
100
AcDbText
  0
ARC
  5
22F5
100
AcDbEntity
  8
BORDER
100
AcDbCircle
 10
137.292067
 20
22.016019
 30
0.0
 40
2.446224
100
AcDbArc
 50
0.0
 51
90.0
  0
LWPOLYLINE
  5
22F6
100
AcDbEntity
  8
BORDER
 62
     5
100
AcDbPolyline
 90
        2
 70
     0
 43
1.223112
 10
137.292067
 20
26.908467
 42
-0.414214
 10
142.184516
 20
22.016019
 42
0.560527
  0
LWPOLYLINE
  5
22F7
100
AcDbEntity
  8
BORDER
 62
     5
100
AcDbPolyline
 90
        2
 70
     0
 43
1.223112
 10
149.523188
 20
26.908467
 42
0.414214
 10
144.63074
 20
22.016019
 42
-0.560527
  0
ARC
  5
22F8
100
AcDbEntity
  8
BORDER
100
AcDbCircle
 10
149.523188
 20
22.016019
 30
0.0
 40
2.446224
100
AcDbArc
 50
90.0
 51
180.0
  0
TEXT
  5
22F9
100
AcDbEntity
  8
BORDER
 62
     6
100
AcDbText
 10
150.165043
 20
18.26409
 30
0.0
 40
1.223112
  1
1
  7
ROMAND
100
AcDbText
  0
DIMENSION
  5
22FA
100
AcDbEntity
  8
DIM
100
AcDbDimension
  2
*D14
 10
115.275763
 20
46.834541
 30
0.0
 11
115.275763
 21
40.834541
 31
0.0
 12
-480.43121
 22
-40.130527
 32
0.0
  3
STANDARD
100
AcDbAlignedDimension
 13
109.330173
 23
49.834541
 33
0.0
 14
110.442784
 24
46.834541
 34
0.0
 50
90.0
100
AcDbRotatedDimension
1001
ACAD
1000
DSTYLE
1002
{
1070
    78
1070
     8
1070
   140
1040
1.5
1070
    74
1070
     0
1070
    73
1070
     0
1070
   147
1040
1.5
1070
    41
1040
2.0
1002
}
  0
LINE
  5
22FB
100
AcDbEntity
  8
CENTER
100
AcDbLine
 10
108.942784
 20
50.221929
 30
0.0
 11
108.942784
 21
49.834541
 31
0.0
  0
TEXT
  5
22FC
100
AcDbEntity
  8
15
 62
     6
100
AcDbText
 10
91.091624
 20
41.592581
 30
0.0
 40
1.5
  1
L
  7
ROMANS
100
AcDbText
  0
TEXT
  5
22FD
100
AcDbEntity
  8
15
 62
     6
100
AcDbText
 10
90.580779
 20
42.33358
 30
0.0
 40
1.5
  1
C
  7
ROMANS
100
AcDbText
  0
LINE
  5
22FE
100
AcDbEntity
  8
CENTER
100
AcDbLine
 10
108.555396
 20
49.834541
 30
0.0
 11
108.942784
 21
49.834541
 31
0.0
  0
LINE
  5
22FF
100
AcDbEntity
  8
CENTER
100
AcDbLine
 10
108.942784
 20
49.447152
 30
0.0
 11
108.942784
 21
49.834541
 31
0.0
  0
LINE
  5
2300
100
AcDbEntity
  8
CENTER
100
AcDbLine
 10
109.330173
 20
49.834541
 30
0.0
 11
108.942784
 21
49.834541
 31
0.0
  0
CIRCLE
  5
2301
100
AcDbEntity
  8
OBJECT
100
AcDbCircle
 10
108.942784
 20
49.834541
 30
0.0
 40
0.19
  0
LINE
  5
2302
100
AcDbEntity
  8
OBJECT
100
AcDbLine
 10
104.942784
 20
55.553675
 30
0.0
 11
106.817784
 21
55.553675
 31
0.0
  0
LINE
  5
2303
100
AcDbEntity
  8
OBJECT
100
AcDbLine
 10
104.942784
 20
51.553675
 30
0.0
 11
106.817784
 21
51.553675
 31
0.0
  0
LINE
  5
2304
100
AcDbEntity
  8
15
 62
     2
100
AcDbLine
 10
104.692784
 20
52.426471
 30
0.0
 11
104.442784
 21
52.426471
 31
0.0
  0
LINE
  5
2305
100
AcDbEntity
  8
15
 62
     2
100
AcDbLine
 10
104.692784
 20
52.363971
 30
0.0
 11
104.442784
 21
52.363971
 31
0.0
  0
LINE
  5
2306
100
AcDbEntity
  8
15
 62
     2
100
AcDbLine
 10
104.942784
 20
52.426471
 30
0.0
 11
104.692784
 21
52.426471
 31
0.0
  0
LINE
  5
2307
100
AcDbEntity
  8
15
 62
     2
100
AcDbLine
 10
104.942784
 20
52.363971
 30
0.0
 11
104.692784
 21
52.363971
 31
0.0
  0
LINE
  5
2308
100
AcDbEntity
  8
OBJECT
100
AcDbLine
 10
102.817784
 20
51.553675
 30
0.0
 11
104.692784
 21
51.553675
 31
0.0
  0
LINE
  5
2309
100
AcDbEntity
  8
15
 62
     2
100
AcDbLine
 10
104.692784
 20
53.179386
 30
0.0
 11
104.442784
 21
53.179386
 31
0.0
  0
LINE
  5
230A
100
AcDbEntity
  8
15
 62
     2
100
AcDbLine
 10
104.692784
 20
53.241886
 30
0.0
 11
104.442784
 21
53.241886
 31
0.0
  0
LINE
  5
230B
100
AcDbEntity
  8
15
 62
     2
100
AcDbLine
 10
104.692784
 20
53.866886
 30
0.0
 11
104.442784
 21
53.866886
 31
0.0
  0
LINE
  5
230C
100
AcDbEntity
  8
15
 62
     2
100
AcDbLine
 10
104.692784
 20
53.929386
 30
0.0
 11
104.442784
 21
53.929386
 31
0.0
  0
LINE
  5
230D
100
AcDbEntity
  8
15
 62
     2
100
AcDbLine
 10
104.692784
 20
54.743379
 30
0.0
 11
104.442784
 21
54.743379
 31
0.0
  0
LINE
  5
230E
100
AcDbEntity
  8
15
 62
     2
100
AcDbLine
 10
104.692784
 20
54.680879
 30
0.0
 11
104.442784
 21
54.680879
 31
0.0
  0
LINE
  5
230F
100
AcDbEntity
  8
15
 62
     2
100
AcDbLine
 10
104.942784
 20
53.177964
 30
0.0
 11
104.692784
 21
53.177964
 31
0.0
  0
LINE
  5
2310
100
AcDbEntity
  8
15
 62
     2
100
AcDbLine
 10
104.942784
 20
53.240464
 30
0.0
 11
104.692784
 21
53.240464
 31
0.0
  0
LINE
  5
2311
100
AcDbEntity
  8
15
 62
     2
100
AcDbLine
 10
104.942784
 20
54.743379
 30
0.0
 11
104.692784
 21
54.743379
 31
0.0
  0
LINE
  5
2312
100
AcDbEntity
  8
15
 62
     2
100
AcDbLine
 10
104.942784
 20
54.680879
 30
0.0
 11
104.692784
 21
54.680879
 31
0.0
  0
LINE
  5
2313
100
AcDbEntity
  8
15
 62
     2
100
AcDbLine
 10
104.942784
 20
53.865464
 30
0.0
 11
104.692784
 21
53.865464
 31
0.0
  0
LINE
  5
2314
100
AcDbEntity
  8
15
 62
     2
100
AcDbLine
 10
104.942784
 20
53.927964
 30
0.0
 11
104.692784
 21
53.927964
 31
0.0
  0
LINE
  5
2315
100
AcDbEntity
  8
OBJECT
100
AcDbLine
 10
102.817784
 20
55.553675
 30
0.0
 11
104.692784
 21
55.553675
 31
0.0
  0
LINE
  5
2316
100
AcDbEntity
  8
CENTER
100
AcDbLine
 10
109.330173
 20
59.834541
 30
0.0
 11
108.942784
 21
59.834541
 31
0.0
  0
LINE
  5
2317
100
AcDbEntity
  8
CENTER
100
AcDbLine
 10
108.555396
 20
59.834541
 30
0.0
 11
108.942784
 21
59.834541
 31
0.0
  0
CIRCLE
  5
2318
100
AcDbEntity
  8
OBJECT
100
AcDbCircle
 10
108.942784
 20
59.834541
 30
0.0
 40
0.19
  0
LINE
  5
2319
100
AcDbEntity
  8
CENTER
100
AcDbLine
 10
108.942784
 20
60.221929
 30
0.0
 11
108.942784
 21
59.834541
 31
0.0
  0
LINE
  5
231A
100
AcDbEntity
  8
CENTER
100
AcDbLine
 10
108.942784
 20
59.447152
 30
0.0
 11
108.942784
 21
59.834541
 31
0.0
  0
LINE
  5
231B
100
AcDbEntity
  8
CENTER
100
AcDbLine
 10
113.142937
 20
64.834541
 30
0.0
 11
69.742632
 21
64.834541
 31
0.0
  0
LINE
  5
231C
100
AcDbEntity
  8
OBJECT
100
AcDbLine
 10
110.442784
 20
82.834541
 30
0.0
 11
72.442784
 21
82.834541
 31
0.0
  0
LINE
  5
231D
100
AcDbEntity
  8
DIM
100
AcDbLine
 10
50.125285
 20
99.679607
 30
0.0
 11
132.190695
 21
99.679607
 31
0.0
  0
SOLID
  5
231E
100
AcDbEntity
  8
DIM
100
AcDbTrace
 10
64.853519
 20
81.584541
 30
0.0
 11
65.270185
 21
81.584541
 31
0.0
 12
65.061852
 22
82.834541
 32
0.0
 13
65.061852
 23
82.834541
 33
0.0
  0
LINE
  5
231F
100
AcDbEntity
  8
DIM
100
AcDbLine
 10
65.061852
 20
81.584541
 30
0.0
 11
65.061852
 21
67.298826
 31
0.0
  0
INSERT
  5
2320
100
AcDbEntity
  8
DIM
100
AcDbBlockReference
  2
*U7
 10
-283.227326
 20
-69.81323
 30
0.0
  0
CIRCLE
  5
2321
100
AcDbEntity
  8
OBJECT
100
AcDbCircle
 10
74.268311
 20
64.834541
 30
0.0
 40
0.706336
  0
CIRCLE
  5
2322
100
AcDbEntity
  8
OBJECT
100
AcDbCircle
 10
74.268311
 20
64.834541
 30
0.0
 40
0.375
  0
SOLID
  5
2323
100
AcDbEntity
  8
DIM
100
AcDbTrace
 10
73.692784
 20
91.245253
 30
0.0
 11
73.692784
 21
90.828586
 31
0.0
 12
72.442784
 22
91.036919
 32
0.0
 13
72.442784
 23
91.036919
 33
0.0
  0
LINE
  5
2324
100
AcDbEntity
  8
DIM
100
AcDbLine
 10
72.442784
 20
82.897041
 30
0.0
 11
72.442784
 21
91.216919
 31
0.0
  0
LINE
  5
2325
100
AcDbEntity
  8
DIM
100
AcDbLine
 10
72.380284
 20
82.834541
 30
0.0
 11
64.881852
 21
82.834541
 31
0.0
  0
LINE
  5
2326
100
AcDbEntity
  8
DIM
100
AcDbLine
 10
73.692784
 20
91.036919
 30
0.0
 11
88.978499
 21
91.036919
 31
0.0
  0
DIMENSION
  5
2327
100
AcDbEntity
  8
DIM
100
AcDbDimension
  2
*D13
 10
115.214479
 20
82.834541
 30
0.0
 11
115.214479
 21
88.834541
 31
0.0
 12
-480.43121
 22
-40.130527
 32
0.0
  3
STANDARD
100
AcDbAlignedDimension
 13
109.330173
 23
79.834541
 33
0.0
 14
110.442784
 24
82.834541
 34
0.0
 50
90.0
100
AcDbRotatedDimension
1001
ACAD
1000
DSTYLE
1002
{
1070
    78
1070
     8
1070
   140
1040
1.5
1070
    74
1070
     0
1070
    73
1070
     0
1070
   147
1040
1.5
1070
    41
1040
2.0
1002
}
  0
LEADER
  5
2328
100
AcDbEntity
  8
DIM
100
AcDbLeader
  3
STANDARD
 76
     2
 10
109.130317
 20
69.804018
 30
0.0
 10
126.597086
 20
66.147193
 30
0.0
 77
   256
1001
ACAD
1000
DSTYLE
1002
{
1070
    78
1070
     8
1070
   270
1070
     7
1070
   140
1040
1.5
1070
    74
1070
     0
1070
   172
1070
     1
1070
    73
1070
     0
1070
   147
1040
1.5
1070
    41
1040
2.0
1002
}
  0
TEXT
  5
2329
100
AcDbEntity
  8
15
 62
     6
100
AcDbText
 10
113.53716
 20
64.220656
 30
0.0
 40
1.5
  1
C
  7
ROMANS
100
AcDbText
  0
TEXT
  5
232A
100
AcDbEntity
  8
15
 62
     6
100
AcDbText
 10
114.048005
 20
63.479658
 30
0.0
 40
1.5
  1
L
  7
ROMANS
100
AcDbText
  0
LINE
  5
232B
100
AcDbEntity
  8
CENTER
100
AcDbLine
 10
108.942784
 20
70.221929
 30
0.0
 11
108.942784
 21
69.834541
 31
0.0
  0
LINE
  5
232C
100
AcDbEntity
  8
CENTER
100
AcDbLine
 10
108.942784
 20
69.447152
 30
0.0
 11
108.942784
 21
69.834541
 31
0.0
  0
CIRCLE
  5
232D
100
AcDbEntity
  8
OBJECT
100
AcDbCircle
 10
108.942784
 20
69.834541
 30
0.0
 40
0.19
  0
LINE
  5
232E
100
AcDbEntity
  8
CENTER
100
AcDbLine
 10
108.555396
 20
69.834541
 30
0.0
 11
108.942784
 21
69.834541
 31
0.0
  0
LINE
  5
232F
100
AcDbEntity
  8
CENTER
100
AcDbLine
 10
109.330173
 20
69.834541
 30
0.0
 11
108.942784
 21
69.834541
 31
0.0
  0
LINE
  5
2330
100
AcDbEntity
  8
OBJECT
100
AcDbLine
 10
104.942784
 20
78.115406
 30
0.0
 11
106.817784
 21
78.115406
 31
0.0
  0
LINE
  5
2331
100
AcDbEntity
  8
OBJECT
100
AcDbLine
 10
104.942784
 20
74.115406
 30
0.0
 11
106.817784
 21
74.115406
 31
0.0
  0
LINE
  5
2332
100
AcDbEntity
  8
OBJECT
100
AcDbLine
 10
102.817784
 20
74.115406
 30
0.0
 11
104.692784
 21
74.115406
 31
0.0
  0
LINE
  5
2333
100
AcDbEntity
  8
15
 62
     2
100
AcDbLine
 10
104.942784
 20
75.741117
 30
0.0
 11
104.692784
 21
75.741117
 31
0.0
  0
LINE
  5
2334
100
AcDbEntity
  8
15
 62
     2
100
AcDbLine
 10
104.942784
 20
75.803617
 30
0.0
 11
104.692784
 21
75.803617
 31
0.0
  0
LINE
  5
2335
100
AcDbEntity
  8
15
 62
     2
100
AcDbLine
 10
104.942784
 20
74.988202
 30
0.0
 11
104.692784
 21
74.988202
 31
0.0
  0
LINE
  5
2336
100
AcDbEntity
  8
15
 62
     2
100
AcDbLine
 10
104.942784
 20
74.925702
 30
0.0
 11
104.692784
 21
74.925702
 31
0.0
  0
LINE
  5
2337
100
AcDbEntity
  8
15
 62
     2
100
AcDbLine
 10
104.942784
 20
76.428617
 30
0.0
 11
104.692784
 21
76.428617
 31
0.0
  0
LINE
  5
2338
100
AcDbEntity
  8
15
 62
     2
100
AcDbLine
 10
104.942784
 20
76.491117
 30
0.0
 11
104.692784
 21
76.491117
 31
0.0
  0
LINE
  5
2339
100
AcDbEntity
  8
15
 62
     2
100
AcDbLine
 10
104.692784
 20
74.988202
 30
0.0
 11
104.442784
 21
74.988202
 31
0.0
  0
LINE
  5
233A
100
AcDbEntity
  8
15
 62
     2
100
AcDbLine
 10
104.692784
 20
74.925702
 30
0.0
 11
104.442784
 21
74.925702
 31
0.0
  0
LINE
  5
233B
100
AcDbEntity
  8
15
 62
     2
100
AcDbLine
 10
104.692784
 20
75.739695
 30
0.0
 11
104.442784
 21
75.739695
 31
0.0
  0
LINE
  5
233C
100
AcDbEntity
  8
15
 62
     2
100
AcDbLine
 10
104.692784
 20
75.802195
 30
0.0
 11
104.442784
 21
75.802195
 31
0.0
  0
LINE
  5
233D
100
AcDbEntity
  8
15
 62
     2
100
AcDbLine
 10
104.692784
 20
76.427195
 30
0.0
 11
104.442784
 21
76.427195
 31
0.0
  0
LINE
  5
233E
100
AcDbEntity
  8
15
 62
     2
100
AcDbLine
 10
104.692784
 20
76.489695
 30
0.0
 11
104.442784
 21
76.489695
 31
0.0
  0
LINE
  5
233F
100
AcDbEntity
  8
OBJECT
100
AcDbLine
 10
102.817784
 20
78.115406
 30
0.0
 11
104.692784
 21
78.115406
 31
0.0
  0
LINE
  5
2340
100
AcDbEntity
  8
15
 62
     2
100
AcDbLine
 10
104.942784
 20
77.30511
 30
0.0
 11
104.692784
 21
77.30511
 31
0.0
  0
LINE
  5
2341
100
AcDbEntity
  8
15
 62
     2
100
AcDbLine
 10
104.942784
 20
77.24261
 30
0.0
 11
104.692784
 21
77.24261
 31
0.0
  0
LINE
  5
2342
100
AcDbEntity
  8
15
 62
     2
100
AcDbLine
 10
104.692784
 20
77.30511
 30
0.0
 11
104.442784
 21
77.30511
 31
0.0
  0
LINE
  5
2343
100
AcDbEntity
  8
15
 62
     2
100
AcDbLine
 10
104.692784
 20
77.24261
 30
0.0
 11
104.442784
 21
77.24261
 31
0.0
  0
LINE
  5
2344
100
AcDbEntity
  8
CENTER
100
AcDbLine
 10
108.555396
 20
79.834541
 30
0.0
 11
108.942784
 21
79.834541
 31
0.0
  0
LINE
  5
2345
100
AcDbEntity
  8
CENTER
100
AcDbLine
 10
108.942784
 20
79.447152
 30
0.0
 11
108.942784
 21
79.834541
 31
0.0
  0
LINE
  5
2346
100
AcDbEntity
  8
CENTER
100
AcDbLine
 10
109.330173
 20
79.834541
 30
0.0
 11
108.942784
 21
79.834541
 31
0.0
  0
CIRCLE
  5
2347
100
AcDbEntity
  8
OBJECT
100
AcDbCircle
 10
108.942784
 20
79.834541
 30
0.0
 40
0.19
  0
LINE
  5
2348
100
AcDbEntity
  8
CENTER
100
AcDbLine
 10
108.942784
 20
80.221929
 30
0.0
 11
108.942784
 21
79.834541
 31
0.0
  0
TEXT
  5
2349
100
AcDbEntity
  8
DIM
100
AcDbText
 10
128.914644
 20
63.057303
 30
0.0
 40
1.5
  1
Holes Equally Spaced
  7
ROMANS
100
AcDbText
  0
TEXT
  5
234A
100
AcDbEntity
  8
DIM
100
AcDbText
 10
128.914644
 20
65.485874
 30
0.0
 40
1.5
  1
(4)9/16 Dia.
  7
ROMANS
100
AcDbText
  0
LINE
  5
234B
100
AcDbEntity
  8
DIM
100
AcDbLine
 10
128.583565
 20
66.147193
 30
0.0
 11
126.597086
 21
66.147193
 31
0.0
  0
SOLID
  5
234C
100
AcDbEntity
  8
DIM
100
AcDbTrace
 10
105.692784
 20
86.663105
 30
0.0
 11
105.692784
 21
86.246439
 31
0.0
 12
104.442784
 22
86.454772
 32
0.0
 13
104.442784
 23
86.454772
 33
0.0
  0
LINE
  5
234D
100
AcDbEntity
  8
DIM
100
AcDbLine
 10
109.192784
 20
91.036919
 30
0.0
 11
93.90707
 21
91.036919
 31
0.0
  0
LINE
  5
234E
100
AcDbEntity
  8
DIM
100
AcDbLine
 10
104.442784
 20
82.897041
 30
0.0
 11
104.442784
 21
86.634772
 31
0.0
  0
LINE
  5
234F
100
AcDbEntity
  8
DIM
100
AcDbLine
 10
104.442784
 20
86.454772
 30
0.0
 11
103.192784
 21
86.454772
 31
0.0
  0
INSERT
  5
2350
100
AcDbEntity
  8
DIM
100
AcDbBlockReference
  2
*U5
 10
-283.227326
 20
-69.81323
 30
0.0
  0
INSERT
  5
2351
100
AcDbEntity
  8
DIM
100
AcDbBlockReference
  2
*U6
 10
-283.227326
 20
-69.81323
 30
0.0
  0
LINE
  5
2352
100
AcDbEntity
  8
DIM
100
AcDbLine
 10
110.442784
 20
82.897041
 30
0.0
 11
110.442784
 21
91.216919
 31
0.0
  0
LINE
  5
2353
100
AcDbEntity
  8
DIM
100
AcDbLine
 10
110.442784
 20
82.897041
 30
0.0
 11
110.442784
 21
86.634772
 31
0.0
  0
SOLID
  5
2354
100
AcDbEntity
  8
DIM
100
AcDbTrace
 10
109.192784
 20
86.663105
 30
0.0
 11
109.192784
 21
86.246439
 31
0.0
 12
110.442784
 22
86.454772
 32
0.0
 13
110.442784
 23
86.454772
 33
0.0
  0
LINE
  5
2355
100
AcDbEntity
  8
DIM
100
AcDbLine
 10
109.192784
 20
86.454772
 30
0.0
 11
105.692784
 21
86.454772
 31
0.0
  0
SOLID
  5
2356
100
AcDbEntity
  8
DIM
100
AcDbTrace
 10
109.192784
 20
91.245253
 30
0.0
 11
109.192784
 21
90.828586
 31
0.0
 12
110.442784
 22
91.036919
 32
0.0
 13
110.442784
 23
91.036919
 33
0.0
  0
LWPOLYLINE
  5
2357
100
AcDbEntity
  8
BORDER
 62
     5
100
AcDbPolyline
 90
        2
 70
     0
 43
1.223112
 10
181.324104
 20
22.016019
 10
181.324104
 20
9.784897
  0
LINE
  5
2358
100
AcDbEntity
  8
BORDER
100
AcDbLine
 10
176.431656
 20
20.096673
 30
0.0
 11
176.431656
 21
10.311775
 31
0.0
  0
LINE
  5
2359
100
AcDbEntity
  8
BORDER
100
AcDbLine
 10
178.87788
 20
9.784897
 30
0.0
 11
178.87788
 21
22.016019
 31
0.0
  0
ARC
  5
235A
100
AcDbEntity
  8
BORDER
100
AcDbCircle
 10
176.431656
 20
9.784897
 30
0.0
 40
2.446224
100
AcDbArc
 50
270.0
 51
0.0
  0
LWPOLYLINE
  5
235B
100
AcDbEntity
  8
BORDER
 62
     5
100
AcDbPolyline
 90
        2
 70
     0
 43
1.223112
 10
176.431656
 20
4.892449
 42
0.414214
 10
181.324104
 20
9.784897
 42
-0.560527
  0
TEXT
  5
235C
100
AcDbEntity
  8
BORDER
 62
     6
100
AcDbText
 10
156.453148
 20
21.192244
 30
0.0
 40
1.646344
  1
Revisions
  7
ROMANC
100
AcDbText
  0
ARC
  5
235D
100
AcDbEntity
  8
BORDER
100
AcDbCircle
 10
176.431656
 20
22.016019
 30
0.0
 40
2.446224
100
AcDbArc
 50
0.0
 51
90.0
  0
LWPOLYLINE
  5
235E
100
AcDbEntity
  8
BORDER
 62
     5
100
AcDbPolyline
 90
        2
 70
     0
 43
1.223112
 10
176.431656
 20
26.908467
 42
-0.414214
 10
181.324104
 20
22.016019
 42
0.560527
  0
LINE
  5
235F
100
AcDbEntity
  8
DIM
100
AcDbLine
 10
34.822342
 20
228.371971
 30
0.0
 11
158.869515
 21
228.371971
 31
0.0
  0
TEXT
  5
2360
100
AcDbEntity
  8
DIM
100
AcDbText
 10
35.1439
 20
230.876698
 30
0.0
 40
2.25
  1
32" X 30" X 25" RECTANGULAR FIBERGLASS VALVEBOX-FRVB32X30X25
  7
ROMANS
100
AcDbText
  0
LWPOLYLINE
  5
2361
100
AcDbEntity
  8
BORDER
 62
     5
100
AcDbPolyline
 90
        2
 70
     0
 43
0.489245
 10
179.367125
 20
235.805887
 10
5.870939
 20
235.805887
  0
LINE
  5
2362
100
AcDbEntity
  8
BORDER
 62
     5
100
AcDbLine
 10
179.367125
 20
235.805887
 30
0.0
 11
5.870939
 21
235.805887
 31
0.0
  0
LINE
  5
2363
100
AcDbEntity
  8
LIMITS
 62
     7
100
AcDbLine
 10
185.238063
 20
239.719846
 30
0.0
 11
0.0
 21
239.719846
 31
0.0
  0
LINE
  5
2364
100
AcDbEntity
  8
CENTER
100
AcDbLine
 10
93.718869
 20
173.773076
 30
0.0
 11
93.718869
 21
214.228891
 31
0.0
  0
LINE
  5
2365
100
AcDbEntity
  8
OBJECT
100
AcDbLine
 10
109.718849
 20
179.000983
 30
0.0
 11
109.718889
 21
209.000984
 31
0.0
  0
LINE
  5
2366
100
AcDbEntity
  8
OBJECT
100
AcDbLine
 10
112.718869
 20
176.000984
 30
0.0
 11
112.718869
 21
212.000984
 31
0.0
  0
LINE
  5
2367
100
AcDbEntity
  8
OBJECT
100
AcDbLine
 10
77.718889
 20
179.000983
 30
0.0
 11
77.718849
 21
209.000984
 31
0.0
  0
LINE
  5
2368
100
AcDbEntity
  8
OBJECT
100
AcDbLine
 10
74.718869
 20
176.000984
 30
0.0
 11
74.718869
 21
212.000984
 31
0.0
  0
LINE
  5
2369
100
AcDbEntity
  8
DIM
100
AcDbLine
 10
67.561785
 20
180.250984
 30
0.0
 11
67.561785
 21
190.514304
 31
0.0
  0
LINE
  5
236A
100
AcDbEntity
  8
DIM
100
AcDbLine
 10
63.307581
 20
177.250984
 30
0.0
 11
63.307581
 21
191.536698
 31
0.0
  0
INSERT
  5
236B
100
AcDbEntity
  8
DIM
100
AcDbBlockReference
  2
*U1
 10
-136.294155
 20
35.625471
 30
0.0
1001
ACAD
1000
DSTYLE
1002
{
1070
   272
1070
     0
1070
    40
1040
1.0
1070
   147
1040
1.25
1070
    42
1040
0.0625
1070
    41
1040
1.25
1002
}
  0
LINE
  5
236C
100
AcDbEntity
  8
CENTER
100
AcDbLine
 10
93.718869
 20
146.549188
 30
0.0
 11
93.718869
 21
114.223351
 31
0.0
  0
LINE
  5
236D
100
AcDbEntity
  8
OBJECT
100
AcDbLine
 10
84.135654
 20
164.092709
 30
0.0
 11
106.895626
 21
141.332737
 31
0.0
  0
LINE
  5
236E
100
AcDbEntity
  8
OBJECT
100
AcDbLine
 10
83.958878
 20
163.915932
 30
0.0
 11
106.718849
 21
141.155961
 31
0.0
  0
ARC
  5
236F
100
AcDbEntity
  8
OBJECT
  6
PHANTOM
100
AcDbCircle
 10
106.718849
 20
141.155961
 30
0.0
 40
32.187461
100
AcDbArc
 50
134.554979
 51
180.0
  0
LINE
  5
2370
100
AcDbEntity
  8
OBJECT
100
AcDbLine
 10
112.718849
 20
141.155961
 30
0.0
 11
77.952023
 21
141.155961
 31
0.0
  0
LINE
  5
2371
100
AcDbEntity
  8
OBJECT
100
AcDbLine
 10
78.031421
 20
115.968461
 30
0.0
 11
109.406317
 21
115.968461
 31
0.0
  0
LINE
  5
2372
100
AcDbEntity
  8
OBJECT
100
AcDbLine
 10
109.406317
 20
116.155961
 30
0.0
 11
78.031421
 21
116.155961
 31
0.0
  0
LINE
  5
2373
100
AcDbEntity
  8
OBJECT
100
AcDbLine
 10
77.531421
 20
116.46846
 30
0.0
 11
77.531389
 21
140.780961
 31
0.0
  0
LINE
  5
2374
100
AcDbEntity
  8
OBJECT
100
AcDbLine
 10
77.718889
 20
140.968461
 30
0.0
 11
77.718921
 21
116.46846
 31
0.0
  0
ARC
  5
2375
100
AcDbEntity
  8
OBJECT
100
AcDbCircle
 10
78.031421
 20
116.468461
 30
0.0
 40
0.5
100
AcDbArc
 50
180.000075
 51
270.0
  0
ARC
  5
2376
100
AcDbEntity
  8
OBJECT
100
AcDbCircle
 10
78.031421
 20
116.468461
 30
0.0
 40
0.3125
100
AcDbArc
 50
180.000075
 51
270.0
  0
TEXT
  5
2377
100
AcDbEntity
  8
DIM
100
AcDbText
 10
61.002792
 20
135.701224
 30
0.0
 40
1.5
  1
Locking
  7
ROMANS
100
AcDbText
  0
TEXT
  5
2378
100
AcDbEntity
  8
DIM
100
AcDbText
 10
61.002792
 20
133.272652
 30
0.0
 40
1.5
  1
Pin
  7
ROMANS
100
AcDbText
  0
INSERT
  5
2379
100
AcDbEntity
  8
DIM
100
AcDbBlockReference
  2
*U2
 10
-136.294155
 20
35.625471
 30
0.0
1001
ACAD
1000
DSTYLE
1002
{
1070
   272
1070
     0
1070
    40
1040
1.0
1070
   147
1040
1.25
1070
    42
1040
0.0625
1070
    41
1040
1.25
1002
}
  0
LINE
  5
237A
100
AcDbEntity
  8
DIM
100
AcDbLine
 10
69.418736
 20
136.302602
 30
0.0
 11
70.605998
 21
136.302602
 31
0.0
  0
LINE
  5
237B
100
AcDbEntity
  8
OBJECT
100
AcDbLine
 10
77.952023
 20
141.86233
 30
0.0
 11
77.952023
 21
140.449591
 31
0.0
  0
LINE
  5
237C
100
AcDbEntity
  8
OBJECT
100
AcDbLine
 10
77.718889
 20
140.449591
 30
0.0
 11
77.952023
 21
140.449591
 31
0.0
  0
LINE
  5
237D
100
AcDbEntity
  8
OBJECT
100
AcDbLine
 10
77.343889
 20
140.968461
 30
0.0
 11
74.531389
 21
140.968461
 31
0.0
  0
LINE
  5
237E
100
AcDbEntity
  8
OBJECT
100
AcDbLine
 10
74.531389
 20
140.968461
 30
0.0
 11
74.531389
 21
141.155961
 31
0.0
  0
ARC
  5
237F
100
AcDbEntity
  8
OBJECT
100
AcDbCircle
 10
77.531389
 20
140.968461
 30
0.0
 40
0.1875
100
AcDbArc
 50
0.000075
 51
90.0
  0
ARC
  5
2380
100
AcDbEntity
  8
OBJECT
100
AcDbCircle
 10
77.343889
 20
140.780961
 30
0.0
 40
0.1875
100
AcDbArc
 50
0.000075
 51
90.0
  0
LINE
  5
2381
100
AcDbEntity
  8
OBJECT
100
AcDbLine
 10
77.718889
 20
140.968461
 30
0.0
 11
77.718889
 21
141.86233
 31
0.0
  0
LINE
  5
2382
100
AcDbEntity
  8
OBJECT
100
AcDbLine
 10
77.718889
 20
141.86233
 30
0.0
 11
77.952023
 21
141.86233
 31
0.0
  0
LINE
  5
2383
100
AcDbEntity
  8
OBJECT
100
AcDbLine
 10
77.718889
 20
141.155961
 30
0.0
 11
74.531389
 21
141.155961
 31
0.0
  0
LINE
  5
2384
100
AcDbEntity
  8
OBJECT
100
AcDbLine
 10
109.906317
 20
116.46846
 30
0.0
 11
109.906349
 21
140.780961
 31
0.0
  0
LINE
  5
2385
100
AcDbEntity
  8
OBJECT
100
AcDbLine
 10
109.718849
 20
140.968461
 30
0.0
 11
109.718817
 21
116.46846
 31
0.0
  0
LINE
  5
2386
100
AcDbEntity
  8
DIM
100
AcDbLine
 10
117.780796
 20
117.405961
 30
0.0
 11
117.780796
 21
126.191675
 31
0.0
  0
LINE
  5
2387
100
AcDbEntity
  8
DIM
100
AcDbLine
 10
111.305602
 20
116.155961
 30
0.0
 11
117.960796
 21
116.155961
 31
0.0
  0
ARC
  5
2388
100
AcDbEntity
  8
OBJECT
100
AcDbCircle
 10
109.406317
 20
116.468461
 30
0.0
 40
0.5
100
AcDbArc
 50
270.0
 51
359.999925
  0
ARC
  5
2389
100
AcDbEntity
  8
OBJECT
100
AcDbCircle
 10
109.406317
 20
116.468461
 30
0.0
 40
0.3125
100
AcDbArc
 50
270.0
 51
359.999925
  0
LINE
  5
238A
100
AcDbEntity
  8
DIM
100
AcDbLine
 10
109.406317
 20
116.155961
 30
0.0
 11
111.243102
 21
116.155961
 31
0.0
  0
SOLID
  5
238B
100
AcDbEntity
  8
DIM
100
AcDbTrace
 10
117.572463
 20
117.405961
 30
0.0
 11
117.98913
 21
117.405961
 31
0.0
 12
117.780796
 22
116.155961
 32
0.0
 13
117.780796
 23
116.155961
 33
0.0
  0
LINE
  5
238C
100
AcDbEntity
  8
DIM
100
AcDbLine
 10
117.780796
 20
139.905961
 30
0.0
 11
117.780796
 21
131.120246
 31
0.0
  0
INSERT
  5
238D
100
AcDbEntity
  8
DIM
100
AcDbBlockReference
  2
*U8
 10
-136.294155
 20
35.625471
 30
0.0
  0
SOLID
  5
238E
100
AcDbEntity
  8
DIM
100
AcDbTrace
 10
117.572463
 20
139.905961
 30
0.0
 11
117.98913
 21
139.905961
 31
0.0
 12
117.780796
 22
141.155961
 32
0.0
 13
117.780796
 23
141.155961
 33
0.0
  0
LINE
  5
238F
100
AcDbEntity
  8
DIM
100
AcDbLine
 10
113.761743
 20
141.155961
 30
0.0
 11
117.960796
 21
141.155961
 31
0.0
  0
LINE
  5
2390
100
AcDbEntity
  8
OBJECT
100
AcDbLine
 10
110.093849
 20
140.968461
 30
0.0
 11
112.718849
 21
140.968461
 31
0.0
  0
LINE
  5
2391
100
AcDbEntity
  8
OBJECT
100
AcDbLine
 10
112.718849
 20
141.155961
 30
0.0
 11
112.718849
 21
140.968461
 31
0.0
  0
ARC
  5
2392
100
AcDbEntity
  8
OBJECT
100
AcDbCircle
 10
109.906349
 20
140.968461
 30
0.0
 40
0.1875
100
AcDbArc
 50
90.0
 51
179.999925
  0
ARC
  5
2393
100
AcDbEntity
  8
OBJECT
100
AcDbCircle
 10
110.093849
 20
140.780961
 30
0.0
 40
0.1875
100
AcDbArc
 50
90.0
 51
179.999925
  0
LINE
  5
2394
100
AcDbEntity
  8
OBJECT
100
AcDbLine
 10
112.718849
 20
141.155961
 30
0.0
 11
112.718849
 21
141.405961
 31
0.0
  0
LINE
  5
2395
100
AcDbEntity
  8
DIM
100
AcDbLine
 10
112.718849
 20
141.155961
 30
0.0
 11
113.699243
 21
141.155961
 31
0.0
  0
LINE
  5
2396
100
AcDbEntity
  8
OBJECT
100
AcDbLine
 10
106.718849
 20
141.155961
 30
0.0
 11
106.895626
 21
141.332737
 31
0.0
  0
LINE
  5
2397
100
AcDbEntity
  8
OBJECT
100
AcDbLine
 10
106.951847
 20
141.405961
 30
0.0
 11
106.951847
 21
141.155961
 31
0.0
  0
LINE
  5
2398
100
AcDbEntity
  8
OBJECT
100
AcDbLine
 10
112.718849
 20
141.405961
 30
0.0
 11
106.951847
 21
141.405961
 31
0.0
  0
LINE
  5
2399
100
AcDbEntity
  8
OBJECT
100
AcDbLine
 10
109.718889
 20
179.000984
 30
0.0
 11
77.718849
 21
179.000984
 31
0.0
  0
LINE
  5
239A
100
AcDbEntity
  8
OBJECT
100
AcDbLine
 10
112.718869
 20
176.000984
 30
0.0
 11
74.718869
 21
176.000984
 31
0.0
  0
LINE
  5
239B
100
AcDbEntity
  8
OBJECT
100
AcDbLine
 10
83.958878
 20
163.915932
 30
0.0
 11
84.135654
 21
164.092709
 31
0.0
  0
LINE
  5
239C
100
AcDbEntity
  8
DIM
100
AcDbLine
 10
74.656369
 20
176.000984
 30
0.0
 11
63.127581
 21
176.000984
 31
0.0
  0
TEXT
  5
239D
100
AcDbEntity
  8
DIM
100
AcDbText
 10
58.112553
 20
171.048954
 30
0.0
 40
1.5
  1
Locking
  7
ROMANS
100
AcDbText
  0
TEXT
  5
239E
100
AcDbEntity
  8
DIM
100
AcDbText
 10
58.112553
 20
168.620382
 30
0.0
 40
1.5
  1
Pin
  7
ROMANS
100
AcDbText
  0
LINE
  5
239F
100
AcDbEntity
  8
DIM
100
AcDbLine
 10
66.528497
 20
171.650332
 30
0.0
 11
67.715758
 21
171.650332
 31
0.0
  0
SOLID
  5
23A0
100
AcDbEntity
  8
DIM
100
AcDbTrace
 10
63.099248
 20
177.250984
 30
0.0
 11
63.515915
 21
177.250984
 31
0.0
 12
63.307581
 22
176.000984
 32
0.0
 13
63.307581
 23
176.000984
 33
0.0
  0
LINE
  5
23A1
100
AcDbEntity
  8
DIM
100
AcDbLine
 10
77.656389
 20
179.000984
 30
0.0
 11
67.381785
 21
179.000984
 31
0.0
  0
SOLID
  5
23A2
100
AcDbEntity
  8
DIM
100
AcDbTrace
 10
67.353451
 20
180.250984
 30
0.0
 11
67.770118
 21
180.250984
 31
0.0
 12
67.561785
 22
179.000984
 32
0.0
 13
67.561785
 23
179.000984
 33
0.0
  0
TEXT
  5
23A3
100
AcDbEntity
  8
DIM
100
AcDbText
 10
109.698787
 20
154.464688
 30
0.0
 40
1.5
  1
Frogmouth Aluminum Cover
  7
ROMANS
100
AcDbText
  0
INSERT
  5
23A4
100
AcDbEntity
  8
DIM
100
AcDbBlockReference
  2
*U4
 10
-136.294155
 20
35.625471
 30
0.0
1001
ACAD
1000
DSTYLE
1002
{
1070
   272
1070
     0
1070
    40
1040
1.0
1070
   147
1040
1.25
1070
    42
1040
0.0625
1070
    41
1040
1.25
1002
}
  0
LINE
  5
23A5
100
AcDbEntity
  8
DIM
100
AcDbLine
 10
109.237276
 20
155.098942
 30
0.0
 11
106.974714
 21
155.098942
 31
0.0
  0
TEXT
  5
23A6
100
AcDbEntity
  8
15
 62
     6
100
AcDbText
 10
92.856863
 20
171.500023
 30
0.0
 40
1.5
  1
C
  7
ROMANS
100
AcDbText
  0
TEXT
  5
23A7
100
AcDbEntity
  8
15
 62
     6
100
AcDbText
 10
93.367708
 20
170.759024
 30
0.0
 40
1.5
  1
L
  7
ROMANS
100
AcDbText
  0
LINE
  5
23A8
100
AcDbEntity
  8
DIM
100
AcDbLine
 10
78.968849
 20
217.141048
 30
0.0
 11
90.222371
 21
217.141048
 31
0.0
  0
LINE
  5
23A9
100
AcDbEntity
  8
DIM
100
AcDbLine
 10
75.968869
 20
220.75089
 30
0.0
 11
91.254583
 21
220.75089
 31
0.0
  0
LINE
  5
23AA
100
AcDbEntity
  8
CENTER
100
AcDbLine
 10
115.419022
 20
194.000984
 30
0.0
 11
72.018716
 21
194.000984
 31
0.0
  0
LINE
  5
23AB
100
AcDbEntity
  8
OBJECT
100
AcDbLine
 10
109.718889
 20
209.000984
 30
0.0
 11
77.718849
 21
209.000984
 31
0.0
  0
LINE
  5
23AC
100
AcDbEntity
  8
OBJECT
100
AcDbLine
 10
112.718869
 20
212.000984
 30
0.0
 11
74.718869
 21
212.000984
 31
0.0
  0
LINE
  5
23AD
100
AcDbEntity
  8
DIM
100
AcDbLine
 10
63.307581
 20
210.750984
 30
0.0
 11
63.307581
 21
196.465269
 31
0.0
  0
LINE
  5
23AE
100
AcDbEntity
  8
DIM
100
AcDbLine
 10
77.718849
 20
209.063484
 30
0.0
 11
77.718849
 21
217.321048
 31
0.0
  0
LINE
  5
23AF
100
AcDbEntity
  8
DIM
100
AcDbLine
 10
67.561785
 20
207.750984
 30
0.0
 11
67.561785
 21
197.847502
 31
0.0
  0
INSERT
  5
23B0
100
AcDbEntity
  8
DIM
100
AcDbBlockReference
  2
*U12
 10
-136.294155
 20
35.625471
 30
0.0
  0
INSERT
  5
23B1
100
AcDbEntity
  8
DIM
100
AcDbBlockReference
  2
*U11
 10
-136.294155
 20
35.625471
 30
0.0
  0
LINE
  5
23B2
100
AcDbEntity
  8
CENTER
100
AcDbLine
 10
77.835456
 20
193.678275
 30
0.0
 11
77.835456
 21
194.323692
 31
0.0
  0
CIRCLE
  5
23B3
100
AcDbEntity
  8
OBJECT
100
AcDbCircle
 10
77.835456
 20
194.000984
 30
0.0
 40
0.116587
  0
LINE
  5
23B4
100
AcDbEntity
  8
DIM
100
AcDbLine
 10
77.656349
 20
209.000984
 30
0.0
 11
67.381785
 21
209.000984
 31
0.0
  0
SOLID
  5
23B5
100
AcDbEntity
  8
DIM
100
AcDbTrace
 10
67.353451
 20
207.750984
 30
0.0
 11
67.770118
 21
207.750984
 31
0.0
 12
67.561785
 22
209.000984
 32
0.0
 13
67.561785
 23
209.000984
 33
0.0
  0
LINE
  5
23B6
100
AcDbEntity
  8
DIM
100
AcDbLine
 10
74.718869
 20
212.063484
 30
0.0
 11
74.718869
 21
220.93089
 31
0.0
  0
SOLID
  5
23B7
100
AcDbEntity
  8
DIM
100
AcDbTrace
 10
75.968869
 20
220.959223
 30
0.0
 11
75.968869
 21
220.542556
 31
0.0
 12
74.718869
 22
220.75089
 32
0.0
 13
74.718869
 23
220.75089
 33
0.0
  0
LINE
  5
23B8
100
AcDbEntity
  8
DIM
100
AcDbLine
 10
74.656369
 20
212.000984
 30
0.0
 11
63.127581
 21
212.000984
 31
0.0
  0
SOLID
  5
23B9
100
AcDbEntity
  8
DIM
100
AcDbTrace
 10
63.099248
 20
210.750984
 30
0.0
 11
63.515915
 21
210.750984
 31
0.0
 12
63.307581
 22
212.000984
 32
0.0
 13
63.307581
 23
212.000984
 33
0.0
  0
SOLID
  5
23BA
100
AcDbEntity
  8
DIM
100
AcDbTrace
 10
78.968849
 20
217.349381
 30
0.0
 11
78.968849
 21
216.932715
 31
0.0
 12
77.718849
 22
217.141048
 32
0.0
 13
77.718849
 23
217.141048
 33
0.0
  0
LINE
  5
23BB
100
AcDbEntity
  8
DIM
100
AcDbLine
 10
109.718889
 20
209.063484
 30
0.0
 11
109.718889
 21
217.321048
 31
0.0
  0
TEXT
  5
23BC
100
AcDbEntity
  8
15
 62
     6
100
AcDbText
 10
115.813244
 20
193.387099
 30
0.0
 40
1.5
  1
C
  7
ROMANS
100
AcDbText
  0
TEXT
  5
23BD
100
AcDbEntity
  8
15
 62
     6
100
AcDbText
 10
116.324089
 20
192.646101
 30
0.0
 40
1.5
  1
L
  7
ROMANS
100
AcDbText
  0
LINE
  5
23BE
100
AcDbEntity
  8
DIM
100
AcDbLine
 10
112.718869
 20
212.063484
 30
0.0
 11
112.718869
 21
220.93089
 31
0.0
  0
SOLID
  5
23BF
100
AcDbEntity
  8
DIM
100
AcDbTrace
 10
111.468869
 20
220.959223
 30
0.0
 11
111.468869
 21
220.542556
 31
0.0
 12
112.718869
 22
220.75089
 32
0.0
 13
112.718869
 23
220.75089
 33
0.0
  0
INSERT
  5
23C0
100
AcDbEntity
  8
DIM
100
AcDbBlockReference
  2
*U9
 10
-136.294155
 20
35.625471
 30
0.0
  0
LINE
  5
23C1
100
AcDbEntity
  8
DIM
100
AcDbLine
 10
108.468889
 20
217.141048
 30
0.0
 11
97.246846
 21
217.141048
 31
0.0
  0
INSERT
  5
23C2
100
AcDbEntity
  8
DIM
100
AcDbBlockReference
  2
*U10
 10
-136.294155
 20
35.625471
 30
0.0
  0
SOLID
  5
23C3
100
AcDbEntity
  8
DIM
100
AcDbTrace
 10
108.468889
 20
217.349381
 30
0.0
 11
108.468889
 21
216.932715
 31
0.0
 12
109.718889
 22
217.141048
 32
0.0
 13
109.718889
 23
217.141048
 33
0.0
  0
LINE
  5
23C4
100
AcDbEntity
  8
DIM
100
AcDbLine
 10
111.468869
 20
220.75089
 30
0.0
 11
96.183155
 21
220.75089
 31
0.0
  0
ENDBLK
  5
23C6
100
AcDbEntity
  8
0
100
AcDbBlockEnd
  0
BLOCK
  5
26A3
100
AcDbEntity
  8
0
100
AcDbBlockBegin
  2
*D17
 70
     1
 10
0.0
 20
0.0
 30
0.0
  3
*D17
  1

  0
LINE
  5
26A4
100
AcDbEntity
  8
0
  6
BYBLOCK
 62
     0
100
AcDbLine
 10
124.988841
 20
44.406897
 30
0.0
 11
124.988841
 21
39.424781
 31
0.0
  0
LINE
  5
26A5
100
AcDbEntity
  8
0
  6
BYBLOCK
 62
     0
100
AcDbLine
 10
130.988841
 20
44.406897
 30
0.0
 11
130.988841
 21
39.424781
 31
0.0
  0
LINE
  5
26A6
100
AcDbEntity
  8
0
  6
BYBLOCK
 62
     0
100
AcDbLine
 10
123.738841
 20
40.774781
 30
0.0
 11
122.488841
 21
40.774781
 31
0.0
  0
LINE
  5
26A7
100
AcDbEntity
  8
0
  6
BYBLOCK
 62
     0
100
AcDbLine
 10
132.238841
 20
40.774781
 30
0.0
 11
133.488841
 21
40.774781
 31
0.0
  0
SOLID
  5
26A8
100
AcDbEntity
  8
0
  6
BYBLOCK
 62
     0
100
AcDbTrace
 10
123.738841
 20
40.983115
 30
0.0
 11
123.738841
 21
40.566448
 31
0.0
 12
124.988841
 22
40.774781
 32
0.0
 13
124.988841
 23
40.774781
 33
0.0
  0
SOLID
  5
26A9
100
AcDbEntity
  8
0
  6
BYBLOCK
 62
     0
100
AcDbTrace
 10
132.238841
 20
40.983115
 30
0.0
 11
132.238841
 21
40.566448
 31
0.0
 12
130.988841
 22
40.774781
 32
0.0
 13
130.988841
 23
40.774781
 33
0.0
  0
MTEXT
  5
26AA
100
AcDbEntity
  8
0
  6
BYBLOCK
 62
     0
100
AcDbMText
 10
135.106698
 20
40.774781
 30
0.0
 40
1.35
 41
0.0
 71
     5
 72
     1
  1
\A1;6
  7
ROMAND
  0
POINT
  5
26AB
100
AcDbEntity
  8
DEFPOINTS
  6
BYBLOCK
 62
     0
100
AcDbPoint
 10
124.988841
 20
44.656897
 30
0.0
  0
POINT
  5
26AC
100
AcDbEntity
  8
DEFPOINTS
  6
BYBLOCK
 62
     0
100
AcDbPoint
 10
130.988841
 20
44.656897
 30
0.0
  0
POINT
  5
26AD
100
AcDbEntity
  8
DEFPOINTS
  6
BYBLOCK
 62
     0
100
AcDbPoint
 10
130.988841
 20
40.774781
 30
0.0
  0
ENDBLK
  5
26AE
100
AcDbEntity
  8
0
100
AcDbBlockEnd
  0
BLOCK
  5
283B
100
AcDbEntity
  8
0
100
AcDbBlockBegin
  2
*D20
 70
     1
 10
0.0
 20
0.0
 30
0.0
  3
*D20
  1

  0
LINE
  5
283C
100
AcDbEntity
  8
0
  6
BYBLOCK
 62
     0
100
AcDbLine
 10
87.988841
 20
104.76116
 30
0.0
 11
87.988841
 21
97.728234
 31
0.0
  0
LINE
  5
283D
100
AcDbEntity
  8
0
  6
BYBLOCK
 62
     0
100
AcDbLine
 10
137.988841
 20
104.76116
 30
0.0
 11
137.988841
 21
97.728234
 31
0.0
  0
LINE
  5
283E
100
AcDbEntity
  8
0
  6
BYBLOCK
 62
     0
100
AcDbLine
 10
89.238841
 20
99.078234
 30
0.0
 11
110.149556
 21
99.078234
 31
0.0
  0
LINE
  5
283F
100
AcDbEntity
  8
0
  6
BYBLOCK
 62
     0
100
AcDbLine
 10
136.738841
 20
99.078234
 30
0.0
 11
115.828127
 21
99.078234
 31
0.0
  0
SOLID
  5
2840
100
AcDbEntity
  8
0
  6
BYBLOCK
 62
     0
100
AcDbTrace
 10
89.238841
 20
99.286567
 30
0.0
 11
89.238841
 21
98.869901
 31
0.0
 12
87.988841
 22
99.078234
 32
0.0
 13
87.988841
 23
99.078234
 33
0.0
  0
SOLID
  5
2841
100
AcDbEntity
  8
0
  6
BYBLOCK
 62
     0
100
AcDbTrace
 10
136.738841
 20
99.286567
 30
0.0
 11
136.738841
 21
98.869901
 31
0.0
 12
137.988841
 22
99.078234
 32
0.0
 13
137.988841
 23
99.078234
 33
0.0
  0
MTEXT
  5
2842
100
AcDbEntity
  8
0
  6
BYBLOCK
 62
     0
100
AcDbMText
 10
112.988841
 20
99.078234
 30
0.0
 40
1.35
 41
0.0
 71
     5
 72
     1
  1
\A1;50"
  7
ROMAND
  0
POINT
  5
2843
100
AcDbEntity
  8
DEFPOINTS
  6
BYBLOCK
 62
     0
100
AcDbPoint
 10
87.988841
 20
105.01116
 30
0.0
  0
POINT
  5
2844
100
AcDbEntity
  8
DEFPOINTS
  6
BYBLOCK
 62
     0
100
AcDbPoint
 10
137.988841
 20
105.01116
 30
0.0
  0
POINT
  5
2845
100
AcDbEntity
  8
DEFPOINTS
  6
BYBLOCK
 62
     0
100
AcDbPoint
 10
137.988841
 20
99.078234
 30
0.0
  0
ENDBLK
  5
2846
100
AcDbEntity
  8
0
100
AcDbBlockEnd
  0
BLOCK
  5
2847
100
AcDbEntity
  8
0
100
AcDbBlockBegin
  2
*D21
 70
     1
 10
0.0
 20
0.0
 30
0.0
  3
*D21
  1

  0
LINE
  5
2848
100
AcDbEntity
  8
0
  6
BYBLOCK
 62
     0
100
AcDbLine
 10
140.988841
 20
30.391851
 30
0.0
 11
140.988841
 21
18.534921
 31
0.0
  0
LINE
  5
2849
100
AcDbEntity
  8
0
  6
BYBLOCK
 62
     0
100
AcDbLine
 10
86.238841
 20
30.391851
 30
0.0
 11
86.238841
 21
18.534921
 31
0.0
  0
LINE
  5
284A
100
AcDbEntity
  8
0
  6
BYBLOCK
 62
     0
100
AcDbLine
 10
139.738841
 20
19.884921
 30
0.0
 11
119.153127
 21
19.884921
 31
0.0
  0
LINE
  5
284B
100
AcDbEntity
  8
0
  6
BYBLOCK
 62
     0
100
AcDbLine
 10
87.488841
 20
19.884921
 30
0.0
 11
108.074556
 21
19.884921
 31
0.0
  0
SOLID
  5
284C
100
AcDbEntity
  8
0
  6
BYBLOCK
 62
     0
100
AcDbTrace
 10
139.738841
 20
20.093255
 30
0.0
 11
139.738841
 21
19.676588
 31
0.0
 12
140.988841
 22
19.884921
 32
0.0
 13
140.988841
 23
19.884921
 33
0.0
  0
SOLID
  5
284D
100
AcDbEntity
  8
0
  6
BYBLOCK
 62
     0
100
AcDbTrace
 10
87.488841
 20
20.093255
 30
0.0
 11
87.488841
 21
19.676588
 31
0.0
 12
86.238841
 22
19.884921
 32
0.0
 13
86.238841
 23
19.884921
 33
0.0
  0
MTEXT
  5
284E
100
AcDbEntity
  8
0
  6
BYBLOCK
 62
     0
100
AcDbMText
 10
113.613841
 20
19.884921
 30
0.0
 40
1.35
 41
0.0
 71
     5
 72
     1
  1
\A1;54 3/4"
  7
ROMAND
  0
POINT
  5
284F
100
AcDbEntity
  8
DEFPOINTS
  6
BYBLOCK
 62
     0
100
AcDbPoint
 10
140.988841
 20
30.641851
 30
0.0
  0
POINT
  5
2850
100
AcDbEntity
  8
DEFPOINTS
  6
BYBLOCK
 62
     0
100
AcDbPoint
 10
86.238841
 20
30.641851
 30
0.0
  0
POINT
  5
2851
100
AcDbEntity
  8
DEFPOINTS
  6
BYBLOCK
 62
     0
100
AcDbPoint
 10
86.238841
 20
19.884921
 30
0.0
  0
ENDBLK
  5
2852
100
AcDbEntity
  8
0
100
AcDbBlockEnd
  0
BLOCK
  5
2823
100
AcDbEntity
  8
0
100
AcDbBlockBegin
  2
*D22
 70
     1
 10
0.0
 20
0.0
 30
0.0
  3
*D22
  1

  0
LINE
  5
2824
100
AcDbEntity
  8
0
  6
BYBLOCK
 62
     0
100
AcDbLine
 10
85.738841
 20
152.76116
 30
0.0
 11
79.934798
 21
152.76116
 31
0.0
  0
LINE
  5
2825
100
AcDbEntity
  8
0
  6
BYBLOCK
 62
     0
100
AcDbLine
 10
87.988841
 20
104.76116
 30
0.0
 11
79.934798
 21
104.76116
 31
0.0
  0
LINE
  5
2826
100
AcDbEntity
  8
0
  6
BYBLOCK
 62
     0
100
AcDbLine
 10
81.284798
 20
151.51116
 30
0.0
 11
81.284798
 21
130.764731
 31
0.0
  0
LINE
  5
2827
100
AcDbEntity
  8
0
  6
BYBLOCK
 62
     0
100
AcDbLine
 10
81.284798
 20
106.01116
 30
0.0
 11
81.284798
 21
126.757588
 31
0.0
  0
SOLID
  5
2828
100
AcDbEntity
  8
0
  6
BYBLOCK
 62
     0
100
AcDbTrace
 10
81.076465
 20
151.51116
 30
0.0
 11
81.493131
 21
151.51116
 31
0.0
 12
81.284798
 22
152.76116
 32
0.0
 13
81.284798
 23
152.76116
 33
0.0
  0
SOLID
  5
2829
100
AcDbEntity
  8
0
  6
BYBLOCK
 62
     0
100
AcDbTrace
 10
81.076465
 20
106.01116
 30
0.0
 11
81.493131
 21
106.01116
 31
0.0
 12
81.284798
 22
104.76116
 32
0.0
 13
81.284798
 23
104.76116
 33
0.0
  0
MTEXT
  5
282A
100
AcDbEntity
  8
0
  6
BYBLOCK
 62
     0
100
AcDbMText
 10
81.284798
 20
128.76116
 30
0.0
 40
1.35
 41
0.0
 71
     5
 72
     1
  1
\A1;48"
  7
ROMAND
  0
POINT
  5
282B
100
AcDbEntity
  8
DEFPOINTS
  6
BYBLOCK
 62
     0
100
AcDbPoint
 10
85.988841
 20
152.76116
 30
0.0
  0
POINT
  5
282C
100
AcDbEntity
  8
DEFPOINTS
  6
BYBLOCK
 62
     0
100
AcDbPoint
 10
88.238841
 20
104.76116
 30
0.0
  0
POINT
  5
282D
100
AcDbEntity
  8
DEFPOINTS
  6
BYBLOCK
 62
     0
100
AcDbPoint
 10
81.284798
 20
104.76116
 30
0.0
  0
ENDBLK
  5
282E
100
AcDbEntity
  8
0
100
AcDbBlockEnd
  0
BLOCK
  5
27F1
100
AcDbEntity
  8
0
100
AcDbBlockBegin
  2
*D23
 70
     1
 10
0.0
 20
0.0
 30
0.0
  3
*D23
  1

  0
LINE
  5
27F2
100
AcDbEntity
  8
0
  6
BYBLOCK
 62
     0
100
AcDbLine
 10
87.738841
 20
216.785316
 30
0.0
 11
74.633159
 21
216.785316
 31
0.0
  0
LINE
  5
27F3
100
AcDbEntity
  8
0
  6
BYBLOCK
 62
     0
100
AcDbLine
 10
87.738841
 20
174.785316
 30
0.0
 11
74.633159
 21
174.785316
 31
0.0
  0
LINE
  5
27F4
100
AcDbEntity
  8
0
  6
BYBLOCK
 62
     0
100
AcDbLine
 10
75.983159
 20
215.535316
 30
0.0
 11
75.983159
 21
197.788887
 31
0.0
  0
LINE
  5
27F5
100
AcDbEntity
  8
0
  6
BYBLOCK
 62
     0
100
AcDbLine
 10
75.983159
 20
176.035316
 30
0.0
 11
75.983159
 21
193.781744
 31
0.0
  0
SOLID
  5
27F6
100
AcDbEntity
  8
0
  6
BYBLOCK
 62
     0
100
AcDbTrace
 10
75.774825
 20
215.535316
 30
0.0
 11
76.191492
 21
215.535316
 31
0.0
 12
75.983159
 22
216.785316
 32
0.0
 13
75.983159
 23
216.785316
 33
0.0
  0
SOLID
  5
27F7
100
AcDbEntity
  8
0
  6
BYBLOCK
 62
     0
100
AcDbTrace
 10
75.774825
 20
176.035316
 30
0.0
 11
76.191492
 21
176.035316
 31
0.0
 12
75.983159
 22
174.785316
 32
0.0
 13
75.983159
 23
174.785316
 33
0.0
  0
MTEXT
  5
27F8
100
AcDbEntity
  8
0
  6
BYBLOCK
 62
     0
100
AcDbMText
 10
75.983159
 20
195.785316
 30
0.0
 40
1.35
 41
0.0
 71
     5
 72
     1
  1
\A1;42"
  7
ROMAND
  0
POINT
  5
27F9
100
AcDbEntity
  8
DEFPOINTS
  6
BYBLOCK
 62
     0
100
AcDbPoint
 10
87.988841
 20
216.785316
 30
0.0
  0
POINT
  5
27FA
100
AcDbEntity
  8
DEFPOINTS
  6
BYBLOCK
 62
     0
100
AcDbPoint
 10
87.988841
 20
174.785316
 30
0.0
  0
POINT
  5
27FB
100
AcDbEntity
  8
DEFPOINTS
  6
BYBLOCK
 62
     0
100
AcDbPoint
 10
75.983159
 20
174.785316
 30
0.0
  0
ENDBLK
  5
27FC
100
AcDbEntity
  8
0
100
AcDbBlockEnd
  0
BLOCK
  5
286B
100
AcDbEntity
  8
0
100
AcDbBlockBegin
  2
*D24
 70
     1
 10
0.0
 20
0.0
 30
0.0
  3
*D24
  1

  0
LINE
  5
286C
100
AcDbEntity
  8
0
  6
BYBLOCK
 62
     0
100
AcDbLine
 10
85.988841
 20
74.641851
 30
0.0
 11
70.542405
 21
74.641851
 31
0.0
  0
LINE
  5
286D
100
AcDbEntity
  8
0
  6
BYBLOCK
 62
     0
100
AcDbLine
 10
85.988841
 20
30.141851
 30
0.0
 11
70.542405
 21
30.141851
 31
0.0
  0
LINE
  5
286E
100
AcDbEntity
  8
0
  6
BYBLOCK
 62
     0
100
AcDbLine
 10
71.892405
 20
73.391851
 30
0.0
 11
71.892405
 21
54.620422
 31
0.0
  0
LINE
  5
286F
100
AcDbEntity
  8
0
  6
BYBLOCK
 62
     0
100
AcDbLine
 10
71.892405
 20
31.391851
 30
0.0
 11
71.892405
 21
50.16328
 31
0.0
  0
SOLID
  5
2870
100
AcDbEntity
  8
0
  6
BYBLOCK
 62
     0
100
AcDbTrace
 10
71.684071
 20
73.391851
 30
0.0
 11
72.100738
 21
73.391851
 31
0.0
 12
71.892405
 22
74.641851
 32
0.0
 13
71.892405
 23
74.641851
 33
0.0
  0
SOLID
  5
2871
100
AcDbEntity
  8
0
  6
BYBLOCK
 62
     0
100
AcDbTrace
 10
71.684071
 20
31.391851
 30
0.0
 11
72.100738
 21
31.391851
 31
0.0
 12
71.892405
 22
30.141851
 32
0.0
 13
71.892405
 23
30.141851
 33
0.0
  0
MTEXT
  5
2872
100
AcDbEntity
  8
0
  6
BYBLOCK
 62
     0
100
AcDbMText
 10
71.892405
 20
52.391851
 30
0.0
 40
1.35
 41
0.0
 71
     5
 72
     1
  1
\A1;44 1/2"
  7
ROMAND
  0
POINT
  5
2873
100
AcDbEntity
  8
DEFPOINTS
  6
BYBLOCK
 62
     0
100
AcDbPoint
 10
86.238841
 20
74.641851
 30
0.0
  0
POINT
  5
2874
100
AcDbEntity
  8
DEFPOINTS
  6
BYBLOCK
 62
     0
100
AcDbPoint
 10
86.238841
 20
30.141851
 30
0.0
  0
POINT
  5
2875
100
AcDbEntity
  8
DEFPOINTS
  6
BYBLOCK
 62
     0
100
AcDbPoint
 10
71.892405
 20
30.141851
 30
0.0
  0
ENDBLK
  5
2876
100
AcDbEntity
  8
0
100
AcDbBlockEnd
  0
BLOCK
  5
289E
100
AcDbEntity
  8
0
100
AcDbBlockBegin
  2
*D25
 70
     1
 10
0.0
 20
0.0
 30
0.0
  3
*D25
  1

  0
LINE
  5
289F
100
AcDbEntity
  8
0
  6
BYBLOCK
 62
     0
100
AcDbLine
 10
137.988841
 20
30.129462
 30
0.0
 11
137.988841
 21
22.52546
 31
0.0
  0
LINE
  5
28A0
100
AcDbEntity
  8
0
  6
BYBLOCK
 62
     0
100
AcDbLine
 10
112.988841
 20
27.40521
 30
0.0
 11
112.988841
 21
22.52546
 31
0.0
  0
LINE
  5
28A1
100
AcDbEntity
  8
0
  6
BYBLOCK
 62
     0
100
AcDbLine
 10
136.738841
 20
23.87546
 30
0.0
 11
127.781698
 21
23.87546
 31
0.0
  0
LINE
  5
28A2
100
AcDbEntity
  8
0
  6
BYBLOCK
 62
     0
100
AcDbLine
 10
114.238841
 20
23.87546
 30
0.0
 11
123.195984
 21
23.87546
 31
0.0
  0
SOLID
  5
28A3
100
AcDbEntity
  8
0
  6
BYBLOCK
 62
     0
100
AcDbTrace
 10
136.738841
 20
24.083794
 30
0.0
 11
136.738841
 21
23.667127
 31
0.0
 12
137.988841
 22
23.87546
 32
0.0
 13
137.988841
 23
23.87546
 33
0.0
  0
SOLID
  5
28A4
100
AcDbEntity
  8
0
  6
BYBLOCK
 62
     0
100
AcDbTrace
 10
114.238841
 20
24.083794
 30
0.0
 11
114.238841
 21
23.667127
 31
0.0
 12
112.988841
 22
23.87546
 32
0.0
 13
112.988841
 23
23.87546
 33
0.0
  0
MTEXT
  5
28A5
100
AcDbEntity
  8
0
  6
BYBLOCK
 62
     0
100
AcDbMText
 10
125.488841
 20
23.87546
 30
0.0
 40
1.35
 41
0.0
 71
     5
 72
     1
  1
\A1;25
  7
ROMAND
  0
POINT
  5
28A6
100
AcDbEntity
  8
DEFPOINTS
  6
BYBLOCK
 62
     0
100
AcDbPoint
 10
137.988841
 20
30.379462
 30
0.0
  0
POINT
  5
28A7
100
AcDbEntity
  8
DEFPOINTS
  6
BYBLOCK
 62
     0
100
AcDbPoint
 10
112.988841
 20
27.65521
 30
0.0
  0
POINT
  5
28A8
100
AcDbEntity
  8
DEFPOINTS
  6
BYBLOCK
 62
     0
100
AcDbPoint
 10
112.988841
 20
23.87546
 30
0.0
  0
ENDBLK
  5
28A9
100
AcDbEntity
  8
0
100
AcDbBlockEnd
  0
BLOCK
  5
28AD
100
AcDbEntity
  8
0
100
AcDbBlockBegin
  2
*D26
 70
     1
 10
0.0
 20
0.0
 30
0.0
  3
*D26
  1

  0
LINE
  5
28AE
100
AcDbEntity
  8
0
  6
BYBLOCK
 62
     0
100
AcDbLine
 10
137.988841
 20
74.65424
 30
0.0
 11
137.988841
 21
79.049767
 31
0.0
  0
LINE
  5
28AF
100
AcDbEntity
  8
0
  6
BYBLOCK
 62
     0
100
AcDbLine
 10
140.988841
 20
74.891851
 30
0.0
 11
140.988841
 21
79.049767
 31
0.0
  0
LINE
  5
28B0
100
AcDbEntity
  8
0
  6
BYBLOCK
 62
     0
100
AcDbLine
 10
136.738841
 20
77.699767
 30
0.0
 11
135.488841
 21
77.699767
 31
0.0
  0
LINE
  5
28B1
100
AcDbEntity
  8
0
  6
BYBLOCK
 62
     0
100
AcDbLine
 10
142.238841
 20
77.699767
 30
0.0
 11
143.488841
 21
77.699767
 31
0.0
  0
SOLID
  5
28B2
100
AcDbEntity
  8
0
  6
BYBLOCK
 62
     0
100
AcDbTrace
 10
136.738841
 20
77.9081
 30
0.0
 11
136.738841
 21
77.491433
 31
0.0
 12
137.988841
 22
77.699767
 32
0.0
 13
137.988841
 23
77.699767
 33
0.0
  0
SOLID
  5
28B3
100
AcDbEntity
  8
0
  6
BYBLOCK
 62
     0
100
AcDbTrace
 10
142.238841
 20
77.9081
 30
0.0
 11
142.238841
 21
77.491433
 31
0.0
 12
140.988841
 22
77.699767
 32
0.0
 13
140.988841
 23
77.699767
 33
0.0
  0
MTEXT
  5
28B4
100
AcDbEntity
  8
0
  6
BYBLOCK
 62
     0
100
AcDbMText
 10
145.138841
 20
77.699767
 30
0.0
 40
1.35
 41
0.0
 71
     5
 72
     1
  1
\A1;3
  7
ROMAND
  0
POINT
  5
28B5
100
AcDbEntity
  8
DEFPOINTS
  6
BYBLOCK
 62
     0
100
AcDbPoint
 10
137.988841
 20
74.40424
 30
0.0
  0
POINT
  5
28B6
100
AcDbEntity
  8
DEFPOINTS
  6
BYBLOCK
 62
     0
100
AcDbPoint
 10
140.988841
 20
74.641851
 30
0.0
  0
POINT
  5
28B7
100
AcDbEntity
  8
DEFPOINTS
  6
BYBLOCK
 62
     0
100
AcDbPoint
 10
140.988841
 20
77.699767
 30
0.0
  0
ENDBLK
  5
28B8
100
AcDbEntity
  8
0
100
AcDbBlockEnd
  0
ENDSEC
  0
SECTION
  2
ENTITIES
  0
LINE
  5
ECC
100
AcDbEntity
  8
OBJECT
100
AcDbLine
 10
88.238841
 20
104.76116
 30
0.0
 11
137.738841
 21
104.76116
 31
0.0
  0
LINE
  5
ECD
100
AcDbEntity
  8
OBJECT
100
AcDbLine
 10
137.988841
 20
105.01116
 30
0.0
 11
137.988841
 21
152.51116
 31
0.0
  0
LINE
  5
ECE
100
AcDbEntity
  8
OBJECT
100
AcDbLine
 10
87.988841
 20
105.01116
 30
0.0
 11
87.988841
 21
152.51116
 31
0.0
  0
LINE
  5
ECF
100
AcDbEntity
  8
OBJECT
100
AcDbLine
 10
85.988841
 20
152.76116
 30
0.0
 11
87.738841
 21
152.76116
 31
0.0
  0
LINE
  5
ED0
100
AcDbEntity
  8
OBJECT
100
AcDbLine
 10
87.988841
 20
185.877012
 30
0.0
 11
87.988841
 21
227.877012
 31
0.0
  0
LINE
  5
ED1
100
AcDbEntity
  8
OBJECT
100
AcDbLine
 10
137.988841
 20
185.877012
 30
0.0
 11
137.988841
 21
227.877012
 31
0.0
  0
LINE
  5
ED2
100
AcDbEntity
  8
OBJECT
100
AcDbLine
 10
87.988841
 20
227.877012
 30
0.0
 11
137.988841
 21
227.877012
 31
0.0
  0
LINE
  5
ED3
100
AcDbEntity
  8
OBJECT
100
AcDbLine
 10
87.988841
 20
185.877012
 30
0.0
 11
137.988841
 21
185.877012
 31
0.0
  0
LINE
  5
ED4
100
AcDbEntity
  8
OBJECT
100
AcDbLine
 10
140.988841
 20
152.26116
 30
0.0
 11
140.988841
 21
152.76116
 31
0.0
  0
LINE
  5
ED5
100
AcDbEntity
  8
OBJECT
100
AcDbLine
 10
138.488841
 20
104.76116
 30
0.0
 11
138.488841
 21
151.76116
 31
0.0
  0
LINE
  5
ED6
100
AcDbEntity
  8
OBJECT
100
AcDbLine
 10
138.988841
 20
152.26116
 30
0.0
 11
140.988841
 21
152.26116
 31
0.0
  0
ARC
  5
ED7
100
AcDbEntity
  8
OBJECT
100
AcDbCircle
 10
138.988841
 20
151.76116
 30
0.0
 40
0.5
100
AcDbArc
 50
90.0
 51
180.0
  0
LINE
  5
ED8
100
AcDbEntity
  8
OBJECT
100
AcDbLine
 10
86.988841
 20
152.26116
 30
0.0
 11
85.988841
 21
152.26116
 31
0.0
  0
ARC
  5
ED9
100
AcDbEntity
  8
OBJECT
100
AcDbCircle
 10
86.988841
 20
151.76116
 30
0.0
 40
0.5
100
AcDbArc
 50
0.0
 51
90.0
  0
LINE
  5
EDA
100
AcDbEntity
  8
OBJECT
100
AcDbLine
 10
85.988841
 20
152.26116
 30
0.0
 11
85.988841
 21
152.76116
 31
0.0
  0
LINE
  5
EDB
100
AcDbEntity
  8
OBJECT
100
AcDbLine
 10
87.488841
 20
104.76116
 30
0.0
 11
87.488841
 21
151.76116
 31
0.0
  0
LINE
  5
EDC
100
AcDbEntity
  8
OBJECT
100
AcDbLine
 10
87.988841
 20
104.26116
 30
0.0
 11
137.988841
 21
104.26116
 31
0.0
  0
ARC
  5
EDD
100
AcDbEntity
  8
OBJECT
100
AcDbCircle
 10
88.238841
 20
105.01116
 30
0.0
 40
0.25
100
AcDbArc
 50
180.0
 51
270.0
  0
ARC
  5
EDE
100
AcDbEntity
  8
OBJECT
100
AcDbCircle
 10
137.738841
 20
105.01116
 30
0.0
 40
0.25
100
AcDbArc
 50
270.0
 51
0.0
  0
ARC
  5
EDF
100
AcDbEntity
  8
OBJECT
100
AcDbCircle
 10
87.988841
 20
104.76116
 30
0.0
 40
0.5
100
AcDbArc
 50
180.0
 51
270.0
  0
ARC
  5
EE0
100
AcDbEntity
  8
OBJECT
100
AcDbCircle
 10
137.988841
 20
104.76116
 30
0.0
 40
0.5
100
AcDbArc
 50
270.0
 51
0.0
  0
LINE
  5
EE1
100
AcDbEntity
  8
OBJECT
100
AcDbLine
 10
138.238841
 20
152.76116
 30
0.0
 11
140.988841
 21
152.76116
 31
0.0
  0
ARC
  5
EE2
100
AcDbEntity
  8
OBJECT
100
AcDbCircle
 10
87.738841
 20
152.51116
 30
0.0
 40
0.25
100
AcDbArc
 50
0.0
 51
90.0
  0
ARC
  5
EE3
100
AcDbEntity
  8
OBJECT
100
AcDbCircle
 10
138.238841
 20
152.51116
 30
0.0
 40
0.25
100
AcDbArc
 50
90.0
 51
180.0
  0
LINE
  5
EE4
100
AcDbEntity
  8
OBJECT
100
AcDbLine
 10
87.738841
 20
152.76116
 30
0.0
 11
138.238841
 21
152.76116
 31
0.0
  0
LINE
  5
EE5
100
AcDbEntity
  8
CENTER
100
AcDbLine
 10
112.988841
 20
180.236021
 30
0.0
 11
112.988841
 21
233.518003
 31
0.0
  0
LINE
  5
EE6
100
AcDbEntity
  8
CENTER
100
AcDbLine
 10
146.372496
 20
206.877012
 30
0.0
 11
79.605187
 21
206.877012
 31
0.0
  0
LINE
  5
EF3
100
AcDbEntity
  8
CENTER
100
AcDbLine
 10
112.988841
 20
103.031102
 30
0.0
 11
112.988841
 21
156.003695
 31
0.0
  0
LINE
  5
F19
100
AcDbEntity
  8
OBJECT
 62
     2
100
AcDbLine
 10
86.238841
 20
229.127012
 30
0.0
 11
86.238841
 21
184.627012
 31
0.0
  0
LINE
  5
F1A
100
AcDbEntity
  8
OBJECT
 62
     2
100
AcDbLine
 10
86.238841
 20
184.627012
 30
0.0
 11
140.988841
 21
184.627012
 31
0.0
  0
LINE
  5
F1B
100
AcDbEntity
  8
OBJECT
 62
     2
100
AcDbLine
 10
140.988841
 20
184.627012
 30
0.0
 11
140.988841
 21
229.127012
 31
0.0
  0
LINE
  5
F1C
100
AcDbEntity
  8
OBJECT
 62
     2
100
AcDbLine
 10
140.988841
 20
229.127012
 30
0.0
 11
86.238841
 21
229.127012
 31
0.0
  0
LINE
  5
F1D
100
AcDbEntity
  8
OBJECT
 62
     2
100
AcDbLine
 10
140.988841
 20
30.141851
 30
0.0
 11
140.988841
 21
74.641851
 31
0.0
  0
LINE
  5
F1E
100
AcDbEntity
  8
OBJECT
 62
     2
100
AcDbLine
 10
86.238841
 20
30.141851
 30
0.0
 11
140.988841
 21
30.141851
 31
0.0
  0
LINE
  5
F1F
100
AcDbEntity
  8
OBJECT
 62
     2
100
AcDbLine
 10
86.238841
 20
74.641851
 30
0.0
 11
86.238841
 21
30.141851
 31
0.0
  0
LINE
  5
F20
100
AcDbEntity
  8
OBJECT
 62
     2
100
AcDbLine
 10
140.988841
 20
74.641851
 30
0.0
 11
86.238841
 21
74.641851
 31
0.0
  0
LINE
  5
F21
100
AcDbEntity
  8
CENTER
100
AcDbLine
 10
112.988841
 20
27.65521
 30
0.0
 11
112.988841
 21
81.275505
 31
0.0
  0
LINE
  5
F22
100
AcDbEntity
  8
CENTER
100
AcDbLine
 10
146.872496
 20
52.391851
 30
0.0
 11
80.105187
 21
52.391851
 31
0.0
  0
LINE
  5
F23
100
AcDbEntity
  8
OBJECT
 62
     2
100
AcDbLine
 10
134.988841
 20
30.141851
 30
0.0
 11
134.988841
 21
34.141851
 31
0.0
  0
CIRCLE
  5
F2C
100
AcDbEntity
  8
OBJECT
100
AcDbCircle
 10
88.488841
 20
52.391851
 30
0.0
 40
0.5
  0
LINE
  5
F2D
100
AcDbEntity
  8
DIM
 62
     2
100
AcDbLine
 39
20.0
 10
136.363841
 20
66.641851
 30
0.0
 11
136.363841
 21
70.641851
 31
0.0
  0
LINE
  5
F2E
100
AcDbEntity
  8
DIM
 62
     2
100
AcDbLine
 39
20.0
 10
134.488841
 20
70.641851
 30
0.0
 11
134.238841
 21
70.641851
 31
0.0
  0
LINE
  5
F2F
100
AcDbEntity
  8
DIM
 62
     2
100
AcDbLine
 39
20.0
 10
134.488841
 20
66.641851
 30
0.0
 11
134.238841
 21
66.641851
 31
0.0
  0
LINE
  5
F30
100
AcDbEntity
  8
DIM
 62
     2
100
AcDbLine
 39
20.0
 10
134.238841
 20
70.641851
 30
0.0
 11
134.238841
 21
66.641851
 31
0.0
  0
LINE
  5
F31
100
AcDbEntity
  8
DIM
 62
     2
100
AcDbLine
 39
20.0
 10
134.488841
 20
70.641851
 30
0.0
 11
134.488841
 21
66.641851
 31
0.0
  0
LINE
  5
F32
100
AcDbEntity
  8
DIM
 62
     2
100
AcDbLine
 39
20.0
 10
132.363841
 20
66.641851
 30
0.0
 11
132.363841
 21
70.641851
 31
0.0
  0
LINE
  5
F33
100
AcDbEntity
  8
OBJECT
100
AcDbLine
 10
134.488841
 20
70.641851
 30
0.0
 11
136.363841
 21
70.641851
 31
0.0
  0
LINE
  5
F34
100
AcDbEntity
  8
OBJECT
100
AcDbLine
 10
134.488841
 20
66.641851
 30
0.0
 11
136.363841
 21
66.641851
 31
0.0
  0
LINE
  5
F35
100
AcDbEntity
  8
OBJECT
100
AcDbLine
 10
132.363841
 20
70.641851
 30
0.0
 11
134.238841
 21
70.641851
 31
0.0
  0
LINE
  5
F36
100
AcDbEntity
  8
OBJECT
100
AcDbLine
 10
132.363841
 20
66.641851
 30
0.0
 11
134.238841
 21
66.641851
 31
0.0
  0
LINE
  5
F37
100
AcDbEntity
  8
15
 62
     2
100
AcDbLine
 10
134.488841
 20
67.514647
 30
0.0
 11
134.238841
 21
67.514647
 31
0.0
  0
LINE
  5
F38
100
AcDbEntity
  8
15
 62
     2
100
AcDbLine
 10
134.488841
 20
67.452147
 30
0.0
 11
134.238841
 21
67.452147
 31
0.0
  0
LINE
  5
F39
100
AcDbEntity
  8
15
 62
     2
100
AcDbLine
 10
134.488841
 20
68.26614
 30
0.0
 11
134.238841
 21
68.26614
 31
0.0
  0
LINE
  5
F3A
100
AcDbEntity
  8
15
 62
     2
100
AcDbLine
 10
134.488841
 20
68.32864
 30
0.0
 11
134.238841
 21
68.32864
 31
0.0
  0
LINE
  5
F3B
100
AcDbEntity
  8
15
 62
     2
100
AcDbLine
 10
134.488841
 20
69.831555
 30
0.0
 11
134.238841
 21
69.831555
 31
0.0
  0
LINE
  5
F3C
100
AcDbEntity
  8
15
 62
     2
100
AcDbLine
 10
134.488841
 20
69.769055
 30
0.0
 11
134.238841
 21
69.769055
 31
0.0
  0
LINE
  5
F3D
100
AcDbEntity
  8
15
 62
     2
100
AcDbLine
 10
134.488841
 20
68.95364
 30
0.0
 11
134.238841
 21
68.95364
 31
0.0
  0
LINE
  5
F3E
100
AcDbEntity
  8
15
 62
     2
100
AcDbLine
 10
134.488841
 20
69.01614
 30
0.0
 11
134.238841
 21
69.01614
 31
0.0
  0
LINE
  5
F3F
100
AcDbEntity
  8
DIM
 62
     2
100
AcDbLine
 39
20.0
 10
136.363841
 20
38.141851
 30
0.0
 11
136.363841
 21
34.141851
 31
0.0
  0
LINE
  5
F40
100
AcDbEntity
  8
DIM
 62
     2
100
AcDbLine
 39
20.0
 10
134.488841
 20
34.141851
 30
0.0
 11
134.238841
 21
34.141851
 31
0.0
  0
LINE
  5
F41
100
AcDbEntity
  8
DIM
 62
     2
100
AcDbLine
 39
20.0
 10
134.488841
 20
38.141851
 30
0.0
 11
134.238841
 21
38.141851
 31
0.0
  0
LINE
  5
F42
100
AcDbEntity
  8
DIM
 62
     2
100
AcDbLine
 39
20.0
 10
134.238841
 20
34.141851
 30
0.0
 11
134.238841
 21
38.141851
 31
0.0
  0
LINE
  5
F43
100
AcDbEntity
  8
DIM
 62
     2
100
AcDbLine
 39
20.0
 10
134.488841
 20
34.141851
 30
0.0
 11
134.488841
 21
38.141851
 31
0.0
  0
LINE
  5
F44
100
AcDbEntity
  8
DIM
 62
     2
100
AcDbLine
 39
20.0
 10
132.363841
 20
38.141851
 30
0.0
 11
132.363841
 21
34.141851
 31
0.0
  0
LINE
  5
F45
100
AcDbEntity
  8
15
 62
     2
100
AcDbLine
 10
134.488841
 20
34.952147
 30
0.0
 11
134.238841
 21
34.952147
 31
0.0
  0
LINE
  5
F46
100
AcDbEntity
  8
15
 62
     2
100
AcDbLine
 10
134.488841
 20
35.014647
 30
0.0
 11
134.238841
 21
35.014647
 31
0.0
  0
LINE
  5
F47
100
AcDbEntity
  8
15
 62
     2
100
AcDbLine
 10
134.488841
 20
37.269055
 30
0.0
 11
134.238841
 21
37.269055
 31
0.0
  0
LINE
  5
F48
100
AcDbEntity
  8
15
 62
     2
100
AcDbLine
 10
134.488841
 20
37.331555
 30
0.0
 11
134.238841
 21
37.331555
 31
0.0
  0
LINE
  5
F49
100
AcDbEntity
  8
15
 62
     2
100
AcDbLine
 10
134.488841
 20
36.517562
 30
0.0
 11
134.238841
 21
36.517562
 31
0.0
  0
LINE
  5
F4A
100
AcDbEntity
  8
15
 62
     2
100
AcDbLine
 10
134.488841
 20
36.455062
 30
0.0
 11
134.238841
 21
36.455062
 31
0.0
  0
LINE
  5
F4B
100
AcDbEntity
  8
15
 62
     2
100
AcDbLine
 10
134.488841
 20
35.830062
 30
0.0
 11
134.238841
 21
35.830062
 31
0.0
  0
LINE
  5
F4C
100
AcDbEntity
  8
15
 62
     2
100
AcDbLine
 10
134.488841
 20
35.767562
 30
0.0
 11
134.238841
 21
35.767562
 31
0.0
  0
LINE
  5
F4D
100
AcDbEntity
  8
OBJECT
100
AcDbLine
 10
132.363841
 20
38.141851
 30
0.0
 11
134.238841
 21
38.141851
 31
0.0
  0
LINE
  5
F4E
100
AcDbEntity
  8
OBJECT
100
AcDbLine
 10
132.363841
 20
34.141851
 30
0.0
 11
134.238841
 21
34.141851
 31
0.0
  0
LINE
  5
F4F
100
AcDbEntity
  8
OBJECT
100
AcDbLine
 10
134.488841
 20
38.141851
 30
0.0
 11
136.363841
 21
38.141851
 31
0.0
  0
LINE
  5
F50
100
AcDbEntity
  8
OBJECT
100
AcDbLine
 10
134.488841
 20
34.141851
 30
0.0
 11
136.363841
 21
34.141851
 31
0.0
  0
LINE
  5
F51
100
AcDbEntity
  8
OBJECT
 62
     2
100
AcDbLine
 10
134.988841
 20
38.141851
 30
0.0
 11
134.988841
 21
66.641851
 31
0.0
  0
LINE
  5
F52
100
AcDbEntity
  8
OBJECT
 62
     2
100
AcDbLine
 10
134.988841
 20
70.641851
 30
0.0
 11
134.988841
 21
74.641851
 31
0.0
  0
TEXT
  5
14A2
100
AcDbEntity
  8
DIM
100
AcDbText
 10
93.600793
 20
78.535049
 30
0.0
 40
1.35
  1
7/8" Hole
  7
ROMAND
 11
93.600793
 21
79.210049
 31
0.0
100
AcDbText
 73
     2
  0
LINE
  5
14A3
100
AcDbEntity
  8
DIM
100
AcDbLine
 10
91.150793
 20
79.210049
 30
0.0
 11
92.400793
 21
79.210049
 31
0.0
  0
TEXT
  5
14A6
100
AcDbEntity
  8
DIM
100
AcDbText
 10
108.167071
 20
84.864727
 30
0.0
 40
1.35
  1
3" x 3" Stainless Steel Hinges
  7
ROMAND
 11
108.167071
 21
85.539727
 31
0.0
100
AcDbText
 73
     2
  0
LINE
  5
14A7
100
AcDbEntity
  8
DIM
100
AcDbLine
 10
105.717071
 20
85.539727
 30
0.0
 11
106.967071
 21
85.539727
 31
0.0
  0
SOLID
  5
14A8
100
AcDbEntity
  8
DIM
100
AcDbTrace
 10
131.534658
 20
69.789998
 30
0.0
 11
131.268675
 21
69.469273
 31
0.0
 12
132.363841
 22
68.831688
 32
0.0
 13
132.363841
 23
68.831688
 33
0.0
  0
LINE
  5
14A9
100
AcDbEntity
  8
DIM
100
AcDbLine
 10
131.401666
 20
69.629635
 30
0.0
 11
105.717071
 21
85.539727
 31
0.0
  0
LWPOLYLINE
  5
1C52
100
AcDbEntity
  8
BORDER
 62
     5
100
AcDbPolyline
 90
        2
 70
     0
 43
0.530598
 10
210.293283
 20
242.405495
 10
22.13243
 20
242.405495
  0
LINE
  5
1C53
100
AcDbEntity
  8
BORDER
 62
     5
100
AcDbLine
 10
210.293283
 20
242.405495
 30
0.0
 11
22.13243
 21
242.405495
 31
0.0
  0
TEXT
  5
1C54
100
AcDbEntity
  8
BORDER
 62
     6
100
AcDbText
 10
118.961753
 20
-4.306874
 30
0.0
 40
1.525469
  1
04/14/04
  7
ROMAND
100
AcDbText
  0
LINE
  5
1C55
100
AcDbEntity
  8
BORDER
100
AcDbLine
 10
105.548868
 20
0.680406
 30
0.0
 11
135.478965
 21
0.680406
 31
0.0
  0
LINE
  5
1C56
100
AcDbEntity
  8
BORDER
100
AcDbLine
 10
105.548868
 20
-5.372781
 30
0.0
 11
135.478965
 21
-5.372781
 31
0.0
  0
LWPOLYLINE
  5
1C57
100
AcDbEntity
  8
BORDER
 62
     5
100
AcDbPolyline
 90
        2
 70
     0
 43
1.326495
 10
207.109695
 20
-8.025771
 10
25.316018
 20
-8.025771
  0
TEXT
  5
1C58
100
AcDbEntity
  8
BORDER
 62
     6
100
AcDbText
 10
125.569392
 20
3.31397
 30
0.0
 40
0.995749
  1
in this print by any other source than TOPP INDUSTRIES, INC.
 41
0.839168
  7
ROMANS
 72
     5
 11
166.593406
 21
3.31397
 31
0.0
100
AcDbText
  0
TEXT
  5
1C59
100
AcDbEntity
  8
BORDER
 62
     6
100
AcDbText
 10
125.569392
 20
4.926136
 30
0.0
 40
0.995749
  1
and will not be used to manufacture or procure the manufacture of the items shown
 41
0.600404
  7
ROMANS
 72
     5
 11
166.593406
 21
4.926136
 31
0.0
100
AcDbText
  0
TEXT
  5
1C5A
100
AcDbEntity
  8
BORDER
 62
     6
100
AcDbText
 10
125.569392
 20
6.538301
 30
0.0
 40
0.995749
  1
be used as a record or to identify or inspect parts or for other information purposes
 41
0.596266
  7
ROMANS
 72
     5
 11
166.593406
 21
6.538301
 31
0.0
100
AcDbText
  0
TEXT
  5
1C5B
100
AcDbEntity
  8
BORDER
 62
     6
100
AcDbText
 10
125.569392
 20
8.150467
 30
0.0
 40
0.995749
  1
restriction includes, but is not limited to the condition that this print will not only
 41
0.626489
  7
ROMANS
 72
     5
 11
166.593406
 21
8.150467
 31
0.0
100
AcDbText
  0
TEXT
  5
1C5C
100
AcDbEntity
  8
BORDER
 62
     6
100
AcDbText
 10
125.569392
 20
9.762632
 30
0.0
 40
0.995749
  1
by TOPP INDUSTRIES, INC. It is furnished on a strictly confidential basis.  This
 41
0.659437
  7
ROMANS
 72
     5
 11
166.593406
 21
9.762632
 31
0.0
100
AcDbText
  0
TEXT
  5
1C5D
100
AcDbEntity
  8
BORDER
 62
     6
100
AcDbText
 10
125.569392
 20
11.374798
 30
0.0
 40
0.995749
  1
This print is and contains confidential proprietary information owned exclusively
 41
0.656934
  7
ROMANS
 72
     5
 11
166.593406
 21
11.374798
 31
0.0
100
AcDbText
  0
LINE
  5
1C5E
100
AcDbEntity
  8
BORDER
100
AcDbLine
 10
105.548868
 20
2.586189
 30
0.0
 11
167.314845
 21
2.586189
 31
0.0
  0
LWPOLYLINE
  5
1C5F
100
AcDbEntity
  8
BORDER
 62
     5
100
AcDbPolyline
 90
        2
 70
     0
 43
1.326495
 10
67.763859
 20
15.85114
 10
164.661855
 20
15.85114
  0
LINE
  5
1C60
100
AcDbEntity
  8
BORDER
100
AcDbLine
 10
105.548868
 20
13.19815
 30
0.0
 11
164.661855
 21
13.19815
 31
0.0
  0
LWPOLYLINE
  5
1C61
100
AcDbEntity
  8
BORDER
 62
     5
100
AcDbPolyline
 90
        6
 70
     0
 43
0.945389
 10
20.010038
 20
16.863381
 10
20.010038
 20
240.283103
 42
-0.414214
 10
22.13243
 20
242.405495
 10
210.293283
 20
242.405495
 42
-0.414214
 10
212.415675
 20
240.283103
 10
212.415675
 20
16.863381
  0
LINE
  5
1C62
100
AcDbEntity
  8
LIMITS
 62
     7
100
AcDbLine
 10
15.765254
 20
-13.331751
 30
0.0
 11
216.660459
 21
-13.331751
 31
0.0
  0
LINE
  5
1C63
100
AcDbEntity
  8
LIMITS
 62
     7
100
AcDbLine
 10
216.660459
 20
246.650279
 30
0.0
 11
15.765254
 21
246.650279
 31
0.0
  0
LWPOLYLINE
  5
1C6F
100
AcDbEntity
  8
BORDER
 62
     5
100
AcDbPolyline
 90
        2
 70
     0
 43
0.530598
 10
20.010038
 20
16.863381
 10
20.010038
 20
240.283103
  0
LINE
  5
1C70
100
AcDbEntity
  8
LIMITS
 62
     7
100
AcDbLine
 10
15.765254
 20
246.650279
 30
0.0
 11
15.765254
 21
-13.331751
 31
0.0
  0
LWPOLYLINE
  5
1C73
100
AcDbEntity
  8
BORDER
 62
     5
100
AcDbPolyline
 90
        2
 70
     0
 43
1.326495
 10
54.498909
 20
15.85114
 42
-0.414214
 10
59.804889
 20
10.54516
 42
0.560527
  0
ARC
  5
1C74
100
AcDbEntity
  8
BORDER
100
AcDbCircle
 10
25.316018
 20
10.54516
 30
0.0
 40
2.65299
100
AcDbArc
 50
90.0
 51
180.0
  0
ARC
  5
1C75
100
AcDbEntity
  8
BORDER
100
AcDbCircle
 10
25.316018
 20
-2.719791
 30
0.0
 40
2.65299
100
AcDbArc
 50
180.0
 51
270.0
  0
LWPOLYLINE
  5
1C76
100
AcDbEntity
  8
BORDER
 62
     5
100
AcDbPolyline
 90
        2
 70
     0
 43
1.326495
 10
25.316018
 20
-8.025771
 42
-0.414214
 10
20.010038
 20
-2.719791
 42
0.560527
  0
LWPOLYLINE
  5
1C77
100
AcDbEntity
  8
BORDER
 62
     5
100
AcDbPolyline
 90
        2
 70
     0
 43
1.326495
 10
25.316018
 20
15.85114
 42
0.414214
 10
20.010038
 20
10.54516
 42
-0.560527
  0
LINE
  5
1C78
100
AcDbEntity
  8
BORDER
100
AcDbLine
 10
22.663028
 20
-2.719791
 30
0.0
 11
22.663028
 21
10.54516
 31
0.0
  0
LWPOLYLINE
  5
1C79
100
AcDbEntity
  8
BORDER
 62
     5
100
AcDbPolyline
 90
        2
 70
     0
 43
1.326495
 10
20.010038
 20
10.54516
 10
20.010038
 20
-2.719791
  0
LINE
  5
1C7A
100
AcDbEntity
  8
BORDER
100
AcDbLine
 10
57.151899
 20
-5.372781
 30
0.0
 11
57.151899
 21
10.54516
 31
0.0
  0
LINE
  5
1C7B
100
AcDbEntity
  8
BORDER
100
AcDbLine
 10
25.316018
 20
-5.372781
 30
0.0
 11
57.151899
 21
-5.372781
 31
0.0
  0
LINE
  5
1C7C
100
AcDbEntity
  8
BORDER
100
AcDbLine
 10
41.281582
 20
7.770749
 30
0.0
 11
40.189804
 21
9.396846
 31
0.0
  0
SPLINE
  5
1C7D
100
AcDbEntity
  8
BORDER
100
AcDbSpline
210
0.0
220
0.0
230
1.0
 70
    11
 71
     3
 72
    24
 73
    20
 74
     0
 42
0.0000001
 43
0.0000001
 40
0.0
 40
0.0
 40
0.0
 40
0.0
 40
0.474866629778075
 40
0.474866629778075
 40
1.277791044886493
 40
1.277791044886493
 40
2.080715459994911
 40
2.080715459994911
 40
2.883639875103329
 40
2.883639875103329
 40
3.686564290211747
 40
3.686564290211747
 40
4.489488705320165
 40
4.489488705320165
 40
5.292413120428583
 40
5.292413120428583
 40
6.095337535537001
 40
6.095337535537001
 40
6.283185307179586
 40
6.283185307179586
 40
6.283185307179586
 40
6.283185307179586
 10
40.72308152320784
 20
-0.416796500334236
 30
0.0
 10
40.54623219590625
 20
-0.416796500334236
 30
0.0
 10
40.36953183738584
 20
-0.4596942746149839
 30
0.0
 10
39.94633424958644
 20
-0.6779511878177793
 30
0.0
 10
39.73987182943418
 20
-0.9266435408864754
 30
0.0
 10
39.56717681965075
 20
-1.500885755139035
 30
0.0
 10
39.60209232761199
 20
-1.822588286507393
 30
0.0
 10
39.89394786542325
 20
-2.346109451568535
 30
0.0
 10
40.14894302376256
 20
-2.544412242812738
 30
0.0
 10
40.72719514434234
 20
-2.697456393287627
 30
0.0
 10
41.0465566111322
 20
-2.651158636067936
 30
0.0
 10
41.55793831050614
 20
-2.340172479587451
 30
0.0
 10
41.74652461874499
 20
-2.077588731380132
 30
0.0
 10
41.87869708750779
 20
-1.492626888058127
 30
0.0
 10
41.82140500897328
 20
-1.174165878119723
 30
0.0
 10
41.49370573866942
 20
-0.6724314418036901
 30
0.0
 10
41.22548435383756
 20
-0.4925307732632938
 30
0.0
 10
40.86299620283749
 20
-0.4234074022568813
 30
0.0
 10
40.79303959136174
 20
-0.416796500334236
 30
0.0
 10
40.72308152320784
 20
-0.416796500334236
 30
0.0
  0
HATCH
  5
1C7E
100
AcDbEntity
  8
BORDER
100
AcDbHatch
 10
0.0
 20
0.0
 30
0.0
210
0.0
220
0.0
230
1.0
  2
ANSI37
 70
     0
 71
     1
 91
        2
 92
        5
 93
        1
 72
     3
 10
40.601859
 20
3.518378
 11
0.0
 21
2.963372
 40
0.93822
 50
0.0
 51
360.0
 73
     1
 97
        1
330
1C7F
 92
       20
 93
        1
 72
     3
 10
40.601859
 20
3.535263
 11
0.0
 21
2.659437
 40
0.683214
 50
0.0
 51
360.0
 73
     1
 97
        1
330
1C80
 75
     0
 76
     1
 52
0.0
 41
0.041104
 77
     0
 78
     2
 53
45.0
 43
18.408172
 44
-147.770965
 45
-0.0036331252503713
 46
0.0036331252503713
 79
     0
 53
135.0
 43
18.408172
 44
-147.770965
 45
-0.0036331252503713
 46
-0.0036331252503713
 79
     0
 47
0.027301
 98
        2
 10
38.602203
 20
4.724522
 10
38.602203
 20
4.724522
  0
ELLIPSE
  5
1C7F
102
{ACAD_REACTORS
330
1C7E
102
}
100
AcDbEntity
  8
BORDER
100
AcDbEllipse
 10
40.601859
 20
3.518378
 30
0.0
 11
0.00000000000002
 21
2.96337236117516
 31
0.0
210
0.0
220
0.0
230
1.0
 40
0.93822
 41
0.0
 42
6.283185307179586
  0
ELLIPSE
  5
1C80
102
{ACAD_REACTORS
330
1C7E
102
}
100
AcDbEntity
  8
BORDER
100
AcDbEllipse
 10
40.601859
 20
3.535263
 30
0.0
 11
0.00000000000002
 21
2.659436841957118
 31
0.0
210
0.0
220
0.0
230
1.0
 40
0.683214
 41
0.0
 42
6.283185307179586
  0
LINE
  5
1C81
100
AcDbEntity
  8
BORDER
100
AcDbLine
 10
26.648107
 20
0.255575
 30
0.0
 11
53.315561
 21
0.255575
 31
0.0
  0
LINE
  5
1C82
100
AcDbEntity
  8
BORDER
100
AcDbLine
 10
26.648107
 20
0.255575
 30
0.0
 11
53.315561
 21
0.255575
 31
0.0
  0
LWPOLYLINE
  5
1C83
100
AcDbEntity
  8
BORDER
 62
     5
100
AcDbPolyline
 90
        2
 70
     0
 43
1.326495
 10
25.316018
 20
15.85114
 10
54.498909
 20
15.85114
  0
LINE
  5
1C84
100
AcDbEntity
  8
BORDER
100
AcDbLine
 10
25.316018
 20
13.19815
 30
0.0
 11
54.498909
 21
13.19815
 31
0.0
  0
LINE
  5
1C85
100
AcDbEntity
  8
BORDER
100
AcDbLine
 10
39.092395
 20
7.03699
 30
0.0
 11
52.688105
 21
7.03699
 31
0.0
  0
LINE
  5
1C86
102
{ACAD_REACTORS
330
1C8B
102
}
100
AcDbEntity
  8
BORDER
100
AcDbLine
 10
31.020165
 20
9.71222
 30
0.0
 11
32.211959
 21
9.71222
 31
0.0
  0
ARC
  5
1C87
102
{ACAD_REACTORS
330
1C8B
102
}
100
AcDbEntity
  8
BORDER
100
AcDbCircle
 10
30.857931
 20
2.260159
 30
0.0
 40
1.354029
100
AcDbArc
 50
270.0
 51
0.0
  0
LINE
  5
1C88
102
{ACAD_REACTORS
330
1C8B
102
}
100
AcDbEntity
  8
BORDER
100
AcDbLine
 10
30.421871
 20
0.623697
 30
0.0
 11
36.34217
 21
0.623697
 31
0.0
  0
ARC
  5
1C89
100
AcDbEntity
  8
BORDER
100
AcDbCircle
 10
32.031203
 20
-1.520252
 30
0.0
 40
1.074138
100
AcDbArc
 50
44.321228
 51
180.91508
  0
ARC
  5
1C8A
100
AcDbEntity
  8
BORDER
100
AcDbCircle
 10
31.953639
 20
-1.62918
 30
0.0
 40
1.000654
100
AcDbArc
 50
174.737783
 51
327.723969
  0
HATCH
  5
1C8B
100
AcDbEntity
  8
BORDER
100
AcDbHatch
 10
0.0
 20
0.0
 30
0.0
210
0.0
220
0.0
230
1.0
  2
ANSI37
 70
     0
 71
     1
 91
        1
 92
        7
 72
     1
 73
     1
 93
       18
 10
32.2119594248914
 20
2.260159017810678
 42
-0.4142135623730706
 10
30.85793052140087
 20
0.9061301143202626
 42
0.0
 10
30.42187056500057
 20
0.9061301143202626
 42
0.0
 10
30.42187056500057
 20
0.6236972121564861
 42
0.0
 10
36.34217021064506
 20
0.6236972121564861
 42
0.0
 10
36.34217021064505
 20
0.9061301143202626
 42
0.0
 10
35.90611025424403
 20
0.9061301143202626
 42
-0.4142135623730582
 10
34.55208135075366
 20
2.260159017810792
 42
0.0
 10
34.55208135075366
 20
9.712219919104072
 42
0.0
 10
35.74387531399377
 20
9.712219919104057
 42
-0.4138200196737616
 10
38.44630763723624
 20
7.013416756067968
 42
0.0
 10
38.72895535716689
 20
7.013416756067982
 42
0.0
 10
38.7289553571675
 20
10.4026115820281
 42
0.0
 10
28.0350854184781
 20
10.4026115820281
 42
0.0
 10
28.0350854184781
 20
7.013416756067954
 42
0.0
 10
28.31773313840938
 20
7.013416756067968
 42
-0.4138200196737664
 10
31.02016546165191
 20
9.712219919104057
 42
0.0
 10
32.21195942489143
 20
9.712219919104072
 42
0.0
 97
       18
330
1CA8
330
1CA7
330
1CAA
330
1CA9
330
1C8C
330
1C95
330
1C97
330
1C96
330
1C86
330
1C98
330
1C87
330
1C94
330
1C93
330
1C88
330
1CA6
330
1C9A
330
1C9F
330
1C99
 75
     0
 76
     1
 52
0.0
 41
0.041104
 77
     0
 78
     2
 53
45.0
 43
18.408172
 44
-147.770965
 45
-0.0036331252503713
 46
0.0036331252503713
 79
     0
 53
135.0
 43
18.408172
 44
-147.770965
 45
-0.0036331252503713
 46
-0.0036331252503713
 79
     0
 47
0.049862
 98
        1
 10
33.094838
 20
5.841625
  0
LINE
  5
1C8C
102
{ACAD_REACTORS
330
1C8B
102
}
100
AcDbEntity
  8
BORDER
100
AcDbLine
 10
28.035085
 20
10.402612
 30
0.0
 11
38.728955
 21
10.402612
 31
0.0
  0
LINE
  5
1C8D
100
AcDbEntity
  8
BORDER
100
AcDbLine
 10
30.445404
 20
-2.628421
 30
0.0
 11
28.773529
 21
-0.446391
 31
0.0
  0
LINE
  5
1C8E
100
AcDbEntity
  8
BORDER
100
AcDbLine
 10
28.773529
 20
-0.446391
 30
0.0
 11
28.773529
 21
-2.628421
 31
0.0
  0
LINE
  5
1C8F
100
AcDbEntity
  8
BORDER
100
AcDbLine
 10
27.371368
 20
-0.446391
 30
0.0
 11
28.264976
 21
-0.446391
 31
0.0
  0
LINE
  5
1C90
100
AcDbEntity
  8
BORDER
100
AcDbLine
 10
27.371368
 20
-2.628421
 30
0.0
 11
28.264976
 21
-2.628421
 31
0.0
  0
LINE
  5
1C91
100
AcDbEntity
  8
BORDER
100
AcDbLine
 10
27.818172
 20
-0.446391
 30
0.0
 11
27.818172
 21
-2.628421
 31
0.0
  0
LINE
  5
1C92
100
AcDbEntity
  8
BORDER
100
AcDbLine
 10
30.445404
 20
-0.446391
 30
0.0
 11
30.445404
 21
-2.628421
 31
0.0
  0
LINE
  5
1C93
102
{ACAD_REACTORS
330
1C8B
102
}
100
AcDbEntity
  8
BORDER
100
AcDbLine
 10
30.421871
 20
0.90613
 30
0.0
 11
30.421871
 21
0.623697
 31
0.0
  0
LINE
  5
1C94
102
{ACAD_REACTORS
330
1C8B
102
}
100
AcDbEntity
  8
BORDER
100
AcDbLine
 10
30.421871
 20
0.90613
 30
0.0
 11
30.857931
 21
0.90613
 31
0.0
  0
LINE
  5
1C95
102
{ACAD_REACTORS
330
1C8B
102
}
100
AcDbEntity
  8
BORDER
100
AcDbLine
 10
28.035085
 20
7.013417
 30
0.0
 11
28.035085
 21
10.402612
 31
0.0
  0
ARC
  5
1C96
102
{ACAD_REACTORS
330
1C8B
102
}
100
AcDbEntity
  8
BORDER
100
AcDbCircle
 10
31.020165
 20
7.009785
 30
0.0
 40
2.702435
100
AcDbArc
 50
90.0
 51
179.923004
  0
LINE
  5
1C97
102
{ACAD_REACTORS
330
1C8B
102
}
100
AcDbEntity
  8
BORDER
100
AcDbLine
 10
28.035085
 20
7.013417
 30
0.0
 11
28.317731
 21
7.013417
 31
0.0
  0
LINE
  5
1C98
102
{ACAD_REACTORS
330
1C8B
102
}
100
AcDbEntity
  8
BORDER
100
AcDbLine
 10
32.211959
 20
2.260159
 30
0.0
 11
32.211959
 21
9.71222
 31
0.0
  0
LINE
  5
1C99
102
{ACAD_REACTORS
330
1C8B
102
}
100
AcDbEntity
  8
BORDER
100
AcDbLine
 10
34.552081
 20
2.260159
 30
0.0
 11
34.552081
 21
9.71222
 31
0.0
  0
LINE
  5
1C9A
102
{ACAD_REACTORS
330
1C8B
102
}
100
AcDbEntity
  8
BORDER
100
AcDbLine
 10
36.34217
 20
0.90613
 30
0.0
 11
35.90611
 21
0.90613
 31
0.0
  0
LINE
  5
1C9B
100
AcDbEntity
  8
BORDER
100
AcDbLine
 10
36.617445
 20
-0.446391
 30
0.0
 11
35.863108
 21
-0.446391
 31
0.0
  0
LINE
  5
1C9C
100
AcDbEntity
  8
BORDER
100
AcDbLine
 10
35.863108
 20
-1.565222
 30
0.0
 11
36.617445
 21
-1.565222
 31
0.0
  0
SPLINE
  5
1C9D
100
AcDbEntity
  8
BORDER
100
AcDbSpline
210
0.0
220
0.0
230
1.0
 70
    11
 71
     3
 72
    24
 73
    20
 74
     0
 42
0.0000001
 43
0.0000001
 40
0.0
 40
0.0
 40
0.0
 40
0.0
 40
0.474866629778075
 40
0.474866629778075
 40
1.277791044886493
 40
1.277791044886493
 40
2.080715459994911
 40
2.080715459994911
 40
2.883639875103329
 40
2.883639875103329
 40
3.686564290211747
 40
3.686564290211747
 40
4.489488705320165
 40
4.489488705320165
 40
5.292413120428583
 40
5.292413120428583
 40
6.095337535537001
 40
6.095337535537001
 40
6.283185307179586
 40
6.283185307179586
 40
6.283185307179586
 40
6.283185307179586
 10
34.23055602071883
 20
-0.416796500334236
 30
0.0
 10
34.05370669341782
 20
-0.416796500334236
 30
0.0
 10
33.87700633489727
 20
-0.4596942746149839
 30
0.0
 10
33.45380874709795
 20
-0.6779511878177793
 30
0.0
 10
33.24734632694517
 20
-0.9266435408864754
 30
0.0
 10
33.07465131716163
 20
-1.500885755139035
 30
0.0
 10
33.10956682512289
 20
-1.822588286507393
 30
0.0
 10
33.40142236293467
 20
-2.346109451568535
 30
0.0
 10
33.656417521274
 20
-2.544412242812738
 30
0.0
 10
34.23466964185376
 20
-2.697456393287627
 30
0.0
 10
34.55403110864367
 20
-2.651158636067936
 30
0.0
 10
35.06541280801769
 20
-2.340172479587451
 30
0.0
 10
35.25399911625651
 20
-2.077588731380132
 30
0.0
 10
35.38617158501869
 20
-1.492626888058127
 30
0.0
 10
35.32887950648417
 20
-1.174165878119723
 30
0.0
 10
35.00118023618032
 20
-0.6724314418036901
 30
0.0
 10
34.73295885134911
 20
-0.4925307732632938
 30
0.0
 10
34.37047070034893
 20
-0.4234074022568813
 30
0.0
 10
34.30051408887265
 20
-0.416796500334236
 30
0.0
 10
34.23055602071883
 20
-0.416796500334236
 30
0.0
  0
LINE
  5
1C9E
100
AcDbEntity
  8
BORDER
100
AcDbLine
 10
35.863108
 20
-0.446391
 30
0.0
 11
35.863108
 21
-2.628421
 31
0.0
  0
ARC
  5
1C9F
102
{ACAD_REACTORS
330
1C8B
102
}
100
AcDbEntity
  8
BORDER
100
AcDbCircle
 10
35.90611
 20
2.260159
 30
0.0
 40
1.354029
100
AcDbArc
 50
180.0
 51
270.0
  0
LINE
  5
1CA0
100
AcDbEntity
  8
BORDER
100
AcDbLine
 10
38.734484
 20
-0.446391
 30
0.0
 11
38.168149
 21
-0.446391
 31
0.0
  0
LINE
  5
1CA1
100
AcDbEntity
  8
BORDER
100
AcDbLine
 10
38.168149
 20
-1.565222
 30
0.0
 11
38.734484
 21
-1.565222
 31
0.0
  0
LINE
  5
1CA2
100
AcDbEntity
  8
BORDER
100
AcDbLine
 10
38.168149
 20
-0.446391
 30
0.0
 11
38.168149
 21
-2.628421
 31
0.0
  0
ARC
  5
1CA3
100
AcDbEntity
  8
BORDER
100
AcDbCircle
 10
36.617445
 20
-1.005807
 30
0.0
 40
0.559415
100
AcDbArc
 50
270.0
 51
90.0
  0
LINE
  5
1CA4
100
AcDbEntity
  8
BORDER
100
AcDbLine
 10
36.460351
 20
-1.565222
 30
0.0
 11
37.326617
 21
-2.628421
 31
0.0
  0
ARC
  5
1CA5
100
AcDbEntity
  8
BORDER
100
AcDbCircle
 10
38.734484
 20
-1.005807
 30
0.0
 40
0.559415
100
AcDbArc
 50
270.0
 51
90.0
  0
LINE
  5
1CA6
102
{ACAD_REACTORS
330
1C8B
102
}
100
AcDbEntity
  8
BORDER
100
AcDbLine
 10
36.34217
 20
0.90613
 30
0.0
 11
36.34217
 21
0.623697
 31
0.0
  0
ARC
  5
1CA7
102
{ACAD_REACTORS
330
1C8B
102
}
100
AcDbEntity
  8
BORDER
100
AcDbCircle
 10
35.743875
 20
7.009785
 30
0.0
 40
2.702435
100
AcDbArc
 50
0.076996
 51
90.0
  0
LINE
  5
1CA8
102
{ACAD_REACTORS
330
1C8B
102
}
100
AcDbEntity
  8
BORDER
100
AcDbLine
 10
35.743875
 20
9.71222
 30
0.0
 11
34.552081
 21
9.71222
 31
0.0
  0
LINE
  5
1CA9
102
{ACAD_REACTORS
330
1C8B
102
}
100
AcDbEntity
  8
BORDER
100
AcDbLine
 10
38.728955
 20
7.013417
 30
0.0
 11
38.728955
 21
10.402612
 31
0.0
  0
LINE
  5
1CAA
102
{ACAD_REACTORS
330
1C8B
102
}
100
AcDbEntity
  8
BORDER
100
AcDbLine
 10
38.728955
 20
7.013417
 30
0.0
 11
38.44631
 21
7.013417
 31
0.0
  0
LINE
  5
1CAB
100
AcDbEntity
  8
BORDER
100
AcDbLine
 10
39.46923
 20
9.363546
 30
0.0
 11
39.714432
 21
9.363546
 31
0.0
  0
LINE
  5
1CAC
100
AcDbEntity
  8
BORDER
100
AcDbLine
 10
39.224029
 20
9.363546
 30
0.0
 11
39.46923
 21
9.363546
 31
0.0
  0
LINE
  5
1CAD
100
AcDbEntity
  8
BORDER
100
AcDbLine
 10
39.224029
 20
7.770749
 30
0.0
 11
39.714432
 21
7.770749
 31
0.0
  0
LINE
  5
1CAE
100
AcDbEntity
  8
BORDER
100
AcDbLine
 10
39.46923
 20
9.363546
 30
0.0
 11
39.46923
 21
7.770749
 31
0.0
  0
LINE
  5
1CAF
100
AcDbEntity
  8
BORDER
100
AcDbLine
 10
40.189804
 20
9.396846
 30
0.0
 11
40.189804
 21
7.770749
 31
0.0
  0
LINE
  5
1CB0
102
{ACAD_REACTORS
330
1CB5
102
}
100
AcDbEntity
  8
BORDER
100
AcDbLine
 10
48.622195
 20
6.351892
 30
0.0
 11
51.241113
 21
6.351892
 31
0.0
  0
LINE
  5
1CB1
102
{ACAD_REACTORS
330
1CB5
102
}
100
AcDbEntity
  8
BORDER
100
AcDbLine
 10
48.617992
 20
0.668669
 30
0.0
 11
51.043946
 21
0.668669
 31
0.0
  0
LINE
  5
1CB2
100
AcDbEntity
  8
BORDER
100
AcDbLine
 10
48.980958
 20
-0.446391
 30
0.0
 11
50.38874
 21
-0.446391
 31
0.0
  0
LINE
  5
1CB3
100
AcDbEntity
  8
BORDER
100
AcDbLine
 10
50.38874
 20
-2.628421
 30
0.0
 11
48.980958
 21
-2.628421
 31
0.0
  0
LINE
  5
1CB4
100
AcDbEntity
  8
BORDER
100
AcDbLine
 10
48.980958
 20
-1.537406
 30
0.0
 11
49.917148
 21
-1.537406
 31
0.0
  0
HATCH
  5
1CB5
100
AcDbEntity
  8
BORDER
100
AcDbHatch
 10
0.0
 20
0.0
 30
0.0
210
0.0
220
0.0
230
1.0
  2
ANSI37
 70
     0
 71
     1
 91
        2
 92
        7
 72
     1
 73
     1
 93
       16
 10
49.43557927885001
 20
1.37492266831731
 42
-0.4142135623729078
 10
48.87664874310684
 20
0.815992132574479
 42
0.0
 10
48.61799246660376
 20
0.815992132574479
 42
0.0
 10
48.61799246660376
 20
0.6686691541620462
 42
0.0
 10
51.04394619162885
 20
0.6686691541620462
 42
0.0
 10
51.04394619162888
 20
0.815992132574479
 42
0.0
 10
50.78528991512678
 20
0.815992132574479
 42
-0.4142135623735494
 10
50.22635937938273
 20
1.37492266831768
 42
0.0
 10
50.22635937938273
 20
3.333869915774641
 42
0.0609117558027862
 10
51.20478288291375
 20
3.213333543647507
 42
0.4291497434353761
 10
52.93377731414453
 20
4.766918112390584
 42
0.3916311771502569
 10
51.24111328095271
 20
6.35189169714053
 42
0.0
 10
48.62219510762244
 20
6.35189169714053
 42
0.0
 10
48.62219510762244
 20
6.195891375273674
 42
0.0
 10
48.87664874310707
 20
6.195891375273674
 42
-0.4142135623729683
 10
49.43557927885001
 20
5.636960839530473
 42
0.0
 97
       16
330
1CE1
330
1CB0
330
1CD9
330
1CDB
330
1CD8
330
1CB8
330
1CC5
330
1CC7
330
1CC6
330
1CB1
330
1CEB
330
1CEA
330
1CE8
330
1CEC
330
1CE9
330
1CE7
 92
       22
 72
     1
 73
     1
 93
        3
 10
50.22635937938273
 20
5.93210610126934
 42
-0.5287425889411491
 10
51.98215962758339
 20
4.699953274781108
 42
-0.5439228899280057
 10
50.22635937938273
 20
3.548157731821731
 42
0.0
 97
        3
330
1CE0
330
1CE6
330
1CDF
 75
     0
 76
     1
 52
0.0
 41
0.041104
 77
     0
 78
     2
 53
45.0
 43
18.408172
 44
-147.770965
 45
-0.0036331252503713
 46
0.0036331252503713
 79
     0
 53
135.0
 43
18.408172
 44
-147.770965
 45
-0.0036331252503713
 46
-0.0036331252503713
 79
     0
 47
0.027301
 98
        2
 10
49.765056
 20
4.432753
 10
49.765056
 20
4.432753
  0
HATCH
  5
1CB6
100
AcDbEntity
  8
BORDER
100
AcDbHatch
 10
0.0
 20
0.0
 30
0.0
210
0.0
220
0.0
230
1.0
  2
ANSI37
 70
     0
 71
     1
 91
        2
 92
        7
 72
     1
 73
     1
 93
       16
 10
44.66359448290697
 20
1.396452973666242
 42
-0.414213562373094
 10
44.10466394716405
 20
0.8375224379233259
 42
0.0
 10
43.84600767066088
 20
0.8375224379233259
 42
0.0
 10
43.84600767066091
 20
0.6901994595098131
 42
0.0
 10
46.27196139568641
 20
0.6901994595098131
 42
0.0
 10
46.27196139568641
 20
0.8375224379233259
 42
0.0
 10
46.01330511918321
 20
0.8375224379233259
 42
-0.4142135623731027
 10
45.45437458344034
 20
1.396452973666214
 42
0.0
 10
45.45437458344034
 20
3.355400221122522
 42
0.0609117558023428
 10
46.43279808696422
 20
3.234863848995473
 42
0.4291497434371213
 10
48.16179251820123
 20
4.788448417741534
 42
0.3951020987303215
 10
46.44860116247478
 20
6.373422002488297
 42
0.0
 10
43.8502103116795
 20
6.373422002488297
 42
0.0
 10
43.85021031167949
 20
6.217421680622521
 42
0.0
 10
44.10466394716405
 20
6.217421680622521
 42
-0.4142135623730951
 10
44.66359448290697
 20
5.658491144879604
 42
0.0
 97
        1
330
1CB9
 92
       22
 72
     1
 73
     1
 93
        3
 10
45.45437458344034
 20
5.953636406616823
 42
-0.5287425889466401
 10
47.2101748316407
 20
4.721483580106394
 42
-0.5439228899218148
 10
45.45437458344034
 20
3.569688037170294
 42
0.0
 97
        1
330
1CB7
 75
     0
 76
     1
 52
0.0
 41
0.041104
 77
     0
 78
     2
 53
45.0
 43
18.408172
 44
-147.770965
 45
-0.0036331252503713
 46
0.0036331252503713
 79
     0
 53
135.0
 43
18.408172
 44
-147.770965
 45
-0.0036331252503713
 46
-0.0036331252503713
 79
     0
 47
0.027301
 98
        2
 10
44.980976
 20
4.926516
 10
44.980976
 20
4.926516
  0
LWPOLYLINE
  5
1CB7
102
{ACAD_REACTORS
330
1CB6
102
}
100
AcDbEntity
  8
BORDER
100
AcDbPolyline
 90
        3
 70
     1
 43
0.0
 10
45.454375
 20
3.569688
 42
0.543923
 10
47.210175
 20
4.721484
 42
0.528743
 10
45.454375
 20
5.953636
  0
LINE
  5
1CB8
102
{ACAD_REACTORS
330
1CB5
102
}
100
AcDbEntity
  8
BORDER
100
AcDbLine
 10
49.435579
 20
1.374923
 30
0.0
 11
49.435579
 21
5.636961
 31
0.0
  0
LWPOLYLINE
  5
1CB9
102
{ACAD_REACTORS
330
1CB6
102
}
100
AcDbEntity
  8
BORDER
100
AcDbPolyline
 90
       17
 70
     0
 43
0.0
 10
46.432798
 20
3.234864
 42
-0.060912
 10
45.454375
 20
3.3554
 10
45.454375
 20
1.396453
 42
0.414214
 10
46.013305
 20
0.837522
 10
46.271961
 20
0.837522
 10
46.271961
 20
0.690199
 10
43.846008
 20
0.690199
 10
43.846008
 20
0.837522
 10
44.104664
 20
0.837522
 42
0.414214
 10
44.663594
 20
1.396453
 10
44.663594
 20
5.658491
 42
0.414214
 10
44.104664
 20
6.217422
 10
43.85021
 20
6.217422
 10
43.85021
 20
6.373422
 10
46.448601
 20
6.373422
 42
-0.395102
 10
48.161793
 20
4.788448
 42
-0.42915
 10
46.432798
 20
3.234864
  0
LINE
  5
1CBA
100
AcDbEntity
  8
BORDER
100
AcDbLine
 10
44.80951
 20
-1.8328
 30
0.0
 11
45.890371
 21
-1.8328
 31
0.0
  0
LINE
  5
1CBB
100
AcDbEntity
  8
BORDER
100
AcDbLine
 10
45.340525
 20
-0.446391
 30
0.0
 11
44.504775
 21
-2.628421
 31
0.0
  0
LINE
  5
1CBC
100
AcDbEntity
  8
BORDER
100
AcDbLine
 10
42.44238
 20
-1.565222
 30
0.0
 11
43.196717
 21
-1.565222
 31
0.0
  0
LINE
  5
1CBD
100
AcDbEntity
  8
BORDER
100
AcDbLine
 10
43.196717
 20
-0.446391
 30
0.0
 11
42.44238
 21
-0.446391
 31
0.0
  0
LINE
  5
1CBE
100
AcDbEntity
  8
BORDER
100
AcDbLine
 10
42.44238
 20
-0.446391
 30
0.0
 11
42.44238
 21
-2.628421
 31
0.0
  0
ARC
  5
1CBF
100
AcDbEntity
  8
BORDER
100
AcDbCircle
 10
43.196717
 20
-1.005807
 30
0.0
 40
0.559415
100
AcDbArc
 50
270.0
 51
90.0
  0
LINE
  5
1CC0
100
AcDbEntity
  8
BORDER
100
AcDbLine
 10
43.039623
 20
-1.565222
 30
0.0
 11
43.905888
 21
-2.628421
 31
0.0
  0
LINE
  5
1CC1
100
AcDbEntity
  8
BORDER
100
AcDbLine
 10
46.649673
 20
-0.446391
 30
0.0
 11
48.498624
 21
-0.446391
 31
0.0
  0
LINE
  5
1CC2
100
AcDbEntity
  8
BORDER
100
AcDbLine
 10
46.205913
 20
-2.628421
 30
0.0
 11
45.340525
 21
-0.446391
 31
0.0
  0
LINE
  5
1CC3
100
AcDbEntity
  8
BORDER
100
AcDbLine
 10
48.980958
 20
-2.628421
 30
0.0
 11
48.980958
 21
-0.446391
 31
0.0
  0
LINE
  5
1CC4
100
AcDbEntity
  8
BORDER
100
AcDbLine
 10
47.574148
 20
-0.446391
 30
0.0
 11
47.574148
 21
-2.628421
 31
0.0
  0
ARC
  5
1CC5
102
{ACAD_REACTORS
330
1CB5
102
}
100
AcDbEntity
  8
BORDER
100
AcDbCircle
 10
48.876649
 20
1.374923
 30
0.0
 40
0.558931
100
AcDbArc
 50
270.0
 51
360.0
  0
LINE
  5
1CC6
102
{ACAD_REACTORS
330
1CB5
102
}
100
AcDbEntity
  8
BORDER
100
AcDbLine
 10
48.617992
 20
0.815992
 30
0.0
 11
48.617992
 21
0.668669
 31
0.0
  0
LINE
  5
1CC7
102
{ACAD_REACTORS
330
1CB5
102
}
100
AcDbEntity
  8
BORDER
100
AcDbLine
 10
48.617992
 20
0.815992
 30
0.0
 11
48.876649
 21
0.815992
 31
0.0
  0
ARC
  5
1CC8
100
AcDbEntity
  8
BORDER
100
AcDbCircle
 10
42.297536
 20
8.567148
 30
0.0
 40
0.796398
100
AcDbArc
 50
270.0
 51
90.0
  0
LINE
  5
1CC9
100
AcDbEntity
  8
BORDER
100
AcDbLine
 10
42.297536
 20
9.363546
 30
0.0
 11
41.958485
 21
9.363546
 31
0.0
  0
LINE
  5
1CCA
100
AcDbEntity
  8
BORDER
100
AcDbLine
 10
41.958485
 20
7.770749
 30
0.0
 11
42.297536
 21
7.770749
 31
0.0
  0
LINE
  5
1CCB
100
AcDbEntity
  8
BORDER
100
AcDbLine
 10
41.281582
 20
9.363546
 30
0.0
 11
41.281582
 21
7.770749
 31
0.0
  0
LINE
  5
1CCC
100
AcDbEntity
  8
BORDER
100
AcDbLine
 10
41.958485
 20
9.363546
 30
0.0
 11
41.958485
 21
7.770749
 31
0.0
  0
LINE
  5
1CCD
100
AcDbEntity
  8
BORDER
100
AcDbLine
 10
44.731603
 20
9.363546
 30
0.0
 11
44.731603
 21
8.305721
 31
0.0
  0
LINE
  5
1CCE
100
AcDbEntity
  8
BORDER
100
AcDbLine
 10
43.66166
 20
8.305721
 30
0.0
 11
43.66166
 21
9.363546
 31
0.0
  0
ARC
  5
1CCF
100
AcDbEntity
  8
BORDER
100
AcDbCircle
 10
44.196631
 20
8.305721
 30
0.0
 40
0.534972
100
AcDbArc
 50
180.0
 51
0.0
  0
LINE
  5
1CD0
100
AcDbEntity
  8
BORDER
100
AcDbLine
 10
46.461436
 20
9.363546
 30
0.0
 11
47.770177
 21
9.363546
 31
0.0
  0
ARC
  5
1CD1
100
AcDbEntity
  8
BORDER
100
AcDbCircle
 10
45.980442
 20
8.161853
 30
0.0
 40
0.224922
100
AcDbArc
 50
331.630608
 51
60.315223
  0
ARC
  5
1CD2
100
AcDbEntity
  8
BORDER
100
AcDbCircle
 10
52.685953
 20
19.925126
 30
0.0
 40
13.315332
100
AcDbArc
 50
236.383068
 51
240.315223
  0
ARC
  5
1CD3
100
AcDbEntity
  8
BORDER
100
AcDbCircle
 10
45.72499
 20
8.275842
 30
0.0
 40
0.504298
100
AcDbArc
 50
200.502447
 51
334.026213
  0
ARC
  5
1CD4
100
AcDbEntity
  8
BORDER
100
AcDbCircle
 10
45.660871
 20
8.871258
 30
0.0
 40
0.494055
100
AcDbArc
 50
25.379638
 51
143.047804
  0
ARC
  5
1CD5
100
AcDbEntity
  8
BORDER
100
AcDbCircle
 10
45.438609
 20
9.023986
 30
0.0
 40
0.224922
100
AcDbArc
 50
140.101426
 51
236.383068
  0
LINE
  5
1CD6
100
AcDbEntity
  8
BORDER
100
AcDbLine
 10
47.115806
 20
9.363546
 30
0.0
 11
47.115806
 21
7.770749
 31
0.0
  0
ARC
  5
1CD7
100
AcDbEntity
  8
BORDER
100
AcDbCircle
 10
48.68763
 20
8.961509
 30
0.0
 40
0.402037
100
AcDbArc
 50
270.0
 51
90.0
  0
ARC
  5
1CD8
102
{ACAD_REACTORS
330
1CB5
102
}
100
AcDbEntity
  8
BORDER
100
AcDbCircle
 10
48.876649
 20
5.636961
 30
0.0
 40
0.558931
100
AcDbArc
 50
0.0
 51
90.0
  0
LINE
  5
1CD9
102
{ACAD_REACTORS
330
1CB5
102
}
100
AcDbEntity
  8
BORDER
100
AcDbLine
 10
48.622195
 20
6.351892
 30
0.0
 11
48.622195
 21
6.195891
 31
0.0
  0
LINE
  5
1CDA
100
AcDbEntity
  8
BORDER
100
AcDbLine
 10
48.576571
 20
8.559472
 30
0.0
 11
49.081735
 21
7.770749
 31
0.0
  0
LINE
  5
1CDB
102
{ACAD_REACTORS
330
1CB5
102
}
100
AcDbEntity
  8
BORDER
100
AcDbLine
 10
48.622195
 20
6.195891
 30
0.0
 11
48.876649
 21
6.195891
 31
0.0
  0
LINE
  5
1CDC
100
AcDbEntity
  8
BORDER
100
AcDbLine
 10
48.108266
 20
9.363546
 30
0.0
 11
48.108266
 21
7.770749
 31
0.0
  0
LINE
  5
1CDD
100
AcDbEntity
  8
BORDER
100
AcDbLine
 10
48.68763
 20
9.363546
 30
0.0
 11
48.108266
 21
9.363546
 31
0.0
  0
LINE
  5
1CDE
100
AcDbEntity
  8
BORDER
100
AcDbLine
 10
48.108266
 20
8.559472
 30
0.0
 11
48.68763
 21
8.559472
 31
0.0
  0
LINE
  5
1CDF
102
{ACAD_REACTORS
330
1CB5
102
}
100
AcDbEntity
  8
BORDER
100
AcDbLine
 10
50.226359
 20
5.932106
 30
0.0
 11
50.226359
 21
3.548158
 31
0.0
  0
ARC
  5
1CE0
102
{ACAD_REACTORS
330
1CB5
102
}
100
AcDbEntity
  8
BORDER
100
AcDbCircle
 10
50.684546
 20
4.717944
 30
0.0
 40
1.297738
100
AcDbArc
 50
359.205673
 51
110.674935
  0
ARC
  5
1CE1
102
{ACAD_REACTORS
330
1CB5
102
}
100
AcDbEntity
  8
BORDER
100
AcDbCircle
 10
51.23085
 20
4.644608
 30
0.0
 40
1.707314
100
AcDbArc
 50
4.10812
 51
90.34444
  0
LINE
  5
1CE2
100
AcDbEntity
  8
BORDER
100
AcDbLine
 10
50.996845
 20
-2.628421
 30
0.0
 11
51.820375
 21
-2.628421
 31
0.0
  0
LINE
  5
1CE3
100
AcDbEntity
  8
BORDER
100
AcDbLine
 10
51.820375
 20
-0.446391
 30
0.0
 11
50.996845
 21
-0.446391
 31
0.0
  0
LINE
  5
1CE4
100
AcDbEntity
  8
BORDER
100
AcDbLine
 10
50.996845
 20
-0.446391
 30
0.0
 11
50.996845
 21
-2.628421
 31
0.0
  0
ARC
  5
1CE5
100
AcDbEntity
  8
BORDER
100
AcDbCircle
 10
51.820375
 20
-1.537406
 30
0.0
 40
1.091015
100
AcDbArc
 50
270.0
 51
90.0
  0
ARC
  5
1CE6
102
{ACAD_REACTORS
330
1CB5
102
}
100
AcDbEntity
  8
BORDER
100
AcDbCircle
 10
50.731489
 20
4.692308
 30
0.0
 40
1.250694
100
AcDbArc
 50
246.179097
 51
0.350223
  0
ARC
  5
1CE7
102
{ACAD_REACTORS
330
1CB5
102
}
100
AcDbEntity
  8
BORDER
100
AcDbCircle
 10
51.330924
 20
4.811847
 30
0.0
 40
1.603483
100
AcDbArc
 50
265.488062
 51
358.394374
  0
ARC
  5
1CE8
102
{ACAD_REACTORS
330
1CB5
102
}
100
AcDbEntity
  8
BORDER
100
AcDbCircle
 10
50.78529
 20
1.374923
 30
0.0
 40
0.558931
100
AcDbArc
 50
180.0
 51
270.0
  0
ARC
  5
1CE9
102
{ACAD_REACTORS
330
1CB5
102
}
100
AcDbEntity
  8
BORDER
100
AcDbCircle
 10
51.208453
 20
7.274444
 30
0.0
 40
4.061112
100
AcDbArc
 50
256.005504
 51
269.948223
  0
LINE
  5
1CEA
102
{ACAD_REACTORS
330
1CB5
102
}
100
AcDbEntity
  8
BORDER
100
AcDbLine
 10
50.78529
 20
0.815992
 30
0.0
 11
51.043946
 21
0.815992
 31
0.0
  0
LINE
  5
1CEB
102
{ACAD_REACTORS
330
1CB5
102
}
100
AcDbEntity
  8
BORDER
100
AcDbLine
 10
51.043946
 20
0.815992
 30
0.0
 11
51.043946
 21
0.668669
 31
0.0
  0
LINE
  5
1CEC
102
{ACAD_REACTORS
330
1CB5
102
}
100
AcDbEntity
  8
BORDER
100
AcDbLine
 10
50.226359
 20
3.33387
 30
0.0
 11
50.226359
 21
1.374923
 31
0.0
  0
LINE
  5
1CED
100
AcDbEntity
  8
BORDER
100
AcDbLine
 10
49.579454
 20
9.363546
 30
0.0
 11
50.069858
 21
9.363546
 31
0.0
  0
LINE
  5
1CEE
100
AcDbEntity
  8
BORDER
100
AcDbLine
 10
49.579454
 20
7.770749
 30
0.0
 11
50.069858
 21
7.770749
 31
0.0
  0
LINE
  5
1CEF
100
AcDbEntity
  8
BORDER
100
AcDbLine
 10
49.824656
 20
9.363546
 30
0.0
 11
49.824656
 21
7.770749
 31
0.0
  0
LINE
  5
1CF0
100
AcDbEntity
  8
BORDER
100
AcDbLine
 10
50.562862
 20
9.363546
 30
0.0
 11
51.521634
 21
9.363546
 31
0.0
  0
LINE
  5
1CF1
100
AcDbEntity
  8
BORDER
100
AcDbLine
 10
51.521634
 20
7.770749
 30
0.0
 11
50.562862
 21
7.770749
 31
0.0
  0
LINE
  5
1CF2
100
AcDbEntity
  8
BORDER
100
AcDbLine
 10
50.562862
 20
7.770749
 30
0.0
 11
50.562862
 21
9.363546
 31
0.0
  0
LINE
  5
1CF3
100
AcDbEntity
  8
BORDER
100
AcDbLine
 10
50.562862
 20
8.567148
 30
0.0
 11
51.312578
 21
8.567148
 31
0.0
  0
ARC
  5
1CF4
100
AcDbEntity
  8
BORDER
100
AcDbCircle
 10
52.605876
 20
8.161853
 30
0.0
 40
0.224922
100
AcDbArc
 50
331.630608
 51
60.315223
  0
ARC
  5
1CF5
100
AcDbEntity
  8
BORDER
100
AcDbCircle
 10
52.064043
 20
9.023986
 30
0.0
 40
0.224922
100
AcDbArc
 50
140.101426
 51
236.383068
  0
ARC
  5
1CF6
100
AcDbEntity
  8
BORDER
100
AcDbCircle
 10
59.311387
 20
19.925126
 30
0.0
 40
13.315332
100
AcDbArc
 50
236.383068
 51
240.315223
  0
ARC
  5
1CF7
100
AcDbEntity
  8
BORDER
100
AcDbCircle
 10
52.286305
 20
8.871258
 30
0.0
 40
0.494055
100
AcDbArc
 50
25.379638
 51
143.047804
  0
ARC
  5
1CF8
100
AcDbEntity
  8
BORDER
100
AcDbCircle
 10
52.350425
 20
8.275842
 30
0.0
 40
0.504298
100
AcDbArc
 50
200.502447
 51
334.026213
  0
ARC
  5
1CF9
100
AcDbEntity
  8
BORDER
100
AcDbCircle
 10
54.498909
 20
10.54516
 30
0.0
 40
2.65299
100
AcDbArc
 50
0.0
 51
90.0
  0
TEXT
  5
1D0A
100
AcDbEntity
  8
BORDER
 62
     6
100
AcDbText
 10
66.975975
 20
-4.932067
 30
0.0
 40
1.011783
  1
Phone: 800/354-4534  Fax: 574/223-6106
  7
ROMANC
100
AcDbText
  0
LINE
  5
1D0B
100
AcDbEntity
  8
BORDER
100
AcDbLine
 10
65.110869
 20
7.071369
 30
0.0
 11
105.548868
 21
7.071369
 31
0.0
  0
LINE
  5
1D0C
100
AcDbEntity
  8
BORDER
100
AcDbLine
 10
65.110869
 20
0.680406
 30
0.0
 11
127.693789
 21
0.680406
 31
0.0
  0
LINE
  5
1D0D
100
AcDbEntity
  8
BORDER
100
AcDbLine
 10
65.110869
 20
2.586189
 30
0.0
 11
127.693789
 21
2.586189
 31
0.0
  0
LINE
  5
1D0E
100
AcDbEntity
  8
BORDER
100
AcDbLine
 10
67.763859
 20
13.19815
 30
0.0
 11
127.693789
 21
13.19815
 31
0.0
  0
LINE
  5
1D0F
100
AcDbEntity
  8
BORDER
100
AcDbLine
 10
65.110869
 20
-5.372781
 30
0.0
 11
127.693789
 21
-5.372781
 31
0.0
  0
TEXT
  5
1D11
100
AcDbEntity
  8
BORDER
 62
     6
100
AcDbText
 10
76.11103
 20
-2.897164
 30
0.0
 40
1.011783
  1
Rochester, IN  46975
  7
ROMANC
100
AcDbText
  0
TEXT
  5
1D12
100
AcDbEntity
  8
BORDER
 62
     6
100
AcDbText
 10
71.754006
 20
-1.100328
 30
0.0
 40
1.011783
  1
Highway 25 North P.O. Box 420
  7
ROMANC
100
AcDbText
  0
LWPOLYLINE
  5
1D14
100
AcDbEntity
  8
BORDER
 62
     5
100
AcDbPolyline
 90
        2
 70
     0
 43
1.326495
 10
59.804889
 20
-5.372781
 10
59.804889
 20
10.54516
  0
LWPOLYLINE
  5
1D15
100
AcDbEntity
  8
BORDER
 62
     5
100
AcDbPolyline
 90
        2
 70
     0
 43
1.326495
 10
62.457879
 20
10.54516
 10
62.457879
 20
-5.372781
  0
LINE
  5
1D16
100
AcDbEntity
  8
BORDER
100
AcDbLine
 10
65.110869
 20
-5.372781
 30
0.0
 11
65.110869
 21
0.680406
 31
0.0
  0
LWPOLYLINE
  5
1D18
100
AcDbEntity
  8
BORDER
 62
     5
100
AcDbPolyline
 90
        2
 70
     0
 43
1.326495
 10
67.763859
 20
15.85114
 42
0.414214
 10
62.457879
 20
10.54516
 42
-0.560527
  0
TEXT
  5
1D19
100
AcDbEntity
  8
BORDER
 62
     6
100
AcDbText
 10
65.49528
 20
5.303947
 30
0.0
 40
1.190333
  1
Reference:
  7
ROMANC
100
AcDbText
  0
ARC
  5
1D1A
100
AcDbEntity
  8
BORDER
100
AcDbCircle
 10
67.763859
 20
10.54516
 30
0.0
 40
2.65299
100
AcDbArc
 50
90.0
 51
180.0
  0
LINE
  5
1D1B
100
AcDbEntity
  8
BORDER
100
AcDbLine
 10
65.110869
 20
2.586189
 30
0.0
 11
65.110869
 21
10.54516
 31
0.0
  0
TEXT
  5
1D1D
100
AcDbEntity
  8
BORDER
 62
     6
100
AcDbText
 10
82.330463
 20
3.316957
 30
0.0
 40
1.190333
  1
CFM42X50X48A
  7
ROMANC
100
AcDbText
  0
LINE
  5
1D26
100
AcDbEntity
  8
BORDER
100
AcDbLine
 10
105.548868
 20
-5.372781
 30
0.0
 11
105.548868
 21
0.680406
 31
0.0
  0
TEXT
  5
1D27
100
AcDbEntity
  8
BORDER
 62
     6
100
AcDbText
 10
106.160487
 20
-1.390834
 30
0.0
 40
1.190333
  1
Supersedes Prints
  7
ROMANC
100
AcDbText
  0
TEXT
  5
1D28
100
AcDbEntity
  8
BORDER
 62
     6
100
AcDbText
 10
106.092633
 20
5.769753
 30
0.0
 40
1.190333
  1
Appv'd By: .
  7
ROMANC
100
AcDbText
  0
TEXT
  5
1D29
100
AcDbEntity
  8
BORDER
 62
     6
100
AcDbText
 10
106.092633
 20
2.933585
 30
0.0
 40
1.190333
  1
Date: 04/14/04
  7
ROMANC
100
AcDbText
  0
TEXT
  5
1D2A
100
AcDbEntity
  8
BORDER
 62
     6
100
AcDbText
 10
106.160487
 20
-3.31804
 30
0.0
 40
1.190333
  1
Prior To:
  7
ROMANC
100
AcDbText
  0
TEXT
  5
1D2B
100
AcDbEntity
  8
BORDER
 62
     6
100
AcDbText
 10
106.092633
 20
8.605921
 30
0.0
 40
1.190333
  1
Drawn By:
  7
ROMANC
100
AcDbText
  0
TEXT
  5
1D2C
100
AcDbEntity
  8
BORDER
 62
     6
100
AcDbText
 10
106.092633
 20
11.442088
 30
0.0
 40
1.190333
  1
Scale: None
  7
ROMANC
100
AcDbText
  0
LINE
  5
1D2E
100
AcDbEntity
  8
BORDER
100
AcDbLine
 10
105.548868
 20
2.586189
 30
0.0
 11
105.548868
 21
13.19815
 31
0.0
  0
TEXT
  5
1D37
100
AcDbEntity
  8
BORDER
 62
     6
100
AcDbText
 10
117.016602
 20
8.479151
 30
0.0
 40
1.623506
  1
RM
  7
COUNTRYBLUEPRINT
100
AcDbText
  0
LWPOLYLINE
  5
1E77
100
AcDbEntity
  8
BORDER
 62
     5
100
AcDbPolyline
 90
        2
 70
     0
 43
0.530598
 10
212.415675
 20
16.863381
 10
212.415675
 20
240.283103
  0
LINE
  5
1E78
100
AcDbEntity
  8
LIMITS
 62
     7
100
AcDbLine
 10
216.660459
 20
-13.331751
 30
0.0
 11
216.660459
 21
246.650279
 31
0.0
  0
LINE
  5
1E79
100
AcDbEntity
  8
LIMITS
100
AcDbLine
 10
216.660459
 20
241.355291
 30
0.0
 11
216.660459
 21
-13.331751
 31
0.0
  0
LINE
  5
1E7A
100
AcDbEntity
  8
LIMITS
100
AcDbLine
 10
216.660459
 20
-13.331751
 30
0.0
 11
216.660459
 21
241.355291
 31
0.0
  0
LINE
  5
1E7D
100
AcDbEntity
  8
BORDER
100
AcDbLine
 10
207.109695
 20
-5.372781
 30
0.0
 11
175.273815
 21
-5.372781
 31
0.0
  0
TEXT
  5
1E7E
100
AcDbEntity
  8
BORDER
 62
     6
100
AcDbText
 10
180.807764
 20
6.476102
 30
0.0
 40
1.326495
  1
First Released 06/27/03
  7
ROMAND
100
AcDbText
  0
LINE
  5
1E7F
100
AcDbEntity
  8
BORDER
100
AcDbLine
 10
207.109695
 20
-2.148378
 30
0.0
 11
177.926805
 21
-2.148378
 31
0.0
  0
LINE
  5
1E80
100
AcDbEntity
  8
BORDER
100
AcDbLine
 10
207.109695
 20
0.504612
 30
0.0
 11
177.926805
 21
0.504612
 31
0.0
  0
LINE
  5
1E81
100
AcDbEntity
  8
BORDER
100
AcDbLine
 10
207.109695
 20
3.157602
 30
0.0
 11
177.926805
 21
3.157602
 31
0.0
  0
LINE
  5
1E82
100
AcDbEntity
  8
BORDER
100
AcDbLine
 10
207.109695
 20
5.810592
 30
0.0
 11
177.926805
 21
5.810592
 31
0.0
  0
LINE
  5
1E83
100
AcDbEntity
  8
BORDER
100
AcDbLine
 10
207.109695
 20
8.463582
 30
0.0
 11
177.926805
 21
8.463582
 31
0.0
  0
LINE
  5
1E84
100
AcDbEntity
  8
BORDER
100
AcDbLine
 10
207.109695
 20
13.19815
 30
0.0
 11
177.926805
 21
13.19815
 31
0.0
  0
LWPOLYLINE
  5
1E85
100
AcDbEntity
  8
BORDER
 62
     5
100
AcDbPolyline
 90
        2
 70
     0
 43
1.326495
 10
207.109695
 20
15.85114
 10
177.926805
 20
15.85114
  0
ARC
  5
1E86
100
AcDbEntity
  8
BORDER
100
AcDbCircle
 10
164.661855
 20
10.54516
 30
0.0
 40
2.65299
100
AcDbArc
 50
0.0
 51
90.0
  0
LWPOLYLINE
  5
1E87
100
AcDbEntity
  8
BORDER
 62
     5
100
AcDbPolyline
 90
        2
 70
     0
 43
1.326495
 10
164.661855
 20
15.85114
 42
-0.414214
 10
169.967835
 20
10.54516
 42
0.560527
  0
LINE
  5
1E88
100
AcDbEntity
  8
BORDER
100
AcDbLine
 10
137.384748
 20
-5.372781
 30
0.0
 11
167.314845
 21
-5.372781
 31
0.0
  0
LINE
  5
1E89
100
AcDbEntity
  8
BORDER
100
AcDbLine
 10
137.384748
 20
0.680406
 30
0.0
 11
167.314845
 21
0.680406
 31
0.0
  0
LINE
  5
1E8A
100
AcDbEntity
  8
BORDER
100
AcDbLine
 10
137.384748
 20
0.680406
 30
0.0
 11
137.384748
 21
-5.372781
 31
0.0
  0
LINE
  5
1E8B
100
AcDbEntity
  8
BORDER
100
AcDbLine
 10
135.478965
 20
0.680406
 30
0.0
 11
135.478965
 21
-5.372781
 31
0.0
  0
TEXT
  5
1E8C
100
AcDbEntity
  8
BORDER
 62
     6
100
AcDbText
 10
138.011196
 20
-3.186135
 30
0.0
 40
1.190333
  1
No:
  7
ROMANC
100
AcDbText
  0
TEXT
  5
1E8D
100
AcDbEntity
  8
BORDER
 62
     6
100
AcDbText
 10
138.011196
 20
-1.258929
 30
0.0
 40
1.190333
  1
Reference
  7
ROMANC
100
AcDbText
  0
TEXT
  5
1E8E
100
AcDbEntity
  8
BORDER
 62
     6
100
AcDbText
 10
148.192219
 20
-4.019578
 30
0.0
 40
3.571
  1
17631
  7
ROMANC
100
AcDbText
  0
LINE
  5
1E8F
100
AcDbEntity
  8
BORDER
100
AcDbLine
 10
167.314845
 20
0.680406
 30
0.0
 11
167.314845
 21
-5.372781
 31
0.0
  0
LINE
  5
1E90
100
AcDbEntity
  8
BORDER
100
AcDbLine
 10
175.273815
 20
-5.372781
 30
0.0
 11
175.273815
 21
10.54516
 31
0.0
  0
LWPOLYLINE
  5
1E91
100
AcDbEntity
  8
BORDER
 62
     5
100
AcDbPolyline
 90
        2
 70
     0
 43
1.326495
 10
172.620825
 20
-5.372781
 10
172.620825
 20
10.54516
  0
LWPOLYLINE
  5
1E92
100
AcDbEntity
  8
BORDER
 62
     5
100
AcDbPolyline
 90
        2
 70
     0
 43
1.326495
 10
169.967835
 20
-5.372781
 10
169.967835
 20
10.54516
  0
LWPOLYLINE
  5
1E93
100
AcDbEntity
  8
BORDER
 62
     5
100
AcDbPolyline
 90
        2
 70
     0
 43
1.326495
 10
177.926805
 20
15.85114
 42
0.414214
 10
172.620825
 20
10.54516
 42
-0.560527
  0
LINE
  5
1E94
100
AcDbEntity
  8
BORDER
100
AcDbLine
 10
167.314845
 20
10.54516
 30
0.0
 11
167.314845
 21
2.586189
 31
0.0
  0
LINE
  5
1E95
100
AcDbEntity
  8
BORDER
100
AcDbLine
 10
177.926805
 20
8.463582
 30
0.0
 11
177.926805
 21
-2.148378
 31
0.0
  0
LINE
  5
1E96
100
AcDbEntity
  8
BORDER
100
AcDbLine
 10
180.579795
 20
8.463582
 30
0.0
 11
180.579795
 21
-2.148378
 31
0.0
  0
LWPOLYLINE
  5
1E97
100
AcDbEntity
  8
BORDER
100
AcDbPolyline
 90
        6
 70
     1
 43
0.0
 10
179.818117
 20
6.153358
 10
180.383337
 20
7.132349
 10
179.818117
 20
8.11134
 10
178.687675
 20
8.11134
 10
178.122455
 20
7.132349
 10
178.687675
 20
6.153358
  0
ARC
  5
1E98
100
AcDbEntity
  8
BORDER
100
AcDbCircle
 10
177.926805
 20
10.54516
 30
0.0
 40
2.65299
100
AcDbArc
 50
90.0
 51
180.0
  0
TEXT
  5
1E99
100
AcDbEntity
  8
BORDER
 62
     6
100
AcDbText
 10
178.622912
 20
6.476102
 30
0.0
 40
1.326495
  1
1
  7
ROMAND
100
AcDbText
  0
TEXT
  5
1E9A
100
AcDbEntity
  8
BORDER
 62
     6
100
AcDbText
 10
185.442515
 20
9.651756
 30
0.0
 40
1.7855
  1
Revisions
  7
ROMANC
100
AcDbText
  0
LWPOLYLINE
  5
1ED4
100
AcDbEntity
  8
BORDER
 62
     5
100
AcDbPolyline
 90
        2
 70
     0
 43
1.326495
 10
207.109695
 20
-8.025771
 42
0.414214
 10
212.415675
 20
-2.719791
 42
-0.560527
  0
ARC
  5
1ED5
100
AcDbEntity
  8
BORDER
100
AcDbCircle
 10
207.109695
 20
-2.719791
 30
0.0
 40
2.65299
100
AcDbArc
 50
270.0
 51
0.0
  0
LWPOLYLINE
  5
1ED6
100
AcDbEntity
  8
BORDER
 62
     5
100
AcDbPolyline
 90
        2
 70
     0
 43
1.326495
 10
207.109695
 20
15.85114
 42
-0.414214
 10
212.415675
 20
10.54516
 42
0.560527
  0
ARC
  5
1ED7
100
AcDbEntity
  8
BORDER
100
AcDbCircle
 10
207.109695
 20
10.54516
 30
0.0
 40
2.65299
100
AcDbArc
 50
0.0
 51
90.0
  0
LINE
  5
1ED8
100
AcDbEntity
  8
BORDER
100
AcDbLine
 10
207.109695
 20
8.463582
 30
0.0
 11
207.109695
 21
-2.148378
 31
0.0
  0
LWPOLYLINE
  5
1ED9
100
AcDbEntity
  8
BORDER
 62
     5
100
AcDbPolyline
 90
        2
 70
     0
 43
1.326495
 10
212.415675
 20
10.54516
 10
212.415675
 20
-2.719791
  0
LINE
  5
1EDA
100
AcDbEntity
  8
BORDER
100
AcDbLine
 10
209.762685
 20
-2.719791
 30
0.0
 11
209.762685
 21
10.54516
 31
0.0
  0
LINE
  5
25F2
100
AcDbEntity
  8
DIM
100
AcDbLine
 10
61.471152
 20
235.306893
 30
0.0
 11
154.506531
 21
235.306893
 31
0.0
  0
TEXT
  5
25F3
100
AcDbEntity
  8
DIM
100
AcDbText
 10
61.71232
 20
237.185438
 30
0.0
 40
1.6875
  1
42" X 50" X 48" RECTANGULAR FIBERGLASS VALVEBOX-FRVB42X50X48
  7
ROMANS
100
AcDbText
  0
LINE
  5
25FC
100
AcDbEntity
  8
DIM
100
AcDbLine
 10
64.839499
 20
137.82141
 30
0.0
 11
66.026761
 21
137.82141
 31
0.0
  0
TEXT
  5
25FD
100
AcDbEntity
  8
DIM
100
AcDbText
 10
56.423555
 20
134.79146
 30
0.0
 40
1.5
  1
Pin
  7
ROMANS
100
AcDbText
  0
TEXT
  5
25FE
100
AcDbEntity
  8
DIM
100
AcDbText
 10
56.423555
 20
137.220032
 30
0.0
 40
1.5
  1
Locking
  7
ROMANS
100
AcDbText
  0
LINE
  5
2600
100
AcDbEntity
  8
OBJECT
100
AcDbLine
 10
87.988841
 20
153.474635
 30
0.0
 11
88.221975
 21
153.474635
 31
0.0
  0
LINE
  5
2601
100
AcDbEntity
  8
OBJECT
100
AcDbLine
 10
87.988841
 20
152.580766
 30
0.0
 11
87.988841
 21
153.474635
 31
0.0
  0
LINE
  5
2602
100
AcDbEntity
  8
OBJECT
100
AcDbLine
 10
87.988841
 20
152.061896
 30
0.0
 11
88.221975
 21
152.061896
 31
0.0
  0
LINE
  5
2603
100
AcDbEntity
  8
OBJECT
100
AcDbLine
 10
88.221975
 20
153.474635
 30
0.0
 11
88.221975
 21
152.061896
 31
0.0
  0
LEADER
  5
2612
100
AcDbEntity
  8
DIM
100
AcDbLeader
  3
STANDARD
 76
     2
 10
87.988841
 20
152.061896
 30
0.0
 10
66.026761
 20
137.82141
 30
0.0
 77
   256
1001
ACAD
1000
DSTYLE
1002
{
1070
   340
1005
2F
1070
   147
1040
1.2
1070
   287
1070
     5
1070
    42
1040
0.25
1070
    44
1040
1.35
1070
    41
1040
1.25
1002
}
  0
LINE
  5
2616
100
AcDbEntity
  8
OBJECT
100
AcDbLine
 10
98.825293
 20
178.924708
 30
0.0
 11
134.988841
 21
152.76116
 31
0.0
  0
LINE
  5
2617
100
AcDbEntity
  8
OBJECT
100
AcDbLine
 10
99.002667
 20
179.100887
 30
0.0
 11
135.165618
 21
152.937937
 31
0.0
  0
LINE
  5
261A
100
AcDbEntity
  8
OBJECT
100
AcDbLine
 10
140.988841
 20
153.01116
 30
0.0
 11
135.221839
 21
153.01116
 31
0.0
  0
LINE
  5
261B
100
AcDbEntity
  8
OBJECT
100
AcDbLine
 10
135.221839
 20
153.01116
 30
0.0
 11
135.221839
 21
152.76116
 31
0.0
  0
LINE
  5
261C
100
AcDbEntity
  8
OBJECT
100
AcDbLine
 10
134.988841
 20
152.76116
 30
0.0
 11
135.165618
 21
152.937937
 31
0.0
  0
LINE
  5
261D
100
AcDbEntity
  8
OBJECT
100
AcDbLine
 10
140.988841
 20
152.76116
 30
0.0
 11
140.988841
 21
153.01116
 31
0.0
  0
ARC
  5
261E
100
AcDbEntity
  8
OBJECT
  6
PHANTOM
100
AcDbCircle
 10
124.988841
 20
152.76116
 30
0.0
 40
37.000845
100
AcDbArc
 50
134.612872
 51
181.082874
  0
LEADER
  5
261F
100
AcDbEntity
  8
DIM
100
AcDbLeader
  3
STANDARD
 76
     2
 10
88.567269
 20
52.885662
 30
0.0
 10
91.150793
 20
79.210049
 30
0.0
 77
   256
1001
ACAD
1000
DSTYLE
1002
{
1070
   340
1005
2F
1070
   147
1040
1.2
1070
   287
1070
     5
1070
    42
1040
0.25
1070
    44
1040
1.35
1070
    41
1040
1.25
1002
}
  0
LINE
  5
2622
100
AcDbEntity
  8
OBJECT
100
AcDbLine
 10
91.597628
 20
50.328042
 30
0.0
 11
91.597628
 21
51.890542
 31
0.0
  0
LINE
  5
2623
100
AcDbEntity
  8
OBJECT
100
AcDbLine
 10
90.660128
 20
51.890542
 30
0.0
 11
90.660128
 21
50.328042
 31
0.0
  0
LINE
  5
2624
100
AcDbEntity
  8
OBJECT
100
AcDbLine
 10
90.753878
 20
54.359292
 30
0.0
 11
90.753878
 21
50.421792
 31
0.0
  0
LINE
  5
2625
100
AcDbEntity
  8
OBJECT
100
AcDbLine
 10
91.503878
 20
50.421792
 30
0.0
 11
91.503878
 21
54.359292
 31
0.0
  0
LINE
  5
2626
100
AcDbEntity
  8
CENTER
100
AcDbLine
 10
91.128878
 20
49.901768
 30
0.0
 11
91.128878
 21
54.881934
 31
0.0
  0
LINE
  5
2627
100
AcDbEntity
  8
OBJECT
100
AcDbLine
 10
91.503878
 20
50.421792
 30
0.0
 11
90.753878
 21
50.421792
 31
0.0
  0
LINE
  5
2628
100
AcDbEntity
  8
OBJECT
100
AcDbLine
 10
90.660128
 20
50.328042
 30
0.0
 11
91.597628
 21
50.328042
 31
0.0
  0
LINE
  5
2629
100
AcDbEntity
  8
OBJECT
100
AcDbLine
 10
91.503878
 20
54.359292
 30
0.0
 11
90.753878
 21
54.359292
 31
0.0
  0
LINE
  5
262A
100
AcDbEntity
  8
OBJECT
100
AcDbLine
 10
91.597628
 20
54.453042
 30
0.0
 11
90.660128
 21
54.453042
 31
0.0
  0
ARC
  5
262B
100
AcDbEntity
  8
OBJECT
100
AcDbCircle
 10
91.597628
 20
52.390542
 30
0.0
 40
0.5
100
AcDbArc
 50
270.0
 51
90.0
  0
LINE
  5
262C
100
AcDbEntity
  8
CENTER
100
AcDbLine
 10
92.308641
 20
52.390542
 30
0.0
 11
89.970206
 21
52.390542
 31
0.0
  0
ARC
  5
262D
100
AcDbEntity
  8
OBJECT
100
AcDbCircle
 10
90.660128
 20
52.390542
 30
0.0
 40
0.5
100
AcDbArc
 50
90.0
 51
270.0
  0
LINE
  5
262E
100
AcDbEntity
  8
OBJECT
100
AcDbLine
 10
90.660128
 20
54.453042
 30
0.0
 11
90.660128
 21
52.890542
 31
0.0
  0
LINE
  5
262F
100
AcDbEntity
  8
OBJECT
100
AcDbLine
 10
91.597628
 20
52.890542
 30
0.0
 11
91.597628
 21
54.453042
 31
0.0
  0
DIMENSION
  5
264C
100
AcDbEntity
  8
DIM
100
AcDbDimension
  2
*D17
 10
140.988841
 20
26.259736
 30
0.0
 11
135.106698
 21
32.259736
 31
0.0
 12
10.0
 22
-14.515046
 32
0.0
 70
    32
  3
STANDARD
100
AcDbAlignedDimension
 13
134.988841
 23
30.141851
 33
0.0
 14
140.988841
 24
30.141851
 34
0.0
100
AcDbRotatedDimension
1001
ACAD
1000
DSTYLE
1002
{
1070
   270
1070
     7
1070
   340
1005
2F
1070
   147
1040
1.2
1070
   287
1070
     0
1070
    42
1040
0.25
1070
    44
1040
1.35
1070
    41
1040
1.25
1002
}
  0
TEXT
  5
2667
100
AcDbEntity
  8
BORDER
 62
     6
100
AcDbText
 10
65.857641
 20
10.797126
 30
0.0
 40
1.041312
  1
30"x40"x36" Rectangular Fiberglass Valvebox
  7
ROMANC
100
AcDbText
  0
TEXT
  5
2668
100
AcDbEntity
  8
BORDER
 62
     6
100
AcDbText
 10
74.080119
 20
8.115585
 30
0.0
 40
1.041312
  1
Frogmouth Alum. Cover 
  7
ROMANC
100
AcDbText
  0
TEXT
  5
2669
100
AcDbEntity
  8
DIM
100
AcDbText
 10
71.113742
 20
91.052598
 30
0.0
 40
2.25
  1
FROGMOUTH ALUMINUM COVER-CFM42X50X48A
  7
ROMANS
100
AcDbText
  0
LINE
  5
266A
100
AcDbEntity
  8
DIM
100
AcDbLine
 10
69.286377
 20
89.021827
 30
0.0
 11
151.351787
 21
89.021827
 31
0.0
  0
LINE
  5
266D
100
AcDbEntity
  8
CENTER
100
AcDbLine
 10
137.601452
 20
74.016851
 30
0.0
 11
137.988841
 21
74.016851
 31
0.0
  0
LINE
  5
266E
100
AcDbEntity
  8
CENTER
100
AcDbLine
 10
137.988841
 20
73.629462
 30
0.0
 11
137.988841
 21
74.016851
 31
0.0
  0
LINE
  5
266F
100
AcDbEntity
  8
CENTER
100
AcDbLine
 10
138.37623
 20
74.016851
 30
0.0
 11
137.988841
 21
74.016851
 31
0.0
  0
CIRCLE
  5
2670
100
AcDbEntity
  8
OBJECT
100
AcDbCircle
 10
137.988841
 20
74.016851
 30
0.0
 40
0.19
  0
LINE
  5
2671
100
AcDbEntity
  8
CENTER
100
AcDbLine
 10
137.988841
 20
74.40424
 30
0.0
 11
137.988841
 21
74.016851
 31
0.0
  0
LINE
  5
267A
100
AcDbEntity
  8
CENTER
100
AcDbLine
 10
139.488841
 20
62.02924
 30
0.0
 11
139.488841
 21
61.641851
 31
0.0
  0
CIRCLE
  5
267B
100
AcDbEntity
  8
OBJECT
100
AcDbCircle
 10
139.488841
 20
61.641851
 30
0.0
 40
0.19
  0
LINE
  5
267C
100
AcDbEntity
  8
CENTER
100
AcDbLine
 10
139.87623
 20
61.641851
 30
0.0
 11
139.488841
 21
61.641851
 31
0.0
  0
LINE
  5
267D
100
AcDbEntity
  8
CENTER
100
AcDbLine
 10
139.488841
 20
61.254462
 30
0.0
 11
139.488841
 21
61.641851
 31
0.0
  0
LINE
  5
267E
100
AcDbEntity
  8
CENTER
100
AcDbLine
 10
139.101452
 20
61.641851
 30
0.0
 11
139.488841
 21
61.641851
 31
0.0
  0
TEXT
  5
2684
100
AcDbEntity
  8
DIM
100
AcDbText
 10
159.460701
 20
50.03128
 30
0.0
 40
1.5
  1
Holes
  7
ROMANS
100
AcDbText
  0
TEXT
  5
2685
100
AcDbEntity
  8
DIM
100
AcDbText
 10
159.460701
 20
52.459851
 30
0.0
 40
1.5
  1
(4)9/16 Dia.
  7
ROMANS
100
AcDbText
  0
LEADER
  5
2686
100
AcDbEntity
  8
DIM
100
AcDbLeader
  3
STANDARD
 76
     2
 10
139.676374
 20
61.611329
 30
0.0
 10
157.143143
 20
53.12117
 30
0.0
 77
   256
1001
ACAD
1000
DSTYLE
1002
{
1070
    78
1070
     8
1070
   270
1070
     7
1070
   140
1040
1.5
1070
    74
1070
     0
1070
   172
1070
     1
1070
    73
1070
     0
1070
   147
1040
1.5
1070
    41
1040
2.0
1002
}
  0
LINE
  5
2687
100
AcDbEntity
  8
DIM
100
AcDbLine
 10
159.129621
 20
53.12117
 30
0.0
 11
157.143143
 21
53.12117
 31
0.0
  0
TEXT
  5
26EB
100
AcDbEntity
  8
BORDER
 62
     6
100
AcDbText
 10
82.330463
 20
5.113199
 30
0.0
 40
1.190333
  1
FRVB42X50X48
  7
ROMANC
100
AcDbText
  0
DIMENSION
  5
2717
100
AcDbEntity
  8
DIM
100
AcDbDimension
  2
*D20
 10
137.988841
 20
99.078234
 30
0.0
 11
112.988841
 21
99.078234
 31
0.0
 70
    32
  1
<>"
  3
STANDARD
100
AcDbAlignedDimension
 13
87.988841
 23
105.01116
 33
0.0
 14
137.988841
 24
105.01116
 34
0.0
100
AcDbRotatedDimension
1001
ACAD
1000
DSTYLE
1002
{
1070
   270
1070
     7
1070
   340
1005
2F
1070
   147
1040
1.2
1070
   287
1070
     0
1070
    42
1040
0.25
1070
    44
1040
1.35
1070
    41
1040
1.25
1002
}
  0
DIMENSION
  5
2749
100
AcDbEntity
  8
DIM
100
AcDbDimension
  2
*D21
 10
86.238841
 20
19.384921
 30
0.0
 11
113.613841
 21
19.884921
 31
0.0
 12
0.0
 22
-0.5
 32
0.0
 70
    32
  1
<>"
  3
STANDARD
100
AcDbAlignedDimension
 13
140.988841
 23
30.141851
 33
0.0
 14
86.238841
 24
30.141851
 34
0.0
100
AcDbRotatedDimension
1001
ACAD
1000
DSTYLE
1002
{
1070
   270
1070
     7
1070
   340
1005
2F
1070
   147
1040
1.2
1070
   287
1070
     0
1070
    42
1040
0.25
1070
    44
1040
1.35
1070
    41
1040
1.25
1002
}
  0
DIMENSION
  5
2763
100
AcDbEntity
  8
DIM
100
AcDbDimension
  2
*D22
 10
81.284798
 20
104.76116
 30
0.0
 11
81.284798
 21
128.76116
 31
0.0
 70
    32
  1
<>"
  3
STANDARD
100
AcDbAlignedDimension
 13
85.988841
 23
152.76116
 33
0.0
 14
88.238841
 24
104.76116
 34
0.0
 50
90.0
100
AcDbRotatedDimension
1001
ACAD
1000
DSTYLE
1002
{
1070
   270
1070
     7
1070
   340
1005
2F
1070
   147
1040
1.2
1070
   287
1070
     0
1070
    42
1040
0.25
1070
    44
1040
1.35
1070
    41
1040
1.25
1002
}
  0
DIMENSION
  5
277D
100
AcDbEntity
  8
DIM
100
AcDbDimension
  2
*D23
 10
75.983159
 20
185.877012
 30
0.0
 11
75.983159
 21
206.877012
 31
0.0
 12
0.0
 22
11.091696
 32
0.0
 70
    32
  1
<>"
  3
STANDARD
100
AcDbAlignedDimension
 13
87.988841
 23
227.877012
 33
0.0
 14
87.988841
 24
185.877012
 34
0.0
 50
90.0
100
AcDbRotatedDimension
1001
ACAD
1000
DSTYLE
1002
{
1070
   270
1070
     7
1070
   340
1005
2F
1070
   147
1040
1.2
1070
   287
1070
     0
1070
    42
1040
0.25
1070
    44
1040
1.35
1070
    41
1040
1.25
1002
}
  0
DIMENSION
  5
27AF
100
AcDbEntity
  8
DIM
100
AcDbDimension
  2
*D24
 10
71.892405
 20
30.141851
 30
0.0
 11
71.892405
 21
52.391851
 31
0.0
 70
    32
  1
<>"
  3
STANDARD
100
AcDbAlignedDimension
 13
86.238841
 23
74.641851
 33
0.0
 14
86.238841
 24
30.141851
 34
0.0
 50
90.0
100
AcDbRotatedDimension
1001
ACAD
1000
DSTYLE
1002
{
1070
   270
1070
     7
1070
   340
1005
2F
1070
   147
1040
1.2
1070
   287
1070
     0
1070
    42
1040
0.25
1070
    44
1040
1.35
1070
    41
1040
1.25
1002
}
  0
LINE
  5
27D7
100
AcDbEntity
  8
CENTER
100
AcDbLine
 10
139.101452
 20
43.141851
 30
0.0
 11
139.488841
 21
43.141851
 31
0.0
  0
LINE
  5
27D8
100
AcDbEntity
  8
CENTER
100
AcDbLine
 10
139.87623
 20
43.141851
 30
0.0
 11
139.488841
 21
43.141851
 31
0.0
  0
CIRCLE
  5
27D9
100
AcDbEntity
  8
OBJECT
100
AcDbCircle
 10
139.488841
 20
43.141851
 30
0.0
 40
0.19
  0
LINE
  5
27DA
100
AcDbEntity
  8
CENTER
100
AcDbLine
 10
139.488841
 20
42.754462
 30
0.0
 11
139.488841
 21
43.141851
 31
0.0
  0
LINE
  5
27DB
100
AcDbEntity
  8
CENTER
100
AcDbLine
 10
139.488841
 20
43.52924
 30
0.0
 11
139.488841
 21
43.141851
 31
0.0
  0
LINE
  5
2898
100
AcDbEntity
  8
CENTER
100
AcDbLine
 10
137.988841
 20
31.15424
 30
0.0
 11
137.988841
 21
30.766851
 31
0.0
  0
LINE
  5
2899
100
AcDbEntity
  8
CENTER
100
AcDbLine
 10
138.37623
 20
30.766851
 30
0.0
 11
137.988841
 21
30.766851
 31
0.0
  0
LINE
  5
289A
100
AcDbEntity
  8
CENTER
100
AcDbLine
 10
137.988841
 20
30.379462
 30
0.0
 11
137.988841
 21
30.766851
 31
0.0
  0
LINE
  5
289B
100
AcDbEntity
  8
CENTER
100
AcDbLine
 10
137.601452
 20
30.766851
 30
0.0
 11
137.988841
 21
30.766851
 31
0.0
  0
CIRCLE
  5
289C
100
AcDbEntity
  8
OBJECT
100
AcDbCircle
 10
137.988841
 20
30.766851
 30
0.0
 40
0.19
  0
DIMENSION
  5
28AA
100
AcDbEntity
  8
DIM
100
AcDbDimension
  2
*D25
 10
112.988841
 20
23.87546
 30
0.0
 11
125.488841
 21
23.87546
 31
0.0
 70
    32
  3
STANDARD
100
AcDbAlignedDimension
 13
137.988841
 23
30.379462
 33
0.0
 14
112.988841
 24
27.65521
 34
0.0
100
AcDbRotatedDimension
1001
ACAD
1000
DSTYLE
1002
{
1070
   270
1070
     7
1070
   340
1005
2F
1070
   147
1040
1.2
1070
   287
1070
     0
1070
    42
1040
0.25
1070
    44
1040
1.35
1070
    41
1040
1.25
1002
}
  0
DIMENSION
  5
28B9
100
AcDbEntity
  8
DIM
100
AcDbDimension
  2
*D26
 10
140.988841
 20
77.699767
 30
0.0
 11
145.138841
 21
77.699767
 31
0.0
 70
    32
  3
STANDARD
100
AcDbAlignedDimension
 13
137.988841
 23
74.40424
 33
0.0
 14
140.988841
 24
74.641851
 34
0.0
100
AcDbRotatedDimension
1001
ACAD
1000
DSTYLE
1002
{
1070
   270
1070
     7
1070
   340
1005
2F
1070
   147
1040
1.2
1070
   287
1070
     0
1070
    42
1040
0.25
1070
    44
1040
1.35
1070
    41
1040
1.25
1002
}
  0
ENDSEC
  0
SECTION
  2
OBJECTS
  0
DICTIONARY
  5
C
100
AcDbDictionary
  3
ACAD_GROUP
350
D
  3
ACAD_MLINESTYLE
350
1A
  3
ACDBVARIABLEDICTIONARY
350
45
  0
DICTIONARY
  5
D
102
{ACAD_REACTORS
330
C
102
}
100
AcDbDictionary
  0
DICTIONARY
  5
1A
102
{ACAD_REACTORS
330
C
102
}
100
AcDbDictionary
  3
STANDARD
350
1B
  0
DICTIONARY
  5
45
102
{ACAD_REACTORS
330
C
102
}
100
AcDbDictionary
  3
DIMADEC
350
46
  0
MLINESTYLE
  5
1B
102
{ACAD_REACTORS
330
1A
102
}
100
AcDbMlineStyle
  2
STANDARD
 70
     0
  3

 62
   256
 51
90.0
 52
90.0
 71
     2
 49
0.5
 62
   256
  6
BYLAYER
 49
-0.5
 62
   256
  6
BYLAYER
  0
DICTIONARYVAR
  5
46
102
{ACAD_REACTORS
330
45
102
}
100
DictionaryVariables
280
     0
  1
0
  0
ENDSEC
  0
EOF
